osu file format v14

[General]
AudioFilename: audio.ogg
AudioLeadIn: 0
PreviewTime: 119498
Countdown: 0
SampleSet: Soft
StackLeniency: 0.7
Mode: 3
LetterboxInBreaks: 0
SpecialStyle: 0
WidescreenStoryboard: 0

[Editor]
Bookmarks: 143648
DistanceSpacing: 0.8
BeatDivisor: 4
GridSize: 32
TimelineZoom: 1.599999

[Metadata]
Title:La Chica Vampira
TitleUnicode:La Chica Vampira
Artist:PAPA TOPO
ArtistUnicode:PAPA TOPO
Creator:Chrisse
Version:Enfermo de Amor
Source:
Tags:spanish indie pop rock 80s vampire elefant records band er-282 espaƱol espanol the vampire girl love sick
BeatmapID:4512168
BeatmapSetID:2143329

[Difficulty]
HPDrainRate:8
CircleSize:4
OverallDifficulty:8
ApproachRate:5
SliderMultiplier:1.4
SliderTickRate:1

[Events]
//Background and Video events
0,0,"bg.jpg",0,0
//Break Periods
//Storyboard Layer 0 (Background)
//Storyboard Layer 1 (Fail)
//Storyboard Layer 2 (Pass)
//Storyboard Layer 3 (Foreground)
//Storyboard Layer 4 (Overlay)
//Storyboard Sound Samples

[TimingPoints]
230,365.853658536585,4,2,1,50,1,0
32425,-100,4,2,1,50,0,1
55839,-100,4,2,1,50,0,0
85108,-100,4,2,1,50,0,1
108522,-100,4,2,1,50,0,0
120229,-100,4,2,1,50,0,1
167059,-100,4,2,1,50,0,0

[HitObjects]
64,192,230,5,2,0:0:0:0:
448,192,412,1,0,0:0:0:0:
64,192,595,1,0,0:0:0:30:snare.wav
192,192,595,1,0,0:0:0:0:
320,192,778,1,2,0:0:0:0:
320,192,961,1,2,0:0:0:0:
64,192,1144,1,0,0:0:0:0:
320,192,1327,1,0,0:0:0:30:snare.wav
448,192,1327,1,0,0:0:0:0:
192,192,1510,1,2,0:0:0:0:
192,192,1693,1,2,0:0:0:0:
448,192,1876,1,0,0:0:0:0:
64,192,2059,1,0,0:0:0:30:snare.wav
192,192,2059,1,0,0:0:0:0:
320,192,2242,1,2,0:0:0:0:
320,192,2425,1,2,0:0:0:0:
64,192,2608,1,8,0:0:0:0:
192,192,2608,1,0,0:0:0:0:
320,192,2790,1,8,0:0:0:0:
448,192,2790,1,0,0:0:0:0:
64,192,2882,1,8,0:0:0:0:
192,192,2882,1,0,0:0:0:0:
320,192,2973,1,8,0:0:0:0:
448,192,2973,1,0,0:0:0:0:
64,192,3065,1,8,0:0:0:0:
192,192,3065,1,0,0:0:0:0:
320,192,3156,1,2,0:0:0:0:
448,192,3156,1,0,0:0:0:0:
192,192,3339,1,2,0:0:0:0:
448,192,3339,1,0,0:0:0:0:
64,192,3522,1,8,0:0:0:0:
320,192,3522,1,0,0:0:0:0:
448,192,3522,1,0,0:0:0:0:
192,192,3705,1,0,0:0:0:0:
64,192,3888,1,2,0:0:0:0:
448,192,3888,1,0,0:0:0:0:
64,192,4071,1,2,0:0:0:0:
320,192,4071,1,0,0:0:0:0:
192,192,4254,1,8,0:0:0:0:
320,192,4254,1,0,0:0:0:0:
448,192,4254,1,0,0:0:0:0:
64,192,4437,1,2,0:0:0:0:
448,192,4437,1,0,0:0:0:0:
64,192,4620,1,2,0:0:0:0:
192,192,4620,1,0,0:0:0:0:
64,192,4803,1,2,0:0:0:0:
320,192,4803,1,0,0:0:0:0:
64,192,4986,1,8,0:0:0:0:
192,192,4986,1,0,0:0:0:0:
448,192,4986,1,0,0:0:0:0:
320,192,5169,1,0,0:0:0:0:
64,192,5351,1,2,0:0:0:0:
448,192,5351,1,0,0:0:0:0:
192,192,5534,1,2,0:0:0:0:
448,192,5534,1,0,0:0:0:0:
64,192,5717,1,8,0:0:0:0:
192,192,5717,1,0,0:0:0:0:
320,192,5717,1,0,0:0:0:0:
64,192,5900,1,2,0:0:0:0:
448,192,5900,1,0,0:0:0:0:
192,192,5992,1,2,0:0:0:0:
320,192,6083,1,2,0:0:0:0:
448,192,6083,1,0,0:0:0:0:
64,192,6266,1,2,0:0:0:0:
320,192,6266,1,0,0:0:0:0:
192,192,6449,1,8,0:0:0:0:
320,192,6449,1,0,0:0:0:0:
448,192,6449,1,0,0:0:0:0:
64,192,6632,1,0,0:0:0:0:
192,192,6815,1,2,0:0:0:0:
448,192,6815,1,0,0:0:0:0:
192,192,6998,1,2,0:0:0:0:
320,192,6998,1,0,0:0:0:0:
64,192,7181,1,8,0:0:0:0:
320,192,7181,1,0,0:0:0:0:
448,192,7181,1,0,0:0:0:0:
64,192,7364,1,2,0:0:0:0:
192,192,7364,1,0,0:0:0:0:
192,192,7547,1,2,0:0:0:0:
320,192,7547,1,0,0:0:0:0:
192,192,7729,1,2,0:0:0:0:
448,192,7729,1,0,0:0:0:0:
64,192,7912,1,8,0:0:0:0:
192,192,7912,1,0,0:0:0:0:
320,192,7912,1,0,0:0:0:0:
448,192,8095,1,0,0:0:0:0:
64,192,8278,1,2,0:0:0:0:
192,192,8278,1,0,0:0:0:0:
320,192,8461,1,8,0:0:0:0:
448,192,8461,1,0,0:0:0:0:
64,192,8553,1,8,0:0:0:0:
192,192,8553,1,0,0:0:0:0:
320,192,8644,1,8,0:0:0:0:
448,192,8644,1,0,0:0:0:0:
64,192,8736,1,8,0:0:0:0:
192,192,8736,1,0,0:0:0:0:
320,192,8827,1,8,0:0:0:0:
448,192,8827,1,0,0:0:0:0:
192,192,8919,1,8,0:0:0:0:
64,192,9010,1,4,0:0:0:0:
320,192,9010,1,2,0:0:0:0:
448,192,9010,1,0,0:0:0:0:
448,192,9193,1,0,0:0:0:0:
64,192,9376,1,8,0:0:0:0:
192,192,9376,1,0,0:0:0:0:
320,192,9376,1,0,0:0:0:0:
64,192,9559,1,0,0:0:0:0:
320,192,9742,1,2,0:0:0:0:
448,192,9742,1,0,0:0:0:0:
320,192,9925,1,2,0:0:0:0:
448,192,9925,1,0,0:0:0:0:
64,192,10108,1,8,0:0:0:0:
192,192,10108,1,0,0:0:0:0:
448,192,10108,1,0,0:0:0:0:
64,192,10290,1,2,0:0:0:0:
320,192,10290,1,0,0:0:0:0:
448,192,10473,1,0,0:0:0:0:
64,192,10656,1,2,0:0:0:0:
192,192,10656,1,0,0:0:0:0:
64,192,10839,1,8,0:0:0:0:
320,192,10839,1,0,0:0:0:0:
448,192,10839,1,0,0:0:0:0:
320,192,11022,1,0,0:0:0:0:
64,192,11205,1,2,0:0:0:0:
192,192,11205,1,0,0:0:0:0:
64,192,11388,1,2,0:0:0:0:
192,192,11388,1,0,0:0:0:0:
64,192,11571,1,8,0:0:0:0:
320,192,11571,1,0,0:0:0:0:
448,192,11571,1,0,0:0:0:0:
192,192,11754,1,2,0:0:0:0:
320,192,11754,1,0,0:0:0:0:
64,192,11937,1,2,0:0:0:0:
192,192,11937,1,0,0:0:0:0:
448,192,11937,1,0,0:0:0:0:
448,192,12120,1,0,0:0:0:0:
64,192,12303,1,8,0:0:0:0:
192,192,12303,1,0,0:0:0:0:
320,192,12303,1,0,0:0:0:0:
192,192,12486,1,0,0:0:0:0:
64,192,12669,1,2,0:0:0:0:
448,192,12669,1,0,0:0:0:0:
64,192,12851,1,2,0:0:0:0:
448,192,12851,1,0,0:0:0:0:
192,192,13034,1,8,0:0:0:0:
320,192,13034,1,0,0:0:0:0:
448,192,13034,1,0,0:0:0:0:
64,192,13217,1,2,0:0:0:0:
320,192,13217,1,0,0:0:0:0:
192,192,13400,1,0,0:0:0:0:
320,192,13583,1,2,0:0:0:0:
448,192,13583,1,0,0:0:0:0:
64,192,13766,1,8,0:0:0:0:
192,192,13766,1,0,0:0:0:0:
448,192,13766,1,0,0:0:0:0:
64,192,13949,1,0,0:0:0:0:
192,192,14132,1,2,0:0:0:0:
320,192,14132,1,0,0:0:0:0:
192,192,14315,1,2,0:0:0:0:
320,192,14315,1,0,0:0:0:0:
64,192,14498,1,8,0:0:0:0:
320,192,14498,1,0,0:0:0:0:
448,192,14498,1,0,0:0:0:0:
192,192,14681,1,2,0:0:0:0:
448,192,14681,1,0,0:0:0:0:
64,192,14864,1,2,0:0:0:0:
192,192,14864,1,0,0:0:0:0:
320,192,14864,1,0,0:0:0:0:
64,192,15047,1,0,0:0:0:0:
192,192,15229,1,8,0:0:0:0:
320,192,15229,1,0,0:0:0:0:
448,192,15229,1,0,0:0:0:0:
448,192,15412,1,0,0:0:0:0:
64,192,15595,1,2,0:0:0:0:
192,192,15595,1,0,0:0:0:0:
64,192,15778,1,2,0:0:0:0:
192,192,15778,1,0,0:0:0:0:
64,192,15961,1,8,0:0:0:0:
320,192,15961,1,0,0:0:0:0:
448,192,15961,1,0,0:0:0:0:
192,192,16144,1,2,0:0:0:0:
320,192,16144,1,0,0:0:0:0:
64,192,16327,1,0,0:0:0:0:
320,192,16510,1,2,0:0:0:0:
448,192,16510,1,0,0:0:0:0:
64,192,16693,1,8,0:0:0:0:
192,192,16693,1,0,0:0:0:0:
448,192,16693,1,0,0:0:0:0:
192,192,16876,1,0,0:0:0:0:
320,192,17059,1,2,0:0:0:0:
448,192,17059,1,0,0:0:0:0:
320,192,17242,1,2,0:0:0:0:
448,192,17242,1,0,0:0:0:0:
64,192,17425,1,8,0:0:0:0:
192,192,17425,1,0,0:0:0:0:
448,192,17425,1,0,0:0:0:0:
192,192,17608,1,2,0:0:0:0:
320,192,17608,1,0,0:0:0:0:
64,192,17790,1,2,0:0:0:0:
320,192,17790,1,0,0:0:0:0:
448,192,17790,1,0,0:0:0:0:
64,192,17973,1,0,0:0:0:0:
192,192,18156,1,8,0:0:0:0:
320,192,18156,1,0,0:0:0:0:
448,192,18156,1,0,0:0:0:0:
448,192,18339,1,0,0:0:0:0:
64,192,18522,1,2,0:0:0:0:
192,192,18522,1,0,0:0:0:0:
64,192,18705,1,2,0:0:0:0:
192,192,18705,1,0,0:0:0:0:
64,192,18888,1,8,0:0:0:0:
320,192,18888,1,0,0:0:0:0:
448,192,18888,1,0,0:0:0:0:
192,192,19071,1,2,0:0:0:0:
448,192,19071,1,0,0:0:0:0:
320,192,19254,1,0,0:0:0:0:
64,192,19437,1,2,0:0:0:0:
448,192,19437,1,0,0:0:0:0:
64,192,19620,1,8,0:0:0:0:
192,192,19620,1,0,0:0:0:0:
320,192,19620,1,0,0:0:0:0:
320,192,19803,1,0,0:0:0:0:
64,192,19986,1,2,0:0:0:0:
448,192,19986,1,0,0:0:0:0:
64,192,20169,1,2,0:0:0:0:
448,192,20169,1,0,0:0:0:0:
64,192,20351,1,8,0:0:0:0:
192,192,20351,1,0,0:0:0:0:
320,192,20351,1,0,0:0:0:0:
192,192,20534,1,8,0:0:0:0:
320,192,20534,1,0,0:0:0:0:
448,192,20534,1,0,0:0:0:0:
64,192,20717,1,2,0:0:0:0:
192,192,20717,1,4,0:0:0:0:
320,192,20717,1,0,0:0:0:0:
448,192,20717,1,0,0:0:0:0:
64,192,20900,1,0,0:0:0:0:
192,192,21083,1,8,0:0:0:0:
320,192,21083,1,0,0:0:0:0:
448,192,21083,1,0,0:0:0:0:
448,192,21266,1,0,0:0:0:0:
64,192,21449,1,2,0:0:0:0:
320,192,21449,1,0,0:0:0:0:
64,192,21632,1,2,0:0:0:0:
320,192,21632,1,0,0:0:0:0:
64,192,21815,1,8,0:0:0:0:
192,192,21815,1,0,0:0:0:0:
448,192,21815,1,0,0:0:0:0:
192,192,21998,1,2,0:0:0:0:
320,192,21998,1,0,0:0:0:0:
64,192,22181,1,0,0:0:0:0:
320,192,22364,1,2,0:0:0:0:
448,192,22364,1,0,0:0:0:0:
64,192,22547,1,8,0:0:0:0:
192,192,22547,1,0,0:0:0:0:
448,192,22547,1,0,0:0:0:0:
64,192,22729,1,0,0:0:0:0:
192,192,22912,1,2,0:0:0:0:
448,192,22912,1,0,0:0:0:0:
192,192,23095,1,2,0:0:0:0:
448,192,23095,1,0,0:0:0:0:
64,192,23278,1,8,0:0:0:0:
320,192,23278,1,0,0:0:0:0:
448,192,23278,1,0,0:0:0:0:
192,192,23461,1,2,0:0:0:0:
320,192,23461,1,0,0:0:0:0:
64,192,23644,1,2,0:0:0:0:
192,192,23644,1,0,0:0:0:0:
448,192,23644,1,0,0:0:0:0:
448,192,23827,1,0,0:0:0:0:
64,192,24010,1,8,0:0:0:0:
192,192,24010,1,0,0:0:0:0:
320,192,24010,1,0,0:0:0:0:
64,192,24193,1,0,0:0:0:0:
320,192,24376,1,2,0:0:0:0:
448,192,24376,1,0,0:0:0:0:
320,192,24559,1,2,0:0:0:0:
448,192,24559,1,0,0:0:0:0:
64,192,24742,1,8,0:0:0:0:
192,192,24742,1,0,0:0:0:0:
448,192,24742,1,0,0:0:0:0:
192,192,24925,1,2,0:0:0:0:
320,192,24925,1,0,0:0:0:0:
448,192,25108,1,0,0:0:0:0:
64,192,25290,1,2,0:0:0:0:
192,192,25290,1,0,0:0:0:0:
192,192,25473,1,8,0:0:0:0:
320,192,25473,1,0,0:0:0:0:
448,192,25473,1,0,0:0:0:0:
320,192,25656,1,0,0:0:0:0:
64,192,25839,1,2,0:0:0:0:
192,192,25839,1,0,0:0:0:0:
64,192,26022,1,2,0:0:0:0:
192,192,26022,1,0,0:0:0:0:
64,192,26205,1,8,0:0:0:0:
320,192,26205,1,0,0:0:0:0:
448,192,26205,1,0,0:0:0:0:
192,192,26388,1,2,0:0:0:0:
320,192,26388,1,0,0:0:0:0:
64,192,26571,1,2,0:0:0:0:
192,192,26571,1,0,0:0:0:0:
448,192,26571,1,0,0:0:0:0:
64,192,26754,1,0,0:0:0:0:
192,192,26937,1,8,0:0:0:0:
320,192,26937,1,0,0:0:0:0:
448,192,26937,1,0,0:0:0:0:
320,192,27120,1,0,0:0:0:0:
64,192,27303,1,2,0:0:0:0:
448,192,27303,1,0,0:0:0:0:
64,192,27486,1,2,0:0:0:0:
448,192,27486,1,0,0:0:0:0:
64,192,27669,1,8,0:0:0:0:
192,192,27669,1,0,0:0:0:0:
320,192,27669,1,0,0:0:0:0:
320,192,27851,1,2,0:0:0:0:
448,192,27851,1,0,0:0:0:0:
192,192,28034,1,0,0:0:0:0:
64,192,28217,1,2,0:0:0:0:
448,192,28217,1,0,0:0:0:0:
64,192,28400,1,8,0:0:0:0:
192,192,28400,1,0,0:0:0:0:
320,192,28400,1,0,0:0:0:0:
320,192,28583,1,0,0:0:0:0:
64,192,28766,1,2,0:0:0:0:
448,192,28766,1,0,0:0:0:0:
64,192,28949,1,2,0:0:0:0:
448,192,28949,1,0,0:0:0:0:
64,192,29132,1,8,0:0:0:0:
192,192,29132,1,0,0:0:0:0:
320,192,29132,1,0,0:0:0:0:
192,192,29315,1,2,0:0:0:0:
448,192,29315,1,0,0:0:0:0:
64,192,29498,1,2,0:0:0:0:
320,192,29498,1,0,0:0:0:0:
448,192,29498,1,0,0:0:0:0:
320,192,29681,1,0,0:0:0:0:
64,192,29864,1,8,0:0:0:0:
192,192,29864,1,0,0:0:0:0:
448,192,29864,1,0,0:0:0:0:
192,192,30047,1,0,0:0:0:0:
320,192,30229,1,2,0:0:0:0:
448,192,30229,1,0,0:0:0:0:
320,192,30412,1,2,0:0:0:0:
448,192,30412,1,0,0:0:0:0:
64,192,30595,1,8,0:0:0:0:
192,192,30595,1,0,0:0:0:0:
448,192,30595,1,0,0:0:0:0:
192,192,30778,1,2,0:0:0:0:
320,192,30778,1,0,0:0:0:0:
448,192,30961,1,0,0:0:0:0:
64,192,31144,1,2,0:0:0:0:
192,192,31144,1,0,0:0:0:0:
64,192,31327,1,8,0:0:0:0:
320,192,31327,1,0,0:0:0:0:
448,192,31327,1,0,0:0:0:0:
320,192,31510,1,0,0:0:0:0:
64,192,31693,1,8,0:0:0:0:
192,192,31693,1,0,0:0:0:0:
64,192,31784,1,8,0:0:0:0:
192,192,31784,1,0,0:0:0:0:
320,192,31876,1,8,0:0:0:0:
448,192,31876,1,0,0:0:0:0:
320,192,31967,1,8,0:0:0:0:
448,192,31967,1,0,0:0:0:0:
64,192,32059,1,0,0:0:0:45:Tom3.wav
192,192,32059,1,0,0:0:0:0:
320,192,32150,1,0,0:0:0:45:Tom3.wav
448,192,32150,1,0,0:0:0:0:
64,192,32242,1,0,0:0:0:45:Tom3.wav
192,192,32242,1,0,0:0:0:0:
320,192,32333,1,0,0:0:0:45:Tom3.wav
64,192,32425,128,4,32790:0:0:0:0:
192,192,32425,1,2,0:0:0:0:
448,192,32425,1,0,0:0:0:0:
320,192,32608,1,0,0:0:0:0:
192,192,32790,1,8,0:0:0:0:
320,192,32790,1,0,0:0:0:0:
448,192,32790,1,0,0:0:0:0:
64,192,32973,1,0,0:0:0:0:
320,192,33156,1,2,0:0:0:0:
448,192,33156,1,0,0:0:0:0:
320,192,33339,1,2,0:0:0:0:
448,192,33339,1,0,0:0:0:0:
64,192,33522,1,8,0:0:0:0:
192,192,33522,1,0,0:0:0:0:
448,192,33522,1,0,0:0:0:0:
192,192,33705,128,2,34071:0:0:0:0:
320,192,33705,1,0,0:0:0:0:
64,192,33888,1,0,0:0:0:0:
320,192,34071,128,2,34437:0:0:0:0:
448,192,34071,1,0,0:0:0:0:
64,192,34254,1,8,0:0:0:0:
192,192,34254,1,0,0:0:0:0:
448,192,34254,1,0,0:0:0:0:
64,192,34437,1,0,0:0:0:0:
192,192,34620,128,2,34803:0:0:0:0:
448,192,34620,1,0,0:0:0:0:
320,192,34803,1,2,0:0:0:0:
448,192,34803,1,0,0:0:0:0:
64,192,34986,128,8,35169:0:0:0:0:
192,192,34986,1,0,0:0:0:0:
320,192,34986,1,0,0:0:0:0:
192,192,35169,1,2,0:0:0:0:
448,192,35169,1,0,0:0:0:0:
64,192,35351,1,2,0:0:0:0:
320,192,35351,1,0,0:0:0:0:
448,192,35351,128,0,35717:0:0:0:0:
192,192,35534,1,0,0:0:0:0:
64,192,35717,1,8,0:0:0:0:
192,192,35717,1,0,0:0:0:0:
320,192,35717,1,0,0:0:0:0:
448,192,35900,1,0,0:0:0:0:
64,192,36083,1,2,0:0:0:0:
192,192,36083,1,0,0:0:0:0:
64,192,36266,1,2,0:0:0:0:
192,192,36266,1,0,0:0:0:0:
64,192,36449,1,8,0:0:0:0:
320,192,36449,128,0,36632:0:0:0:0:
448,192,36449,1,0,0:0:0:0:
192,192,36632,128,2,36998:0:0:0:0:
448,192,36632,1,0,0:0:0:0:
320,192,36815,1,0,0:0:0:0:
64,192,36998,1,2,0:0:0:0:
448,192,36998,128,0,37364:0:0:0:0:
64,192,37181,1,8,0:0:0:0:
192,192,37181,1,0,0:0:0:0:
320,192,37181,1,0,0:0:0:0:
320,192,37364,1,0,0:0:0:0:
64,192,37547,1,2,0:0:0:0:
192,192,37547,128,0,37729:0:0:0:0:
64,192,37729,1,2,0:0:0:0:
320,192,37729,1,0,0:0:0:0:
192,192,37912,1,8,0:0:0:0:
320,192,37912,128,0,38095:0:0:0:0:
448,192,37912,1,0,0:0:0:0:
64,192,38095,1,2,0:0:0:0:
448,192,38095,1,0,0:0:0:0:
64,192,38278,128,2,38644:0:0:0:0:
192,192,38278,1,0,0:0:0:0:
320,192,38278,1,0,0:0:0:0:
448,192,38461,1,0,0:0:0:0:
192,192,38644,1,8,0:0:0:0:
320,192,38644,1,0,0:0:0:0:
448,192,38644,1,0,0:0:0:0:
64,192,38827,1,0,0:0:0:0:
192,192,39010,1,2,0:0:0:0:
448,192,39010,1,0,0:0:0:0:
192,192,39193,1,2,0:0:0:0:
448,192,39193,1,0,0:0:0:0:
64,192,39376,1,8,0:0:0:0:
192,192,39376,1,0,0:0:0:0:
320,192,39376,1,0,0:0:0:0:
320,192,39559,128,2,39742:0:0:0:0:
448,192,39559,1,0,0:0:0:0:
192,192,39742,1,0,0:0:0:0:
64,192,39925,128,2,40290:0:0:0:0:
320,192,39925,1,0,0:0:0:0:
192,192,40108,1,8,0:0:0:0:
320,192,40108,1,0,0:0:0:0:
448,192,40108,1,0,0:0:0:0:
448,192,40290,1,0,0:0:0:0:
192,192,40473,1,2,0:0:0:0:
320,192,40473,128,0,40656:0:0:0:0:
64,192,40656,1,2,0:0:0:0:
448,192,40656,1,0,0:0:0:0:
64,192,40839,1,8,0:0:0:0:
192,192,40839,128,0,41022:0:0:0:0:
320,192,40839,1,0,0:0:0:0:
320,192,41022,1,2,0:0:0:0:
448,192,41022,1,0,0:0:0:0:
192,192,41205,1,2,0:0:0:0:
448,192,41205,128,0,41571:0:0:0:0:
64,192,41388,1,0,0:0:0:0:
64,192,41571,1,8,0:0:0:0:
192,192,41571,1,0,0:0:0:0:
320,192,41571,1,0,0:0:0:0:
320,192,41754,1,0,0:0:0:0:
64,192,41937,1,2,0:0:0:0:
192,192,41937,1,0,0:0:0:0:
64,192,42120,1,2,0:0:0:0:
192,192,42120,1,0,0:0:0:0:
64,192,42303,1,8,0:0:0:0:
320,192,42303,1,0,0:0:0:0:
448,192,42303,128,0,42486:0:0:0:0:
192,192,42486,128,2,42669:0:0:0:0:
320,192,42486,1,0,0:0:0:0:
64,192,42669,1,0,0:0:0:0:
320,192,42851,128,2,43217:0:0:0:0:
448,192,42851,1,0,0:0:0:0:
64,192,43034,1,8,0:0:0:0:
192,192,43034,1,0,0:0:0:0:
448,192,43034,1,0,0:0:0:0:
192,192,43217,1,0,0:0:0:0:
64,192,43400,1,8,0:0:0:0:
192,192,43400,1,4,0:0:0:0:
320,192,43400,1,0,0:0:0:0:
448,192,43400,1,0,0:0:0:0:
320,192,43583,1,2,0:0:0:0:
448,192,43583,1,0,0:0:0:0:
64,192,43766,1,4,0:0:0:0:
192,192,43766,1,8,0:0:0:0:
320,192,43766,1,0,0:0:0:0:
448,192,43766,1,0,0:0:0:0:
64,192,43949,1,2,0:0:0:0:
192,192,43949,1,0,0:0:0:0:
64,192,44132,128,2,44498:0:0:0:0:
192,192,44132,1,4,0:0:0:0:
320,192,44132,1,0,0:0:0:0:
448,192,44132,1,0,0:0:0:0:
320,192,44315,1,0,0:0:0:0:
192,192,44498,1,8,0:0:0:0:
320,192,44498,1,0,0:0:0:0:
448,192,44498,1,0,0:0:0:0:
448,192,44681,1,0,0:0:0:0:
64,192,44864,1,2,0:0:0:0:
192,192,44864,1,0,0:0:0:0:
64,192,45047,1,2,0:0:0:0:
192,192,45047,1,0,0:0:0:0:
64,192,45229,128,8,45412:0:0:0:0:
320,192,45229,1,0,0:0:0:0:
448,192,45229,1,0,0:0:0:0:
192,192,45412,1,2,0:0:0:0:
320,192,45412,128,0,45778:0:0:0:0:
448,192,45595,1,0,0:0:0:0:
64,192,45778,1,2,0:0:0:0:
192,192,45778,128,0,46144:0:0:0:0:
64,192,45961,1,8,0:0:0:0:
320,192,45961,1,0,0:0:0:0:
448,192,45961,1,0,0:0:0:0:
448,192,46144,1,0,0:0:0:0:
64,192,46327,1,2,0:0:0:0:
320,192,46327,128,0,46510:0:0:0:0:
64,192,46510,1,2,0:0:0:0:
192,192,46510,1,0,0:0:0:0:
192,192,46693,1,8,0:0:0:0:
320,192,46693,1,0,0:0:0:0:
448,192,46693,128,0,46876:0:0:0:0:
64,192,46876,1,2,0:0:0:0:
320,192,46876,1,0,0:0:0:0:
64,192,47059,128,2,47425:0:0:0:0:
192,192,47059,1,0,0:0:0:0:
448,192,47059,1,0,0:0:0:0:
320,192,47242,1,0,0:0:0:0:
192,192,47425,1,8,0:0:0:0:
320,192,47425,1,0,0:0:0:0:
448,192,47425,1,0,0:0:0:0:
64,192,47608,1,0,0:0:0:0:
320,192,47790,1,2,0:0:0:0:
448,192,47790,1,0,0:0:0:0:
320,192,47973,1,2,0:0:0:0:
448,192,47973,1,0,0:0:0:0:
64,192,48156,1,8,0:0:0:0:
192,192,48156,128,0,48339:0:0:0:0:
448,192,48156,1,0,0:0:0:0:
64,192,48339,1,2,0:0:0:0:
320,192,48339,128,0,48705:0:0:0:0:
448,192,48522,1,0,0:0:0:0:
64,192,48705,128,2,49071:0:0:0:0:
192,192,48705,1,0,0:0:0:0:
192,192,48888,1,8,0:0:0:0:
320,192,48888,1,0,0:0:0:0:
448,192,48888,1,0,0:0:0:0:
448,192,49071,1,0,0:0:0:0:
192,192,49254,1,2,0:0:0:0:
320,192,49254,128,0,49437:0:0:0:0:
64,192,49437,1,2,0:0:0:0:
192,192,49437,1,0,0:0:0:0:
64,192,49620,128,8,49803:0:0:0:0:
320,192,49620,1,0,0:0:0:0:
448,192,49620,1,0,0:0:0:0:
192,192,49803,1,2,0:0:0:0:
448,192,49803,1,0,0:0:0:0:
64,192,49986,1,2,0:0:0:0:
192,192,49986,1,0,0:0:0:0:
320,192,49986,128,0,50351:0:0:0:0:
64,192,50169,1,0,0:0:0:0:
64,192,50351,1,8,0:0:0:0:
192,192,50351,1,0,0:0:0:0:
448,192,50351,1,0,0:0:0:0:
448,192,50534,1,0,0:0:0:0:
192,192,50717,1,2,0:0:0:0:
320,192,50717,1,0,0:0:0:0:
192,192,50900,1,2,0:0:0:0:
320,192,50900,1,0,0:0:0:0:
64,192,51083,1,8,0:0:0:0:
320,192,51083,1,0,0:0:0:0:
448,192,51083,1,0,0:0:0:0:
64,192,51266,1,2,0:0:0:0:
192,192,51266,128,0,51632:0:0:0:0:
448,192,51449,1,0,0:0:0:0:
320,192,51632,1,2,0:0:0:0:
448,192,51632,128,0,51815:0:0:0:0:
64,192,51815,1,8,0:0:0:0:
192,192,51815,1,0,0:0:0:0:
320,192,51815,1,0,0:0:0:0:
64,192,51998,1,0,0:0:0:0:
192,192,52181,1,2,0:0:0:0:
448,192,52181,128,0,52364:0:0:0:0:
192,192,52364,1,2,0:0:0:0:
320,192,52364,1,0,0:0:0:0:
64,192,52547,128,8,52729:0:0:0:0:
320,192,52547,1,0,0:0:0:0:
448,192,52547,1,0,0:0:0:0:
192,192,52729,1,2,0:0:0:0:
448,192,52729,1,0,0:0:0:0:
192,192,52912,1,2,0:0:0:0:
320,192,52912,128,0,53278:0:0:0:0:
64,192,53095,1,0,0:0:0:0:
64,192,53278,1,8,0:0:0:0:
192,192,53278,1,0,0:0:0:0:
448,192,53278,1,0,0:0:0:0:
320,192,53461,1,0,0:0:0:0:
64,192,53644,1,2,0:0:0:0:
192,192,53644,1,0,0:0:0:0:
64,192,53827,1,2,0:0:0:0:
192,192,53827,1,0,0:0:0:0:
64,192,54010,1,8,0:0:0:0:
320,192,54010,1,0,0:0:0:0:
448,192,54010,1,0,0:0:0:0:
192,192,54193,128,2,54559:0:0:0:0:
448,192,54193,1,0,0:0:0:0:
64,192,54376,1,0,0:0:0:0:
320,192,54559,128,2,54925:0:0:0:0:
448,192,54559,1,0,0:0:0:0:
64,192,54742,1,8,0:0:0:0:
192,192,54742,1,0,0:0:0:0:
448,192,54742,1,0,0:0:0:0:
64,192,54925,1,0,0:0:0:0:
64,192,55108,1,8,0:0:0:0:
192,192,55108,1,4,0:0:0:0:
320,192,55108,1,0,0:0:0:0:
448,192,55108,1,0,0:0:0:0:
320,192,55290,1,2,0:0:0:0:
448,192,55290,1,0,0:0:0:0:
64,192,55473,1,8,0:0:0:0:
192,192,55473,1,4,0:0:0:0:
320,192,55473,1,0,0:0:0:0:
448,192,55473,1,0,0:0:0:0:
64,192,55656,1,2,0:0:0:0:
192,192,55656,1,0,0:0:0:0:
64,192,55839,1,4,0:0:0:0:
192,192,55839,1,2,0:0:0:0:
320,192,55839,1,0,0:0:0:0:
448,192,55839,1,0,0:0:0:0:
320,192,56022,1,2,0:0:0:0:
448,192,56022,1,0,0:0:0:0:
64,192,56205,1,8,0:0:0:0:
192,192,56205,1,0,0:0:0:0:
448,192,56205,1,0,0:0:0:0:
320,192,56388,1,0,0:0:0:0:
64,192,56571,1,2,0:0:0:0:
448,192,56571,1,0,0:0:0:0:
64,192,56754,1,2,0:0:0:0:
320,192,56754,1,0,0:0:0:0:
192,192,56937,1,8,0:0:0:0:
320,192,56937,1,0,0:0:0:0:
448,192,56937,1,0,0:0:0:0:
64,192,57120,1,2,0:0:0:0:
448,192,57120,1,0,0:0:0:0:
64,192,57303,1,2,0:0:0:0:
192,192,57303,1,0,0:0:0:0:
64,192,57486,1,2,0:0:0:0:
320,192,57486,1,0,0:0:0:0:
64,192,57669,1,8,0:0:0:0:
192,192,57669,1,0,0:0:0:0:
448,192,57669,1,0,0:0:0:0:
320,192,57851,1,0,0:0:0:0:
64,192,58034,1,2,0:0:0:0:
448,192,58034,1,0,0:0:0:0:
192,192,58217,1,2,0:0:0:0:
448,192,58217,1,0,0:0:0:0:
64,192,58400,1,8,0:0:0:0:
192,192,58400,1,0,0:0:0:0:
320,192,58400,1,0,0:0:0:0:
64,192,58583,1,2,0:0:0:0:
448,192,58583,1,0,0:0:0:0:
192,192,58675,1,2,0:0:0:0:
320,192,58766,1,2,0:0:0:0:
448,192,58766,1,0,0:0:0:0:
64,192,58949,1,2,0:0:0:0:
320,192,58949,1,0,0:0:0:0:
192,192,59132,1,8,0:0:0:0:
320,192,59132,1,0,0:0:0:0:
448,192,59132,1,0,0:0:0:0:
64,192,59315,1,0,0:0:0:0:
192,192,59498,1,2,0:0:0:0:
448,192,59498,1,0,0:0:0:0:
192,192,59681,1,2,0:0:0:0:
320,192,59681,1,0,0:0:0:0:
64,192,59864,1,8,0:0:0:0:
320,192,59864,1,0,0:0:0:0:
448,192,59864,1,0,0:0:0:0:
64,192,60047,1,2,0:0:0:0:
192,192,60047,1,0,0:0:0:0:
192,192,60229,1,2,0:0:0:0:
320,192,60229,1,0,0:0:0:0:
192,192,60412,1,2,0:0:0:0:
448,192,60412,1,0,0:0:0:0:
64,192,60595,1,8,0:0:0:0:
192,192,60595,1,0,0:0:0:0:
320,192,60595,1,0,0:0:0:0:
448,192,60778,1,0,0:0:0:0:
64,192,60961,1,2,0:0:0:0:
192,192,60961,1,0,0:0:0:0:
320,192,61144,1,8,0:0:0:0:
448,192,61144,1,0,0:0:0:0:
64,192,61236,1,8,0:0:0:0:
192,192,61236,1,0,0:0:0:0:
320,192,61327,1,8,0:0:0:0:
448,192,61327,1,0,0:0:0:0:
64,192,61419,1,8,0:0:0:0:
192,192,61419,1,0,0:0:0:0:
320,192,61510,1,8,0:0:0:0:
448,192,61510,1,0,0:0:0:0:
192,192,61601,1,8,0:0:0:0:
64,192,61693,1,2,0:0:0:0:
320,192,61693,1,4,0:0:0:0:
448,192,61693,1,0,0:0:0:0:
448,192,61876,1,0,0:0:0:0:
64,192,62059,1,8,0:0:0:0:
192,192,62059,1,0,0:0:0:0:
320,192,62059,1,0,0:0:0:0:
64,192,62242,1,0,0:0:0:0:
320,192,62425,1,2,0:0:0:0:
448,192,62425,1,0,0:0:0:0:
320,192,62608,1,2,0:0:0:0:
448,192,62608,1,0,0:0:0:0:
64,192,62790,1,8,0:0:0:0:
192,192,62790,1,0,0:0:0:0:
448,192,62790,1,0,0:0:0:0:
64,192,62973,1,2,0:0:0:0:
320,192,62973,1,0,0:0:0:0:
448,192,63156,1,0,0:0:0:0:
64,192,63339,1,2,0:0:0:0:
192,192,63339,1,0,0:0:0:0:
64,192,63522,1,8,0:0:0:0:
320,192,63522,1,0,0:0:0:0:
448,192,63522,1,0,0:0:0:0:
320,192,63705,1,0,0:0:0:0:
64,192,63888,1,2,0:0:0:0:
192,192,63888,1,0,0:0:0:0:
64,192,64071,1,2,0:0:0:0:
192,192,64071,1,0,0:0:0:0:
64,192,64254,1,8,0:0:0:0:
320,192,64254,1,0,0:0:0:0:
448,192,64254,1,0,0:0:0:0:
192,192,64437,1,2,0:0:0:0:
320,192,64437,1,0,0:0:0:0:
64,192,64620,1,2,0:0:0:0:
192,192,64620,1,0,0:0:0:0:
448,192,64620,1,0,0:0:0:0:
448,192,64803,1,0,0:0:0:0:
64,192,64986,1,8,0:0:0:0:
192,192,64986,1,0,0:0:0:0:
320,192,64986,1,0,0:0:0:0:
192,192,65169,1,0,0:0:0:0:
64,192,65351,1,2,0:0:0:0:
448,192,65351,1,0,0:0:0:0:
64,192,65534,1,2,0:0:0:0:
448,192,65534,1,0,0:0:0:0:
192,192,65717,1,8,0:0:0:0:
320,192,65717,1,0,0:0:0:0:
448,192,65717,1,0,0:0:0:0:
64,192,65900,1,2,0:0:0:0:
320,192,65900,1,0,0:0:0:0:
192,192,66083,1,0,0:0:0:0:
320,192,66266,1,2,0:0:0:0:
448,192,66266,1,0,0:0:0:0:
64,192,66449,1,8,0:0:0:0:
192,192,66449,1,0,0:0:0:0:
448,192,66449,1,0,0:0:0:0:
64,192,66632,1,0,0:0:0:0:
192,192,66815,1,2,0:0:0:0:
320,192,66815,1,0,0:0:0:0:
192,192,66998,1,2,0:0:0:0:
320,192,66998,1,0,0:0:0:0:
64,192,67181,1,8,0:0:0:0:
320,192,67181,1,0,0:0:0:0:
448,192,67181,1,0,0:0:0:0:
192,192,67364,1,2,0:0:0:0:
448,192,67364,1,0,0:0:0:0:
64,192,67547,1,2,0:0:0:0:
192,192,67547,1,0,0:0:0:0:
320,192,67547,1,0,0:0:0:0:
64,192,67729,1,0,0:0:0:0:
192,192,67912,1,8,0:0:0:0:
320,192,67912,1,0,0:0:0:0:
448,192,67912,1,0,0:0:0:0:
448,192,68095,1,0,0:0:0:0:
64,192,68278,1,2,0:0:0:0:
192,192,68278,1,0,0:0:0:0:
64,192,68461,1,2,0:0:0:0:
192,192,68461,1,0,0:0:0:0:
64,192,68644,1,8,0:0:0:0:
320,192,68644,1,0,0:0:0:0:
448,192,68644,1,0,0:0:0:0:
192,192,68827,1,2,0:0:0:0:
320,192,68827,1,0,0:0:0:0:
64,192,69010,1,0,0:0:0:0:
320,192,69193,1,2,0:0:0:0:
448,192,69193,1,0,0:0:0:0:
64,192,69376,1,8,0:0:0:0:
192,192,69376,1,0,0:0:0:0:
448,192,69376,1,0,0:0:0:0:
192,192,69559,1,0,0:0:0:0:
320,192,69742,1,2,0:0:0:0:
448,192,69742,1,0,0:0:0:0:
320,192,69925,1,2,0:0:0:0:
448,192,69925,1,0,0:0:0:0:
64,192,70108,1,8,0:0:0:0:
192,192,70108,1,0,0:0:0:0:
448,192,70108,1,0,0:0:0:0:
192,192,70290,1,2,0:0:0:0:
320,192,70290,1,0,0:0:0:0:
64,192,70473,1,2,0:0:0:0:
320,192,70473,1,0,0:0:0:0:
448,192,70473,1,0,0:0:0:0:
64,192,70656,1,0,0:0:0:0:
192,192,70839,1,8,0:0:0:0:
320,192,70839,1,0,0:0:0:0:
448,192,70839,1,0,0:0:0:0:
448,192,71022,1,0,0:0:0:0:
64,192,71205,1,2,0:0:0:0:
192,192,71205,1,0,0:0:0:0:
64,192,71388,1,2,0:0:0:0:
192,192,71388,1,0,0:0:0:0:
64,192,71571,1,8,0:0:0:0:
320,192,71571,1,0,0:0:0:0:
448,192,71571,1,0,0:0:0:0:
192,192,71754,1,2,0:0:0:0:
448,192,71754,1,0,0:0:0:0:
320,192,71937,1,0,0:0:0:0:
64,192,72120,1,2,0:0:0:0:
448,192,72120,1,0,0:0:0:0:
64,192,72303,1,8,0:0:0:0:
192,192,72303,1,0,0:0:0:0:
320,192,72303,1,0,0:0:0:0:
320,192,72486,1,0,0:0:0:0:
64,192,72669,1,2,0:0:0:0:
448,192,72669,1,0,0:0:0:0:
64,192,72851,1,2,0:0:0:0:
448,192,72851,1,0,0:0:0:0:
64,192,73034,1,8,0:0:0:0:
192,192,73034,1,0,0:0:0:0:
320,192,73034,1,0,0:0:0:0:
192,192,73217,1,8,0:0:0:0:
320,192,73217,1,0,0:0:0:0:
448,192,73217,1,0,0:0:0:0:
64,192,73400,1,4,0:0:0:0:
192,192,73400,1,2,0:0:0:0:
320,192,73400,1,0,0:0:0:0:
448,192,73400,1,0,0:0:0:0:
64,192,73583,1,0,0:0:0:0:
192,192,73766,1,8,0:0:0:0:
320,192,73766,1,0,0:0:0:0:
448,192,73766,1,0,0:0:0:0:
448,192,73949,1,0,0:0:0:0:
64,192,74132,1,2,0:0:0:0:
320,192,74132,1,0,0:0:0:0:
64,192,74315,1,2,0:0:0:0:
320,192,74315,1,0,0:0:0:0:
64,192,74498,1,8,0:0:0:0:
192,192,74498,1,0,0:0:0:0:
448,192,74498,1,0,0:0:0:0:
192,192,74681,1,2,0:0:0:0:
320,192,74681,1,0,0:0:0:0:
64,192,74864,1,0,0:0:0:0:
320,192,75047,1,2,0:0:0:0:
448,192,75047,1,0,0:0:0:0:
64,192,75229,1,8,0:0:0:0:
192,192,75229,1,0,0:0:0:0:
448,192,75229,1,0,0:0:0:0:
64,192,75412,1,0,0:0:0:0:
192,192,75595,1,2,0:0:0:0:
448,192,75595,1,0,0:0:0:0:
192,192,75778,1,2,0:0:0:0:
448,192,75778,1,0,0:0:0:0:
64,192,75961,1,8,0:0:0:0:
320,192,75961,1,0,0:0:0:0:
448,192,75961,1,0,0:0:0:0:
192,192,76144,1,2,0:0:0:0:
320,192,76144,1,0,0:0:0:0:
64,192,76327,1,2,0:0:0:0:
192,192,76327,1,0,0:0:0:0:
448,192,76327,1,0,0:0:0:0:
448,192,76510,1,0,0:0:0:0:
64,192,76693,1,8,0:0:0:0:
192,192,76693,1,0,0:0:0:0:
320,192,76693,1,0,0:0:0:0:
64,192,76876,1,0,0:0:0:0:
320,192,77059,1,2,0:0:0:0:
448,192,77059,1,0,0:0:0:0:
320,192,77242,1,2,0:0:0:0:
448,192,77242,1,0,0:0:0:0:
64,192,77425,1,8,0:0:0:0:
192,192,77425,1,0,0:0:0:0:
448,192,77425,1,0,0:0:0:0:
192,192,77608,1,2,0:0:0:0:
320,192,77608,1,0,0:0:0:0:
448,192,77790,1,0,0:0:0:0:
64,192,77973,1,2,0:0:0:0:
192,192,77973,1,0,0:0:0:0:
192,192,78156,1,8,0:0:0:0:
320,192,78156,1,0,0:0:0:0:
448,192,78156,1,0,0:0:0:0:
320,192,78339,1,0,0:0:0:0:
64,192,78522,1,2,0:0:0:0:
192,192,78522,1,0,0:0:0:0:
64,192,78705,1,2,0:0:0:0:
192,192,78705,1,0,0:0:0:0:
64,192,78888,1,8,0:0:0:0:
320,192,78888,1,0,0:0:0:0:
448,192,78888,1,0,0:0:0:0:
192,192,79071,1,2,0:0:0:0:
320,192,79071,1,0,0:0:0:0:
64,192,79254,1,2,0:0:0:0:
192,192,79254,1,0,0:0:0:0:
448,192,79254,1,0,0:0:0:0:
64,192,79437,1,0,0:0:0:0:
192,192,79620,1,8,0:0:0:0:
320,192,79620,1,0,0:0:0:0:
448,192,79620,1,0,0:0:0:0:
320,192,79803,1,0,0:0:0:0:
64,192,79986,1,2,0:0:0:0:
448,192,79986,1,0,0:0:0:0:
64,192,80169,1,2,0:0:0:0:
448,192,80169,1,0,0:0:0:0:
64,192,80351,1,8,0:0:0:0:
192,192,80351,1,0,0:0:0:0:
320,192,80351,1,0,0:0:0:0:
320,192,80534,1,2,0:0:0:0:
448,192,80534,1,0,0:0:0:0:
192,192,80717,1,0,0:0:0:0:
64,192,80900,1,2,0:0:0:0:
448,192,80900,1,0,0:0:0:0:
64,192,81083,1,8,0:0:0:0:
192,192,81083,1,0,0:0:0:0:
320,192,81083,1,0,0:0:0:0:
320,192,81266,1,0,0:0:0:0:
64,192,81449,1,2,0:0:0:0:
448,192,81449,1,0,0:0:0:0:
64,192,81632,1,2,0:0:0:0:
448,192,81632,1,0,0:0:0:0:
64,192,81815,1,8,0:0:0:0:
192,192,81815,1,0,0:0:0:0:
320,192,81815,1,0,0:0:0:0:
192,192,81998,1,2,0:0:0:0:
448,192,81998,1,0,0:0:0:0:
64,192,82181,1,2,0:0:0:0:
320,192,82181,1,0,0:0:0:0:
448,192,82181,1,0,0:0:0:0:
320,192,82364,1,0,0:0:0:0:
64,192,82547,1,8,0:0:0:0:
192,192,82547,1,0,0:0:0:0:
448,192,82547,1,0,0:0:0:0:
192,192,82729,1,0,0:0:0:0:
320,192,82912,1,2,0:0:0:0:
448,192,82912,1,0,0:0:0:0:
320,192,83095,1,2,0:0:0:0:
448,192,83095,1,0,0:0:0:0:
64,192,83278,1,8,0:0:0:0:
192,192,83278,1,0,0:0:0:0:
448,192,83278,1,0,0:0:0:0:
192,192,83461,1,2,0:0:0:0:
320,192,83461,1,0,0:0:0:0:
448,192,83644,1,0,0:0:0:0:
64,192,83827,1,2,0:0:0:0:
192,192,83827,1,0,0:0:0:0:
64,192,84010,1,8,0:0:0:0:
320,192,84010,1,0,0:0:0:0:
448,192,84010,1,0,0:0:0:0:
320,192,84193,1,0,0:0:0:0:
64,192,84376,1,8,0:0:0:0:
192,192,84376,1,0,0:0:0:0:
64,192,84467,1,8,0:0:0:0:
192,192,84467,1,0,0:0:0:0:
320,192,84559,1,8,0:0:0:0:
448,192,84559,1,0,0:0:0:0:
320,192,84650,1,8,0:0:0:0:
448,192,84650,1,0,0:0:0:0:
64,192,84742,1,0,0:0:0:45:Tom3.wav
192,192,84742,1,0,0:0:0:0:
320,192,84833,1,0,0:0:0:45:Tom3.wav
448,192,84833,1,0,0:0:0:0:
64,192,84925,1,0,0:0:0:45:Tom3.wav
192,192,84925,1,0,0:0:0:0:
320,192,85016,1,0,0:0:0:45:Tom3.wav
64,192,85108,128,2,85839:0:0:0:0:
192,192,85108,1,4,0:0:0:0:
448,192,85108,1,0,0:0:0:0:
320,192,85290,1,0,0:0:0:0:
192,192,85473,1,8,0:0:0:0:
320,192,85473,1,0,0:0:0:0:
448,192,85473,1,0,0:0:0:0:
192,192,85656,1,0,0:0:0:0:
320,192,85839,1,2,0:0:0:0:
448,192,85839,128,0,86571:0:0:0:0:
64,192,86022,1,2,0:0:0:0:
192,192,86022,1,0,0:0:0:0:
64,192,86205,1,8,0:0:0:0:
192,192,86205,1,0,0:0:0:0:
320,192,86205,1,0,0:0:0:0:
64,192,86388,1,2,0:0:0:0:
320,192,86388,1,0,0:0:0:0:
192,192,86571,1,0,0:0:0:0:
320,192,86571,1,0,0:0:0:0:
64,192,86754,1,2,0:0:0:0:
448,192,86754,1,0,0:0:0:0:
192,192,86937,1,8,0:0:0:0:
320,192,86937,1,0,0:0:0:0:
448,192,86937,1,0,0:0:0:0:
64,192,87120,1,0,0:0:0:0:
192,192,87120,1,0,0:0:0:0:
320,192,87303,1,2,0:0:0:0:
448,192,87303,1,0,0:0:0:0:
320,192,87486,1,2,0:0:0:0:
448,192,87486,1,0,0:0:0:0:
64,192,87669,1,8,0:0:0:0:
192,192,87669,1,0,0:0:0:0:
448,192,87669,1,0,0:0:0:0:
192,192,87851,1,2,0:0:0:0:
320,192,87851,1,0,0:0:0:0:
64,192,88034,1,2,0:0:0:0:
320,192,88034,128,0,88766:0:0:0:0:
448,192,88034,1,0,0:0:0:0:
192,192,88217,1,0,0:0:0:0:
64,192,88400,1,8,0:0:0:0:
192,192,88400,1,0,0:0:0:0:
448,192,88400,1,0,0:0:0:0:
448,192,88583,1,0,0:0:0:0:
64,192,88766,1,2,0:0:0:0:
192,192,88766,128,0,89498:0:0:0:0:
320,192,88949,1,2,0:0:0:0:
448,192,88949,1,0,0:0:0:0:
64,192,89132,1,8,0:0:0:0:
320,192,89132,1,0,0:0:0:0:
448,192,89132,1,0,0:0:0:0:
64,192,89315,1,2,0:0:0:0:
448,192,89315,1,0,0:0:0:0:
64,192,89498,1,0,0:0:0:0:
320,192,89498,1,0,0:0:0:0:
192,192,89681,1,2,0:0:0:0:
448,192,89681,1,0,0:0:0:0:
64,192,89864,1,8,0:0:0:0:
320,192,89864,1,0,0:0:0:0:
448,192,89864,1,0,0:0:0:0:
192,192,90047,1,0,0:0:0:0:
320,192,90047,1,0,0:0:0:0:
64,192,90229,1,2,0:0:0:0:
448,192,90229,1,0,0:0:0:0:
64,192,90412,1,2,0:0:0:0:
448,192,90412,1,0,0:0:0:0:
64,192,90595,1,8,0:0:0:0:
192,192,90595,1,0,0:0:0:0:
320,192,90595,1,0,0:0:0:0:
192,192,90778,1,2,0:0:0:0:
448,192,90778,1,0,0:0:0:0:
64,192,90961,1,2,0:0:0:0:
320,192,90961,1,0,0:0:0:0:
448,192,90961,128,0,91693:0:0:0:0:
192,192,91144,1,0,0:0:0:0:
64,192,91327,1,8,0:0:0:0:
192,192,91327,1,0,0:0:0:0:
320,192,91327,1,0,0:0:0:0:
320,192,91510,1,0,0:0:0:0:
64,192,91693,1,2,0:0:0:0:
192,192,91693,128,0,92425:0:0:0:0:
64,192,91876,1,2,0:0:0:0:
320,192,91876,1,0,0:0:0:0:
64,192,92059,1,8,0:0:0:0:
320,192,92059,1,0,0:0:0:0:
448,192,92059,1,0,0:0:0:0:
320,192,92242,1,2,0:0:0:0:
448,192,92242,1,0,0:0:0:0:
64,192,92425,1,0,0:0:0:0:
448,192,92425,1,0,0:0:0:0:
192,192,92608,1,2,0:0:0:0:
320,192,92608,1,0,0:0:0:0:
64,192,92790,1,8,0:0:0:0:
320,192,92790,1,0,0:0:0:0:
448,192,92790,1,0,0:0:0:0:
192,192,92973,1,0,0:0:0:0:
448,192,92973,1,0,0:0:0:0:
64,192,93156,1,2,0:0:0:0:
320,192,93156,1,0,0:0:0:0:
64,192,93339,1,2,0:0:0:0:
320,192,93339,1,0,0:0:0:0:
64,192,93522,1,8,0:0:0:0:
192,192,93522,1,0,0:0:0:0:
448,192,93522,1,0,0:0:0:0:
320,192,93705,1,2,0:0:0:0:
448,192,93705,1,0,0:0:0:0:
64,192,93888,128,2,94620:0:0:0:0:
192,192,93888,1,0,0:0:0:0:
320,192,93888,1,0,0:0:0:0:
448,192,94071,1,0,0:0:0:0:
192,192,94254,1,8,0:0:0:0:
320,192,94254,1,0,0:0:0:0:
448,192,94254,1,0,0:0:0:0:
192,192,94437,1,0,0:0:0:0:
320,192,94620,128,2,95351:0:0:0:0:
448,192,94620,1,0,0:0:0:0:
192,192,94803,1,2,0:0:0:0:
448,192,94803,1,0,0:0:0:0:
64,192,94986,1,8,0:0:0:0:
192,192,94986,1,0,0:0:0:0:
448,192,94986,1,0,0:0:0:0:
64,192,95169,1,2,0:0:0:0:
192,192,95169,1,0,0:0:0:0:
64,192,95351,1,0,0:0:0:0:
448,192,95351,1,0,0:0:0:0:
192,192,95534,1,2,0:0:0:0:
320,192,95534,1,0,0:0:0:0:
64,192,95717,1,8,0:0:0:0:
192,192,95717,1,0,0:0:0:0:
448,192,95717,1,0,0:0:0:0:
320,192,95900,1,0,0:0:0:0:
448,192,95900,1,0,0:0:0:0:
64,192,96083,1,4,0:0:0:0:
192,192,96083,1,8,0:0:0:0:
320,192,96083,1,0,0:0:0:0:
448,192,96083,1,0,0:0:0:0:
64,192,96266,1,2,0:0:0:0:
192,192,96266,1,0,0:0:0:0:
64,192,96449,1,8,0:0:0:0:
192,192,96449,1,4,0:0:0:0:
320,192,96449,1,0,0:0:0:0:
448,192,96449,1,0,0:0:0:0:
320,192,96632,1,2,0:0:0:0:
448,192,96632,1,0,0:0:0:0:
64,192,96815,128,4,97181:0:0:0:0:
192,192,96815,1,2,0:0:0:0:
320,192,96815,1,0,0:0:0:0:
448,192,96815,1,0,0:0:0:0:
192,192,96998,1,0,0:0:0:0:
192,192,97181,1,8,0:0:0:0:
320,192,97181,1,0,0:0:0:0:
448,192,97181,1,0,0:0:0:0:
448,192,97364,128,0,97547:0:0:0:0:
64,192,97547,1,2,0:0:0:0:
192,192,97547,128,0,97729:0:0:0:0:
320,192,97729,128,2,97912:0:0:0:0:
448,192,97729,1,0,0:0:0:0:
64,192,97912,1,8,0:0:0:0:
192,192,97912,1,0,0:0:0:0:
448,192,97912,1,0,0:0:0:0:
64,192,98095,128,2,98461:0:0:0:0:
320,192,98095,1,0,0:0:0:0:
192,192,98278,1,0,0:0:0:0:
320,192,98461,1,2,0:0:0:0:
448,192,98461,1,0,0:0:0:0:
64,192,98644,1,8,0:0:0:0:
192,192,98644,1,0,0:0:0:0:
448,192,98644,128,0,99010:0:0:0:0:
320,192,98827,1,0,0:0:0:0:
64,192,99010,1,2,0:0:0:0:
192,192,99010,128,0,99193:0:0:0:0:
64,192,99193,1,2,0:0:0:0:
320,192,99193,1,0,0:0:0:0:
192,192,99376,1,8,0:0:0:0:
320,192,99376,128,0,99559:0:0:0:0:
448,192,99376,1,0,0:0:0:0:
64,192,99559,1,2,0:0:0:0:
448,192,99559,1,0,0:0:0:0:
64,192,99742,128,2,99925:0:0:0:0:
192,192,99742,1,0,0:0:0:0:
320,192,99742,1,0,0:0:0:0:
448,192,99925,1,0,0:0:0:0:
192,192,100108,1,8,0:0:0:0:
320,192,100108,1,0,0:0:0:0:
448,192,100108,1,0,0:0:0:0:
64,192,100290,128,0,100473:0:0:0:0:
320,192,100473,1,2,0:0:0:0:
448,192,100473,1,0,0:0:0:0:
192,192,100656,1,2,0:0:0:0:
320,192,100656,128,0,100839:0:0:0:0:
64,192,100839,1,8,0:0:0:0:
192,192,100839,1,0,0:0:0:0:
448,192,100839,1,0,0:0:0:0:
64,192,101022,128,2,101388:0:0:0:0:
448,192,101022,1,0,0:0:0:0:
192,192,101205,1,0,0:0:0:0:
320,192,101388,1,2,0:0:0:0:
448,192,101388,1,0,0:0:0:0:
64,192,101571,1,8,0:0:0:0:
192,192,101571,1,0,0:0:0:0:
448,192,101571,1,0,0:0:0:0:
320,192,101754,1,0,0:0:0:0:
64,192,101937,1,2,0:0:0:0:
192,192,101937,1,0,0:0:0:0:
64,192,102120,1,2,0:0:0:0:
320,192,102120,1,0,0:0:0:0:
192,192,102303,128,8,102486:0:0:0:0:
320,192,102303,1,0,0:0:0:0:
448,192,102303,1,0,0:0:0:0:
64,192,102486,1,2,0:0:0:0:
448,192,102486,1,0,0:0:0:0:
64,192,102669,128,2,103400:0:0:0:0:
192,192,102669,1,0,0:0:0:0:
320,192,102669,1,0,0:0:0:0:
448,192,102851,1,0,0:0:0:0:
192,192,103034,1,8,0:0:0:0:
320,192,103034,1,0,0:0:0:0:
448,192,103034,1,0,0:0:0:0:
192,192,103217,1,0,0:0:0:0:
320,192,103400,1,2,0:0:0:0:
448,192,103400,128,0,104132:0:0:0:0:
64,192,103583,1,2,0:0:0:0:
192,192,103583,1,0,0:0:0:0:
64,192,103766,1,8,0:0:0:0:
192,192,103766,1,0,0:0:0:0:
320,192,103766,1,0,0:0:0:0:
192,192,103949,1,2,0:0:0:0:
320,192,103949,1,0,0:0:0:0:
64,192,104132,1,0,0:0:0:0:
320,192,104132,1,0,0:0:0:0:
192,192,104315,1,2,0:0:0:0:
448,192,104315,1,0,0:0:0:0:
64,192,104498,1,8,0:0:0:0:
320,192,104498,1,0,0:0:0:0:
448,192,104498,1,0,0:0:0:0:
64,192,104681,1,0,0:0:0:0:
192,192,104681,1,0,0:0:0:0:
320,192,104864,1,2,0:0:0:0:
448,192,104864,1,0,0:0:0:0:
320,192,105047,1,2,0:0:0:0:
448,192,105047,1,0,0:0:0:0:
64,192,105229,1,8,0:0:0:0:
192,192,105229,1,0,0:0:0:0:
448,192,105229,1,0,0:0:0:0:
192,192,105412,1,2,0:0:0:0:
320,192,105412,1,0,0:0:0:0:
64,192,105595,1,2,0:0:0:0:
192,192,105595,128,0,106327:0:0:0:0:
448,192,105595,1,0,0:0:0:0:
320,192,105778,1,0,0:0:0:0:
64,192,105961,1,8,0:0:0:0:
320,192,105961,1,0,0:0:0:0:
448,192,105961,1,0,0:0:0:0:
64,192,106144,1,0,0:0:0:0:
320,192,106327,128,2,107059:0:0:0:0:
448,192,106327,1,0,0:0:0:0:
64,192,106510,1,2,0:0:0:0:
192,192,106510,1,0,0:0:0:0:
64,192,106693,1,8,0:0:0:0:
192,192,106693,1,0,0:0:0:0:
448,192,106693,1,0,0:0:0:0:
64,192,106876,1,2,0:0:0:0:
448,192,106876,1,0,0:0:0:0:
192,192,107059,1,0,0:0:0:0:
448,192,107059,1,0,0:0:0:0:
64,192,107242,1,2,0:0:0:0:
320,192,107242,1,0,0:0:0:0:
64,192,107425,1,8,0:0:0:0:
192,192,107425,1,0,0:0:0:0:
448,192,107425,1,0,0:0:0:0:
192,192,107608,1,0,0:0:0:0:
320,192,107608,1,0,0:0:0:0:
64,192,107790,1,4,0:0:0:0:
192,192,107790,1,8,0:0:0:0:
320,192,107790,1,0,0:0:0:0:
448,192,107790,1,0,0:0:0:0:
320,192,107973,1,2,0:0:0:0:
448,192,107973,1,0,0:0:0:0:
64,192,108156,1,4,0:0:0:0:
192,192,108156,1,8,0:0:0:0:
320,192,108156,1,0,0:0:0:0:
448,192,108156,1,0,0:0:0:0:
64,192,108339,1,2,0:0:0:0:
192,192,108339,1,0,0:0:0:0:
64,192,108522,1,2,0:0:0:0:
192,192,108522,1,4,0:0:0:0:
320,192,108522,1,0,0:0:0:0:
448,192,108522,1,0,0:0:0:0:
320,192,108705,1,2,0:0:0:0:
448,192,108705,1,0,0:0:0:0:
64,192,108888,1,8,0:0:0:0:
192,192,108888,1,0,0:0:0:55:Clap.wav
448,192,108888,1,0,0:0:0:0:
64,192,109071,1,0,0:0:0:55:Clap.wav
192,192,109071,1,0,0:0:0:0:
320,192,109254,1,2,0:0:0:0:
448,192,109254,1,0,0:0:0:0:
192,192,109437,1,2,0:0:0:0:
448,192,109437,1,0,0:0:0:0:
64,192,109620,1,8,0:0:0:0:
192,192,109620,1,0,0:0:0:55:Clap.wav
320,192,109620,1,0,0:0:0:0:
64,192,109803,1,2,0:0:0:0:
448,192,109803,1,0,0:0:0:0:
192,192,109986,1,2,0:0:0:0:
448,192,109986,1,0,0:0:0:0:
320,192,110169,1,2,0:0:0:0:
448,192,110169,1,0,0:0:0:0:
64,192,110351,1,8,0:0:0:0:
192,192,110351,1,0,0:0:0:55:Clap.wav
448,192,110351,1,0,0:0:0:0:
64,192,110534,1,0,0:0:0:55:Clap.wav
192,192,110534,1,0,0:0:0:0:
320,192,110717,1,2,0:0:0:0:
448,192,110717,1,0,0:0:0:0:
64,192,110900,1,2,0:0:0:0:
192,192,110900,1,0,0:0:0:55:Clap.wav
64,192,111083,1,8,0:0:0:0:
192,192,111083,1,0,0:0:0:55:Clap.wav
448,192,111083,1,0,0:0:0:0:
320,192,111266,1,2,0:0:0:0:
448,192,111266,1,0,0:0:0:55:Clap.wav
192,192,111358,1,2,0:0:0:0:
64,192,111449,1,2,0:0:0:0:
320,192,111449,1,0,0:0:0:0:
64,192,111632,1,2,0:0:0:0:
192,192,111632,1,0,0:0:0:0:
64,192,111815,1,8,0:0:0:0:
320,192,111815,1,0,0:0:0:55:Clap.wav
448,192,111815,1,0,0:0:0:0:
320,192,111998,1,0,0:0:0:55:Clap.wav
448,192,111998,1,0,0:0:0:0:
64,192,112181,1,2,0:0:0:0:
192,192,112181,1,0,0:0:0:0:
64,192,112364,1,2,0:0:0:0:
320,192,112364,1,0,0:0:0:0:
192,192,112547,1,8,0:0:0:0:
320,192,112547,1,0,0:0:0:55:Clap.wav
448,192,112547,1,0,0:0:0:0:
64,192,112729,1,2,0:0:0:0:
448,192,112729,1,0,0:0:0:0:
64,192,112912,1,2,0:0:0:0:
320,192,112912,1,0,0:0:0:0:
64,192,113095,1,2,0:0:0:0:
192,192,113095,1,0,0:0:0:0:
64,192,113278,1,8,0:0:0:0:
320,192,113278,1,0,0:0:0:55:Clap.wav
448,192,113278,1,0,0:0:0:0:
320,192,113461,1,0,0:0:0:55:Clap.wav
448,192,113461,1,0,0:0:0:0:
64,192,113644,1,2,0:0:0:0:
192,192,113644,1,0,0:0:0:0:
320,192,113827,1,2,0:0:0:0:
448,192,113827,1,0,0:0:0:55:Clap.wav
64,192,114010,1,8,0:0:0:0:
320,192,114010,1,0,0:0:0:55:Clap.wav
448,192,114010,1,0,0:0:0:0:
64,192,114193,1,2,0:0:0:0:
192,192,114193,1,0,0:0:0:55:Clap.wav
320,192,114284,1,2,0:0:0:0:
192,192,114376,1,2,0:0:0:0:
448,192,114376,1,0,0:0:0:0:
320,192,114559,1,2,0:0:0:0:
448,192,114559,1,0,0:0:0:0:
64,192,114742,1,8,0:0:0:0:
192,192,114742,1,0,0:0:0:55:Clap.wav
448,192,114742,1,0,0:0:0:0:
64,192,114925,1,0,0:0:0:55:Clap.wav
192,192,114925,1,0,0:0:0:0:
320,192,115108,1,2,0:0:0:0:
448,192,115108,1,0,0:0:0:0:
192,192,115290,1,2,0:0:0:0:
448,192,115290,1,0,0:0:0:0:
64,192,115473,1,8,0:0:0:0:
192,192,115473,1,0,0:0:0:55:Clap.wav
320,192,115473,1,0,0:0:0:0:
64,192,115656,1,2,0:0:0:0:
448,192,115656,1,0,0:0:0:0:
192,192,115839,1,2,0:0:0:0:
448,192,115839,1,0,0:0:0:0:
320,192,116022,1,2,0:0:0:0:
448,192,116022,1,0,0:0:0:0:
64,192,116205,1,8,0:0:0:0:
192,192,116205,1,0,0:0:0:55:Clap.wav
448,192,116205,1,0,0:0:0:0:
64,192,116388,1,0,0:0:0:55:Clap.wav
192,192,116388,1,0,0:0:0:0:
320,192,116571,1,2,0:0:0:0:
448,192,116571,1,0,0:0:0:0:
64,192,116754,1,2,0:0:0:0:
192,192,116754,1,0,0:0:0:55:Clap.wav
64,192,116937,1,8,0:0:0:0:
192,192,116937,1,0,0:0:0:55:Clap.wav
448,192,116937,1,0,0:0:0:0:
320,192,117120,1,2,0:0:0:0:
448,192,117120,1,0,0:0:0:55:Clap.wav
192,192,117211,1,2,0:0:0:0:
64,192,117303,1,2,0:0:0:0:
320,192,117303,1,0,0:0:0:0:
64,192,117486,1,2,0:0:0:0:
192,192,117486,1,0,0:0:0:0:
64,192,117669,1,8,0:0:0:0:
320,192,117669,1,0,0:0:0:55:Clap.wav
448,192,117669,1,0,0:0:0:0:
320,192,117851,1,0,0:0:0:55:Clap.wav
448,192,117851,1,0,0:0:0:0:
64,192,118034,1,2,0:0:0:0:
192,192,118034,1,0,0:0:0:0:
64,192,118217,1,2,0:0:0:0:
320,192,118217,1,0,0:0:0:0:
192,192,118400,1,8,0:0:0:0:
320,192,118400,1,0,0:0:0:55:Clap.wav
448,192,118400,1,0,0:0:0:0:
64,192,118583,1,2,0:0:0:0:
448,192,118583,1,0,0:0:0:0:
64,192,118766,1,2,0:0:0:0:
320,192,118766,1,0,0:0:0:0:
64,192,118949,1,2,0:0:0:0:
192,192,118949,1,0,0:0:0:0:
64,192,119132,1,8,0:0:0:0:
320,192,119132,1,0,0:0:0:55:Clap.wav
448,192,119132,1,0,0:0:0:0:
320,192,119315,1,0,0:0:0:55:Clap.wav
448,192,119315,1,0,0:0:0:0:
64,192,119498,1,8,0:0:0:0:
192,192,119498,1,0,0:0:0:0:
64,192,119589,1,8,0:0:0:0:
192,192,119589,1,0,0:0:0:0:
320,192,119681,1,8,0:0:0:0:
448,192,119681,1,0,0:0:0:55:Clap.wav
320,192,119772,1,8,0:0:0:0:
448,192,119772,1,0,0:0:0:0:
64,192,119864,1,0,0:0:0:45:Tom3.wav
192,192,119864,1,0,0:0:0:55:Clap.wav
320,192,119955,1,0,0:0:0:45:Tom3.wav
448,192,119955,1,0,0:0:0:0:
64,192,120047,1,0,0:0:0:45:Tom3.wav
192,192,120047,1,0,0:0:0:55:Clap.wav
320,192,120138,1,0,0:0:0:45:Tom3.wav
64,192,120229,128,2,120595:0:0:0:0:
192,192,120229,1,4,0:0:0:0:
448,192,120229,1,0,0:0:0:0:
320,192,120412,1,0,0:0:0:0:
192,192,120595,1,8,0:0:0:0:
320,192,120595,1,0,0:0:0:0:
448,192,120595,1,0,0:0:0:0:
64,192,120778,1,0,0:0:0:0:
320,192,120961,1,2,0:0:0:0:
448,192,120961,1,0,0:0:0:0:
320,192,121144,1,2,0:0:0:0:
448,192,121144,1,0,0:0:0:0:
64,192,121327,1,8,0:0:0:0:
192,192,121327,1,0,0:0:0:0:
448,192,121327,1,0,0:0:0:0:
192,192,121510,128,2,121876:0:0:0:0:
320,192,121510,1,0,0:0:0:0:
64,192,121693,1,0,0:0:0:0:
320,192,121876,128,2,122242:0:0:0:0:
448,192,121876,1,0,0:0:0:0:
64,192,122059,1,8,0:0:0:0:
192,192,122059,1,0,0:0:0:0:
448,192,122059,1,0,0:0:0:0:
64,192,122242,1,0,0:0:0:0:
192,192,122425,128,2,122608:0:0:0:0:
448,192,122425,1,0,0:0:0:0:
320,192,122608,1,2,0:0:0:0:
448,192,122608,1,0,0:0:0:0:
64,192,122790,128,8,122973:0:0:0:0:
192,192,122790,1,0,0:0:0:0:
320,192,122790,1,0,0:0:0:0:
192,192,122973,1,2,0:0:0:0:
448,192,122973,1,0,0:0:0:0:
64,192,123156,1,2,0:0:0:0:
320,192,123156,1,0,0:0:0:0:
448,192,123156,128,0,123522:0:0:0:0:
192,192,123339,1,0,0:0:0:0:
64,192,123522,1,8,0:0:0:0:
192,192,123522,1,0,0:0:0:0:
320,192,123522,1,0,0:0:0:0:
448,192,123705,1,0,0:0:0:0:
64,192,123888,1,2,0:0:0:0:
192,192,123888,1,0,0:0:0:0:
64,192,124071,1,2,0:0:0:0:
192,192,124071,1,0,0:0:0:0:
64,192,124254,1,8,0:0:0:0:
320,192,124254,128,0,124437:0:0:0:0:
448,192,124254,1,0,0:0:0:0:
192,192,124437,128,2,124803:0:0:0:0:
448,192,124437,1,0,0:0:0:0:
320,192,124620,1,0,0:0:0:0:
64,192,124803,1,2,0:0:0:0:
448,192,124803,128,0,125169:0:0:0:0:
64,192,124986,1,8,0:0:0:0:
192,192,124986,1,0,0:0:0:0:
320,192,124986,1,0,0:0:0:0:
320,192,125169,1,0,0:0:0:0:
64,192,125351,1,2,0:0:0:0:
192,192,125351,128,0,125534:0:0:0:0:
64,192,125534,1,2,0:0:0:0:
320,192,125534,1,0,0:0:0:0:
192,192,125717,1,8,0:0:0:0:
320,192,125717,128,0,125900:0:0:0:0:
448,192,125717,1,0,0:0:0:0:
64,192,125900,1,2,0:0:0:0:
448,192,125900,1,0,0:0:0:0:
64,192,126083,128,2,126449:0:0:0:0:
192,192,126083,1,0,0:0:0:0:
320,192,126083,1,0,0:0:0:0:
448,192,126266,1,0,0:0:0:0:
192,192,126449,1,8,0:0:0:0:
320,192,126449,1,0,0:0:0:0:
448,192,126449,1,0,0:0:0:0:
64,192,126632,1,0,0:0:0:0:
192,192,126815,1,2,0:0:0:0:
448,192,126815,1,0,0:0:0:0:
192,192,126998,1,2,0:0:0:0:
448,192,126998,1,0,0:0:0:0:
64,192,127181,1,8,0:0:0:0:
192,192,127181,1,0,0:0:0:0:
320,192,127181,1,0,0:0:0:0:
320,192,127364,128,2,127547:0:0:0:0:
448,192,127364,1,0,0:0:0:0:
64,192,127547,1,0,0:0:0:0:
192,192,127729,128,2,128095:0:0:0:0:
448,192,127729,1,0,0:0:0:0:
64,192,127912,1,8,0:0:0:0:
320,192,127912,1,0,0:0:0:0:
448,192,127912,1,0,0:0:0:0:
64,192,128095,1,0,0:0:0:0:
320,192,128278,128,2,128461:0:0:0:0:
448,192,128278,1,0,0:0:0:0:
64,192,128461,1,2,0:0:0:0:
448,192,128461,1,0,0:0:0:0:
64,192,128644,128,8,128827:0:0:0:0:
192,192,128644,1,0,0:0:0:0:
320,192,128644,1,0,0:0:0:0:
192,192,128827,1,2,0:0:0:0:
448,192,128827,1,0,0:0:0:0:
320,192,129010,1,2,0:0:0:0:
448,192,129010,128,0,129376:0:0:0:0:
64,192,129193,1,0,0:0:0:0:
64,192,129376,1,8,0:0:0:0:
192,192,129376,1,0,0:0:0:0:
320,192,129376,1,0,0:0:0:0:
320,192,129559,1,0,0:0:0:0:
64,192,129742,1,2,0:0:0:0:
192,192,129742,1,0,0:0:0:0:
64,192,129925,1,2,0:0:0:0:
192,192,129925,1,0,0:0:0:0:
64,192,130108,1,8,0:0:0:0:
320,192,130108,128,0,130290:0:0:0:0:
448,192,130108,1,0,0:0:0:0:
192,192,130290,128,2,130473:0:0:0:0:
448,192,130290,1,0,0:0:0:0:
64,192,130473,1,0,0:0:0:0:
320,192,130656,128,2,131022:0:0:0:0:
448,192,130656,1,0,0:0:0:0:
64,192,130839,1,8,0:0:0:0:
192,192,130839,1,0,0:0:0:0:
448,192,130839,1,0,0:0:0:0:
192,192,131022,1,0,0:0:0:0:
64,192,131205,1,4,0:0:0:0:
192,192,131205,1,8,0:0:0:0:
320,192,131205,1,0,0:0:0:0:
448,192,131205,1,0,0:0:0:0:
320,192,131388,1,2,0:0:0:0:
448,192,131388,1,0,0:0:0:0:
64,192,131571,1,8,0:0:0:0:
192,192,131571,1,4,0:0:0:0:
320,192,131571,1,0,0:0:0:0:
448,192,131571,1,0,0:0:0:0:
64,192,131754,1,2,0:0:0:0:
192,192,131754,1,0,0:0:0:0:
64,192,131937,128,4,132303:0:0:0:0:
192,192,131937,1,2,0:0:0:0:
320,192,131937,1,0,0:0:0:0:
448,192,131937,1,0,0:0:0:0:
320,192,132120,1,0,0:0:0:0:
192,192,132303,1,8,0:0:0:0:
320,192,132303,1,0,0:0:0:0:
448,192,132303,1,0,0:0:0:0:
448,192,132486,1,0,0:0:0:0:
64,192,132669,1,2,0:0:0:0:
192,192,132669,1,0,0:0:0:0:
64,192,132851,1,2,0:0:0:0:
192,192,132851,1,0,0:0:0:0:
64,192,133034,128,8,133217:0:0:0:0:
320,192,133034,1,0,0:0:0:0:
448,192,133034,1,0,0:0:0:0:
192,192,133217,1,2,0:0:0:0:
320,192,133217,128,0,133583:0:0:0:0:
448,192,133400,1,0,0:0:0:0:
64,192,133583,1,2,0:0:0:0:
192,192,133583,128,0,133949:0:0:0:0:
64,192,133766,1,8,0:0:0:0:
320,192,133766,1,0,0:0:0:0:
448,192,133766,1,0,0:0:0:0:
448,192,133949,1,0,0:0:0:0:
64,192,134132,1,2,0:0:0:0:
320,192,134132,128,0,134315:0:0:0:0:
64,192,134315,1,2,0:0:0:0:
192,192,134315,1,0,0:0:0:0:
192,192,134498,128,8,134681:0:0:0:0:
320,192,134498,1,0,0:0:0:0:
448,192,134498,1,0,0:0:0:0:
64,192,134681,1,2,0:0:0:0:
448,192,134681,1,0,0:0:0:0:
64,192,134864,128,2,135229:0:0:0:0:
192,192,134864,1,0,0:0:0:0:
320,192,134864,1,0,0:0:0:0:
448,192,135047,1,0,0:0:0:0:
192,192,135229,1,8,0:0:0:0:
320,192,135229,1,0,0:0:0:0:
448,192,135229,1,0,0:0:0:0:
64,192,135412,1,0,0:0:0:0:
320,192,135595,1,2,0:0:0:0:
448,192,135595,1,0,0:0:0:0:
320,192,135778,1,2,0:0:0:0:
448,192,135778,1,0,0:0:0:0:
64,192,135961,1,8,0:0:0:0:
192,192,135961,128,0,136144:0:0:0:0:
448,192,135961,1,0,0:0:0:0:
64,192,136144,1,2,0:0:0:0:
320,192,136144,128,0,136510:0:0:0:0:
192,192,136327,1,0,0:0:0:0:
64,192,136510,128,2,136876:0:0:0:0:
448,192,136510,1,0,0:0:0:0:
192,192,136693,1,8,0:0:0:0:
320,192,136693,1,0,0:0:0:0:
448,192,136693,1,0,0:0:0:0:
192,192,136876,1,0,0:0:0:0:
320,192,137059,128,2,137242:0:0:0:0:
448,192,137059,1,0,0:0:0:0:
192,192,137242,1,2,0:0:0:0:
448,192,137242,1,0,0:0:0:0:
64,192,137425,1,8,0:0:0:0:
192,192,137425,128,0,137608:0:0:0:0:
320,192,137425,1,0,0:0:0:0:
64,192,137608,1,2,0:0:0:0:
448,192,137608,1,0,0:0:0:0:
192,192,137790,1,2,0:0:0:0:
320,192,137790,128,0,138156:0:0:0:0:
448,192,137790,1,0,0:0:0:0:
64,192,137973,1,0,0:0:0:0:
64,192,138156,1,8,0:0:0:0:
192,192,138156,1,0,0:0:0:0:
448,192,138156,1,0,0:0:0:0:
320,192,138339,1,0,0:0:0:0:
64,192,138522,1,2,0:0:0:0:
448,192,138522,1,0,0:0:0:0:
64,192,138705,1,2,0:0:0:0:
448,192,138705,1,0,0:0:0:0:
192,192,138888,1,8,0:0:0:0:
320,192,138888,1,0,0:0:0:0:
448,192,138888,1,0,0:0:0:0:
64,192,139071,1,2,0:0:0:0:
192,192,139071,128,0,139437:0:0:0:0:
448,192,139254,1,0,0:0:0:0:
320,192,139437,1,2,0:0:0:0:
448,192,139437,128,0,139620:0:0:0:0:
64,192,139620,1,8,0:0:0:0:
192,192,139620,1,0,0:0:0:0:
320,192,139620,1,0,0:0:0:0:
64,192,139803,1,0,0:0:0:0:
320,192,139986,128,2,140169:0:0:0:0:
448,192,139986,1,0,0:0:0:0:
64,192,140169,1,2,0:0:0:0:
448,192,140169,1,0,0:0:0:0:
64,192,140351,128,8,140534:0:0:0:0:
192,192,140351,1,0,0:0:0:0:
320,192,140351,1,0,0:0:0:0:
192,192,140534,1,2,0:0:0:0:
448,192,140534,1,0,0:0:0:0:
320,192,140717,1,2,0:0:0:0:
448,192,140717,128,0,141083:0:0:0:0:
64,192,140900,1,0,0:0:0:0:
64,192,141083,1,8,0:0:0:0:
192,192,141083,1,0,0:0:0:0:
320,192,141083,1,0,0:0:0:0:
320,192,141266,1,0,0:0:0:0:
64,192,141449,1,2,0:0:0:0:
192,192,141449,1,0,0:0:0:0:
64,192,141632,1,2,0:0:0:0:
192,192,141632,1,0,0:0:0:0:
64,192,141815,1,8,0:0:0:0:
320,192,141815,1,0,0:0:0:0:
448,192,141815,1,0,0:0:0:0:
192,192,141998,128,2,142364:0:0:0:0:
448,192,141998,1,0,0:0:0:0:
64,192,142181,1,0,0:0:0:0:
320,192,142364,128,2,142729:0:0:0:0:
448,192,142364,1,0,0:0:0:0:
64,192,142547,1,8,0:0:0:0:
192,192,142547,1,0,0:0:0:0:
448,192,142547,1,0,0:0:0:0:
64,192,142729,1,0,0:0:0:0:
64,192,142912,1,4,0:0:0:0:
192,192,142912,1,8,0:0:0:0:
320,192,142912,1,0,0:0:0:0:
448,192,142912,1,0,0:0:0:0:
320,192,143095,1,2,0:0:0:0:
448,192,143095,1,0,0:0:0:0:
64,192,143278,1,4,0:0:0:0:
192,192,143278,1,8,0:0:0:0:
320,192,143278,1,0,0:0:0:0:
448,192,143278,1,0,0:0:0:0:
64,192,143461,1,2,0:0:0:0:
192,192,143461,1,0,0:0:0:0:
64,192,143644,1,4,0:0:0:0:
192,192,143644,128,2,144010:0:0:0:0:
320,192,143644,1,0,0:0:0:0:
448,192,143644,1,0,0:0:0:0:
448,192,143827,1,0,0:0:0:0:
64,192,144010,128,8,144193:0:0:0:0:
320,192,144010,1,0,0:0:0:0:
448,192,144010,1,0,0:0:0:0:
320,192,144193,128,0,144376:0:0:0:0:
64,192,144376,1,2,0:0:0:0:
192,192,144376,1,0,0:0:0:0:
64,192,144559,1,2,0:0:0:0:
192,192,144559,1,0,0:0:0:0:
64,192,144742,1,8,0:0:0:0:
320,192,144742,1,0,0:0:0:0:
448,192,144742,128,0,144925:0:0:0:0:
192,192,144925,128,2,145290:0:0:0:0:
320,192,144925,1,0,0:0:0:0:
64,192,145108,128,0,145290:0:0:0:0:
320,192,145290,128,2,145656:0:0:0:0:
448,192,145290,1,0,0:0:0:0:
64,192,145473,1,8,0:0:0:0:
192,192,145473,1,0,0:0:0:0:
192,192,145656,128,0,145839:0:0:0:0:
64,192,145839,1,2,0:0:0:0:
448,192,145839,128,0,146022:0:0:0:0:
192,192,146022,1,2,0:0:0:0:
320,192,146022,1,0,0:0:0:0:
64,192,146205,128,8,146388:0:0:0:0:
320,192,146205,1,0,0:0:0:0:
448,192,146205,1,0,0:0:0:0:
192,192,146388,1,2,0:0:0:0:
448,192,146388,1,0,0:0:0:0:
64,192,146571,1,2,0:0:0:0:
192,192,146571,128,0,146937:0:0:0:0:
320,192,146571,1,0,0:0:0:0:
448,192,146754,128,0,146937:0:0:0:0:
64,192,146937,128,8,147120:0:0:0:0:
320,192,146937,1,0,0:0:0:0:
320,192,147120,128,0,147303:0:0:0:0:
192,192,147303,1,2,0:0:0:0:
448,192,147303,1,0,0:0:0:0:
192,192,147486,1,2,0:0:0:0:
448,192,147486,1,0,0:0:0:0:
64,192,147669,128,8,147851:0:0:0:0:
192,192,147669,1,0,0:0:0:0:
320,192,147669,1,0,0:0:0:0:
320,192,147851,128,2,148217:0:0:0:0:
448,192,147851,1,0,0:0:0:0:
192,192,148034,128,0,148217:0:0:0:0:
64,192,148217,128,2,148583:0:0:0:0:
448,192,148217,128,0,148583:0:0:0:0:
192,192,148400,1,8,0:0:0:0:
320,192,148400,1,0,0:0:0:0:
192,192,148583,128,0,148766:0:0:0:0:
320,192,148766,128,2,148949:0:0:0:0:
448,192,148766,1,0,0:0:0:0:
64,192,148949,1,2,0:0:0:0:
192,192,148949,1,0,0:0:0:0:
64,192,149132,128,8,149315:0:0:0:0:
320,192,149132,1,0,0:0:0:0:
448,192,149132,1,0,0:0:0:0:
192,192,149315,1,2,0:0:0:0:
448,192,149315,128,0,149498:0:0:0:0:
64,192,149498,128,2,149864:0:0:0:0:
192,192,149498,1,0,0:0:0:0:
320,192,149498,1,0,0:0:0:0:
448,192,149681,1,0,0:0:0:0:
192,192,149864,1,8,0:0:0:0:
320,192,149864,1,0,0:0:0:0:
448,192,149864,128,0,150047:0:0:0:0:
64,192,150047,1,0,0:0:0:0:
192,192,150229,1,2,0:0:0:0:
320,192,150229,1,0,0:0:0:0:
192,192,150412,1,2,0:0:0:0:
320,192,150412,1,0,0:0:0:0:
64,192,150595,1,8,0:0:0:0:
320,192,150595,1,0,0:0:0:0:
448,192,150595,1,0,0:0:0:0:
64,192,150778,1,2,0:0:0:0:
192,192,150778,128,0,151144:0:0:0:0:
320,192,150961,128,0,151144:0:0:0:0:
64,192,151144,1,2,0:0:0:0:
448,192,151144,128,0,151510:0:0:0:0:
192,192,151327,1,8,0:0:0:0:
320,192,151327,128,0,151510:0:0:0:0:
64,192,151510,128,0,151693:0:0:0:0:
192,192,151693,128,2,151876:0:0:0:0:
320,192,151693,1,0,0:0:0:0:
64,192,151876,1,2,0:0:0:0:
448,192,151876,1,0,0:0:0:0:
192,192,152059,1,8,0:0:0:0:
320,192,152059,128,0,152242:0:0:0:0:
448,192,152059,1,0,0:0:0:0:
64,192,152242,1,2,0:0:0:0:
192,192,152242,128,0,152425:0:0:0:0:
64,192,152425,128,2,152790:0:0:0:0:
320,192,152425,1,0,0:0:0:0:
448,192,152425,1,0,0:0:0:0:
448,192,152608,128,0,152790:0:0:0:0:
192,192,152790,1,8,0:0:0:0:
320,192,152790,1,0,0:0:0:0:
320,192,152973,128,0,153156:0:0:0:0:
192,192,153156,128,2,153522:0:0:0:0:
448,192,153156,1,0,0:0:0:0:
64,192,153339,1,2,0:0:0:0:
448,192,153339,128,0,153522:0:0:0:0:
64,192,153522,128,8,153705:0:0:0:0:
320,192,153522,1,0,0:0:0:0:
192,192,153705,1,2,0:0:0:0:
320,192,153705,128,0,154071:0:0:0:0:
192,192,153888,128,0,154071:0:0:0:0:
64,192,154071,1,2,0:0:0:0:
448,192,154071,128,0,154437:0:0:0:0:
192,192,154254,1,8,0:0:0:0:
320,192,154254,128,0,154437:0:0:0:0:
64,192,154437,1,0,0:0:0:0:
64,192,154620,1,8,0:0:0:0:
192,192,154620,1,4,0:0:0:0:
320,192,154620,1,0,0:0:0:0:
448,192,154620,1,0,0:0:0:0:
320,192,154803,1,2,0:0:0:0:
448,192,154803,1,0,0:0:0:0:
64,192,154986,1,4,0:0:0:0:
192,192,154986,1,8,0:0:0:0:
320,192,154986,1,0,0:0:0:0:
448,192,154986,1,0,0:0:0:0:
64,192,155169,1,2,0:0:0:0:
192,192,155169,1,0,0:0:0:0:
64,192,155351,128,2,155717:0:0:0:0:
192,192,155351,1,4,0:0:0:0:
320,192,155351,1,0,0:0:0:0:
448,192,155351,1,0,0:0:0:0:
448,192,155534,1,0,0:0:0:0:
192,192,155717,1,8,0:0:0:0:
320,192,155717,1,0,0:0:0:0:
448,192,155717,128,0,155900:0:0:0:0:
192,192,155900,128,0,156083:0:0:0:0:
320,192,156083,1,2,0:0:0:0:
448,192,156083,1,0,0:0:0:0:
320,192,156266,1,2,0:0:0:0:
448,192,156266,1,0,0:0:0:0:
64,192,156449,128,8,156632:0:0:0:0:
192,192,156449,1,0,0:0:0:0:
448,192,156449,1,0,0:0:0:0:
192,192,156632,1,2,0:0:0:0:
320,192,156632,128,0,156998:0:0:0:0:
448,192,156815,128,0,156998:0:0:0:0:
64,192,156998,1,2,0:0:0:0:
192,192,156998,128,0,157364:0:0:0:0:
320,192,157181,128,8,157364:0:0:0:0:
448,192,157181,1,0,0:0:0:0:
64,192,157364,128,0,157547:0:0:0:0:
320,192,157547,1,2,0:0:0:0:
448,192,157547,128,0,157729:0:0:0:0:
64,192,157729,1,2,0:0:0:0:
192,192,157729,1,0,0:0:0:0:
192,192,157912,128,8,158095:0:0:0:0:
320,192,157912,1,0,0:0:0:0:
448,192,157912,1,0,0:0:0:0:
64,192,158095,1,2,0:0:0:0:
448,192,158095,128,0,158278:0:0:0:0:
64,192,158278,128,2,158644:0:0:0:0:
192,192,158278,1,0,0:0:0:0:
320,192,158278,1,0,0:0:0:0:
320,192,158461,128,0,158644:0:0:0:0:
192,192,158644,128,8,158827:0:0:0:0:
448,192,158644,1,0,0:0:0:0:
448,192,158827,128,0,159010:0:0:0:0:
64,192,159010,1,2,0:0:0:0:
192,192,159010,1,0,0:0:0:0:
64,192,159193,1,2,0:0:0:0:
192,192,159193,1,0,0:0:0:0:
64,192,159376,128,8,159559:0:0:0:0:
320,192,159376,1,0,0:0:0:0:
448,192,159376,1,0,0:0:0:0:
192,192,159559,1,2,0:0:0:0:
448,192,159559,128,0,159925:0:0:0:0:
320,192,159742,128,0,159925:0:0:0:0:
64,192,159925,128,2,160290:0:0:0:0:
192,192,159925,1,0,0:0:0:0:
320,192,160108,1,8,0:0:0:0:
448,192,160108,128,0,160290:0:0:0:0:
192,192,160290,1,0,0:0:0:0:
320,192,160473,128,2,160656:0:0:0:0:
448,192,160473,1,0,0:0:0:0:
64,192,160656,1,2,0:0:0:0:
448,192,160656,1,0,0:0:0:0:
64,192,160839,1,8,0:0:0:0:
192,192,160839,128,0,161022:0:0:0:0:
320,192,160839,1,0,0:0:0:0:
320,192,161022,128,2,161205:0:0:0:0:
448,192,161022,1,0,0:0:0:0:
64,192,161205,128,2,161571:0:0:0:0:
192,192,161205,1,0,0:0:0:0:
448,192,161205,1,0,0:0:0:0:
192,192,161388,128,0,161571:0:0:0:0:
320,192,161571,1,8,0:0:0:0:
448,192,161571,1,0,0:0:0:0:
320,192,161754,128,0,161937:0:0:0:0:
192,192,161937,1,2,0:0:0:0:
448,192,161937,1,0,0:0:0:0:
192,192,162120,1,2,0:0:0:0:
448,192,162120,1,0,0:0:0:0:
64,192,162303,1,8,0:0:0:0:
320,192,162303,128,0,162486:0:0:0:0:
448,192,162303,1,0,0:0:0:0:
64,192,162486,128,2,162851:0:0:0:0:
192,192,162486,1,0,0:0:0:0:
448,192,162669,128,0,162851:0:0:0:0:
192,192,162851,128,2,163034:0:0:0:0:
320,192,162851,1,0,0:0:0:0:
64,192,163034,1,8,0:0:0:0:
448,192,163034,1,0,0:0:0:0:
320,192,163217,128,0,163400:0:0:0:0:
64,192,163400,128,2,163583:0:0:0:0:
448,192,163400,1,0,0:0:0:0:
192,192,163583,1,2,0:0:0:0:
448,192,163583,128,0,163766:0:0:0:0:
64,192,163766,1,8,0:0:0:0:
192,192,163766,1,0,0:0:0:0:
320,192,163766,128,0,163949:0:0:0:0:
64,192,163949,128,2,164132:0:0:0:0:
448,192,163949,1,0,0:0:0:0:
192,192,164132,1,2,0:0:0:0:
320,192,164132,1,0,0:0:0:0:
448,192,164132,128,0,164498:0:0:0:0:
64,192,164315,1,0,0:0:0:0:
64,192,164498,1,8,0:0:0:0:
192,192,164498,128,0,164681:0:0:0:0:
320,192,164498,1,0,0:0:0:0:
320,192,164681,128,0,164864:0:0:0:0:
64,192,164864,128,2,165047:0:0:0:0:
192,192,164864,1,0,0:0:0:0:
320,192,165047,1,2,0:0:0:0:
448,192,165047,128,0,165229:0:0:0:0:
192,192,165229,1,8,0:0:0:0:
320,192,165229,1,0,0:0:0:0:
192,192,165412,128,2,165778:0:0:0:0:
448,192,165412,1,0,0:0:0:0:
320,192,165595,128,0,165778:0:0:0:0:
64,192,165778,1,2,0:0:0:0:
448,192,165778,128,0,166144:0:0:0:0:
64,192,165961,128,8,166144:0:0:0:0:
192,192,165961,1,0,0:0:0:0:
320,192,165961,1,0,0:0:0:0:
192,192,166144,1,0,0:0:0:0:
64,192,166327,1,8,0:0:0:0:
192,192,166327,1,4,0:0:0:0:
320,192,166327,1,0,0:0:0:0:
448,192,166327,1,0,0:0:0:0:
320,192,166510,1,2,0:0:0:0:
448,192,166510,1,0,0:0:0:0:
64,192,166693,1,8,0:0:0:0:
192,192,166693,1,4,0:0:0:0:
320,192,166693,1,0,0:0:0:0:
448,192,166693,1,0,0:0:0:0:
64,192,166876,1,2,0:0:0:0:
192,192,166876,1,0,0:0:0:0:
64,192,167059,1,4,0:0:0:0:
192,192,167059,1,2,0:0:0:0:
320,192,167059,1,0,0:0:0:0:
448,192,167059,1,0,0:0:0:0:
320,192,167242,1,2,0:0:0:0:
448,192,167242,1,0,0:0:0:0:
64,192,167425,1,8,0:0:0:0:
192,192,167425,1,0,0:0:0:0:
448,192,167425,1,0,0:0:0:0:
320,192,167608,1,0,0:0:0:0:
64,192,167790,1,2,0:0:0:0:
192,192,167790,1,0,0:0:0:0:
64,192,167973,1,2,0:0:0:0:
448,192,167973,1,0,0:0:0:0:
192,192,168156,1,8,0:0:0:0:
320,192,168156,1,0,0:0:0:0:
448,192,168156,1,0,0:0:0:0:
64,192,168339,1,2,0:0:0:0:
320,192,168339,1,0,0:0:0:0:
64,192,168522,1,2,0:0:0:0:
192,192,168522,1,0,0:0:0:0:
64,192,168705,1,2,0:0:0:0:
320,192,168705,1,0,0:0:0:0:
64,192,168888,1,8,0:0:0:0:
192,192,168888,1,0,0:0:0:0:
448,192,168888,1,0,0:0:0:0:
320,192,169071,1,0,0:0:0:0:
64,192,169254,1,2,0:0:0:0:
448,192,169254,1,0,0:0:0:0:
192,192,169437,1,2,0:0:0:0:
448,192,169437,1,0,0:0:0:0:
64,192,169620,1,8,0:0:0:0:
192,192,169620,1,0,0:0:0:0:
320,192,169620,1,0,0:0:0:0:
64,192,169803,1,2,0:0:0:0:
448,192,169803,1,0,0:0:0:0:
192,192,169894,1,2,0:0:0:0:
320,192,169986,1,2,0:0:0:0:
448,192,169986,1,0,0:0:0:0:
64,192,170169,1,2,0:0:0:0:
320,192,170169,1,0,0:0:0:0:
192,192,170351,1,8,0:0:0:0:
320,192,170351,1,0,0:0:0:0:
448,192,170351,1,0,0:0:0:0:
64,192,170534,1,0,0:0:0:0:
192,192,170717,1,2,0:0:0:0:
448,192,170717,1,0,0:0:0:0:
192,192,170900,1,2,0:0:0:0:
320,192,170900,1,0,0:0:0:0:
64,192,171083,1,8,0:0:0:0:
320,192,171083,1,0,0:0:0:0:
448,192,171083,1,0,0:0:0:0:
64,192,171266,1,2,0:0:0:0:
192,192,171266,1,0,0:0:0:0:
192,192,171449,1,2,0:0:0:0:
320,192,171449,1,0,0:0:0:0:
192,192,171632,1,2,0:0:0:0:
448,192,171632,1,0,0:0:0:0:
64,192,171815,1,8,0:0:0:0:
192,192,171815,1,0,0:0:0:0:
320,192,171815,1,0,0:0:0:0:
448,192,171998,1,0,0:0:0:0:
64,192,172181,1,2,0:0:0:0:
192,192,172181,1,0,0:0:0:0:
64,192,172364,1,2,0:0:0:0:
448,192,172364,1,0,0:0:0:0:
192,192,172547,1,8,0:0:0:0:
320,192,172547,1,0,0:0:0:0:
448,192,172547,1,0,0:0:0:0:
64,192,172729,1,2,0:0:0:0:
192,192,172729,1,0,0:0:0:0:
320,192,172821,1,2,0:0:0:0:
64,192,172912,1,2,0:0:0:0:
448,192,172912,1,0,0:0:0:0:
192,192,173095,1,2,0:0:0:0:
448,192,173095,1,0,0:0:0:0:
64,192,173278,1,8,0:0:0:0:
320,192,173278,1,0,0:0:0:0:
448,192,173278,1,0,0:0:0:0:
192,192,173461,1,0,0:0:0:0:
64,192,173644,1,2,0:0:0:0:
320,192,173644,1,0,0:0:0:0:
64,192,173827,1,2,0:0:0:0:
448,192,173827,1,0,0:0:0:0:
192,192,174010,1,8,0:0:0:0:
320,192,174010,1,0,0:0:0:0:
448,192,174010,1,0,0:0:0:0:
64,192,174193,1,2,0:0:0:0:
320,192,174193,1,0,0:0:0:0:
64,192,174376,1,2,0:0:0:0:
192,192,174376,1,0,0:0:0:0:
64,192,174559,1,2,0:0:0:0:
320,192,174559,1,0,0:0:0:0:
64,192,174742,1,8,0:0:0:0:
192,192,174742,1,0,0:0:0:0:
448,192,174742,1,0,0:0:0:0:
320,192,174925,1,0,0:0:0:0:
64,192,175108,1,2,0:0:0:0:
448,192,175108,1,0,0:0:0:0:
192,192,175290,1,2,0:0:0:0:
448,192,175290,1,0,0:0:0:0:
64,192,175473,1,8,0:0:0:0:
192,192,175473,1,0,0:0:0:0:
320,192,175473,1,0,0:0:0:0:
64,192,175656,1,2,0:0:0:0:
448,192,175656,1,0,0:0:0:0:
192,192,175748,1,2,0:0:0:0:
320,192,175839,1,2,0:0:0:0:
448,192,175839,1,0,0:0:0:0:
64,192,176022,1,2,0:0:0:0:
320,192,176022,1,0,0:0:0:0:
192,192,176205,1,8,0:0:0:0:
320,192,176205,1,0,0:0:0:0:
448,192,176205,1,0,0:0:0:0:
64,192,176388,1,0,0:0:0:0:
192,192,176571,1,2,0:0:0:0:
448,192,176571,1,0,0:0:0:0:
192,192,176754,1,2,0:0:0:0:
320,192,176754,1,0,0:0:0:0:
64,192,176937,1,8,0:0:0:0:
320,192,176937,1,0,0:0:0:0:
448,192,176937,1,0,0:0:0:0:
64,192,177120,1,2,0:0:0:0:
192,192,177120,1,0,0:0:0:0:
192,192,177303,1,2,0:0:0:0:
448,192,177303,1,0,0:0:0:0:
192,192,177486,1,2,0:0:0:0:
320,192,177486,1,0,0:0:0:0:
64,192,177669,1,8,0:0:0:0:
192,192,177669,1,0,0:0:0:0:
448,192,177669,1,0,0:0:0:0:
320,192,177851,1,0,0:0:0:0:
64,192,178034,1,8,0:0:0:0:
192,192,178034,1,0,0:0:0:0:
64,192,178126,1,8,0:0:0:0:
192,192,178126,1,0,0:0:0:0:
320,192,178217,1,8,0:0:0:0:
448,192,178217,1,0,0:0:0:0:
320,192,178309,1,8,0:0:0:0:
448,192,178309,1,0,0:0:0:0:
64,192,178400,1,0,0:0:0:45:Tom3.wav
192,192,178400,1,0,0:0:0:0:
320,192,178492,1,0,0:0:0:45:Tom3.wav
448,192,178492,1,0,0:0:0:0:
64,192,178583,1,0,0:0:0:45:Tom3.wav
192,192,178583,1,0,0:0:0:0:
320,192,178675,1,0,0:0:0:45:Tom3.wav
64,192,178766,128,2,181693:0:0:0:0:
192,192,178766,128,4,181693:0:0:0:0:
448,192,178766,128,0,181693:0:0:0:0:
