osu file format v14

[General]
AudioFilename: audio.mp3
AudioLeadIn: 0
PreviewTime: 45068
Countdown: 0
SampleSet: Soft
StackLeniency: 0.7
Mode: 3
LetterboxInBreaks: 0
SpecialStyle: 0
WidescreenStoryboard: 1

[Editor]
Bookmarks: 15178,41649,45178,58855
DistanceSpacing: 0.8
BeatDivisor: 4
GridSize: 8
TimelineZoom: 1.7

[Metadata]
Title:Be The One (TV Size)
TitleUnicode:Be The One (TV Size)
Artist:PANDORA feat. Beverly
ArtistUnicode:PANDORA feat. Beverly
Creator:RiP46
Version:Hitsound
Source:仮面ライダービルド
Tags:Heisei Kamen RIder Build Japanese
BeatmapID:2119467
BeatmapSetID:1012608

[Difficulty]
HPDrainRate:8
CircleSize:4
OverallDifficulty:8
ApproachRate:5
SliderMultiplier:1.4
SliderTickRate:1

[Events]
//Background and Video events
0,0,"BG.jpg",0,0
//Break Periods
//Storyboard Layer 0 (Background)
//Storyboard Layer 1 (Fail)
//Storyboard Layer 2 (Pass)
//Storyboard Layer 3 (Foreground)
//Storyboard Sound Samples

[TimingPoints]
1061,441.176470588235,4,2,1,50,1,0
41649,-166.666666666667,4,2,1,50,0,0
41980,-58.8235294117647,4,2,1,50,0,0
42090,-166.666666666667,4,2,1,50,0,0
42421,-58.8235294117647,4,2,1,50,0,0
42531,-100,4,2,1,50,0,0
45178,-100,4,2,1,50,0,1
72972,-100,4,2,1,50,0,0

[HitObjects]
320,192,14737,5,4,0:0:0:0:
64,192,15178,1,8,0:0:0:0:
192,192,15399,1,2,0:0:0:0:
64,192,15619,1,8,0:0:0:0:
192,192,15840,1,2,0:0:0:0:
64,192,16060,1,8,0:0:0:0:
192,192,16281,1,2,0:0:0:0:
64,192,16502,1,8,0:0:0:0:
192,192,16722,1,2,0:0:0:0:
64,192,16943,1,8,0:0:0:0:
192,192,17163,1,2,0:0:0:0:
64,192,17384,1,8,0:0:0:0:
192,192,17605,1,2,0:0:0:0:
64,192,17825,1,8,0:0:0:0:
192,192,18046,1,2,0:0:0:0:
64,192,18266,1,8,0:0:0:0:
64,192,18487,1,8,0:0:0:0:
192,192,18487,1,2,0:0:0:0:
64,192,18708,1,8,0:0:0:0:
192,192,18928,1,2,0:0:0:0:
64,192,19149,1,8,0:0:0:0:
192,192,19369,1,2,0:0:0:0:
64,192,19590,1,8,0:0:0:0:
192,192,19810,1,2,0:0:0:0:
64,192,20031,1,8,0:0:0:0:
192,192,20252,1,2,0:0:0:0:
64,192,20472,1,8,0:0:0:0:
192,192,20693,1,2,0:0:0:0:
64,192,20913,1,8,0:0:0:0:
192,192,21134,1,2,0:0:0:0:
64,192,21355,1,8,0:0:0:0:
192,192,21575,1,2,0:0:0:0:
64,192,21796,1,8,0:0:0:0:
192,192,22016,1,2,0:0:0:0:
64,192,22237,1,8,0:0:0:0:
192,192,22458,1,2,0:0:0:0:
64,192,22678,1,8,0:0:0:0:
192,192,22899,1,2,0:0:0:0:
64,192,23119,1,8,0:0:0:0:
192,192,23340,1,2,0:0:0:0:
64,192,23560,1,8,0:0:0:0:
192,192,23781,1,2,0:0:0:0:
64,192,24002,1,8,0:0:0:0:
192,192,24222,1,2,0:0:0:0:
64,192,24443,1,8,0:0:0:0:
192,192,24663,1,2,0:0:0:0:
64,192,24884,1,8,0:0:0:0:
192,192,25105,1,2,0:0:0:0:
64,192,25325,1,8,0:0:0:0:
64,192,25546,1,8,0:0:0:0:
192,192,25546,1,2,0:0:0:0:
64,192,25766,1,8,0:0:0:0:
192,192,25987,1,2,0:0:0:0:
64,192,26208,1,8,0:0:0:0:
192,192,26428,1,2,0:0:0:0:
64,192,26649,1,8,0:0:0:0:
192,192,26869,1,2,0:0:0:0:
64,192,27090,1,8,0:0:0:0:
192,192,27310,1,2,0:0:0:0:
64,192,27531,1,8,0:0:0:0:
192,192,27752,1,2,0:0:0:0:
64,192,27972,1,8,0:0:0:0:
192,192,28193,1,2,0:0:0:0:
64,192,28413,1,8,0:0:0:0:
192,192,28634,1,2,0:0:0:0:
64,192,28855,1,8,0:0:0:0:
192,192,29075,1,2,0:0:0:0:
64,192,29296,1,8,0:0:0:0:
192,192,29516,1,2,0:0:0:0:
64,192,29737,1,8,0:0:0:0:
192,192,29958,1,2,0:0:0:0:
64,192,30178,1,8,0:0:0:0:
192,192,30399,1,2,0:0:0:0:
64,192,30619,1,8,0:0:0:0:
192,192,30840,1,2,0:0:0:0:
64,192,31060,1,8,0:0:0:0:
192,192,31281,1,2,0:0:0:0:
64,192,31502,1,8,0:0:0:0:
192,192,31722,1,2,0:0:0:0:
64,192,31943,1,8,0:0:0:0:
192,192,32163,1,2,0:0:0:0:
64,192,32384,1,8,0:0:0:0:
64,192,32605,1,8,0:0:0:0:
192,192,32605,1,2,0:0:0:0:
64,192,32825,1,8,0:0:0:0:
192,192,33046,1,2,0:0:0:0:
64,192,33266,1,8,0:0:0:0:
192,192,33487,1,2,0:0:0:0:
64,192,33708,1,8,0:0:0:0:
192,192,33928,1,2,0:0:0:0:
64,192,34149,1,8,0:0:0:0:
192,192,34369,1,2,0:0:0:0:
64,192,34590,1,8,0:0:0:0:
192,192,34810,1,2,0:0:0:0:
64,192,35031,1,8,0:0:0:0:
192,192,35252,1,2,0:0:0:0:
64,192,35472,1,8,0:0:0:0:
192,192,35693,1,2,0:0:0:0:
64,192,35913,1,8,0:0:0:0:
192,192,36134,1,2,0:0:0:0:
64,192,36355,1,8,0:0:0:0:
192,192,36575,1,2,0:0:0:0:
64,192,36796,1,8,0:0:0:0:
192,192,37016,1,2,0:0:0:0:
64,192,37237,1,8,0:0:0:0:
192,192,37458,1,2,0:0:0:0:
64,192,37678,1,8,0:0:0:0:
192,192,37899,1,2,0:0:0:0:
64,192,38119,1,8,0:0:0:0:
192,192,38340,1,2,0:0:0:0:
64,192,38560,1,8,0:0:0:0:
192,192,38781,1,2,0:0:0:0:
64,192,39002,1,8,0:0:0:0:
192,192,39222,1,2,0:0:0:0:
64,192,39443,1,8,0:0:0:0:
64,192,39663,1,8,0:0:0:0:
192,192,39663,1,2,0:0:0:0:
64,192,39884,1,8,0:0:0:0:
192,192,40105,1,2,0:0:0:0:
64,192,40325,1,8,0:0:0:0:
192,192,40546,1,2,0:0:0:0:
64,192,40766,1,8,0:0:0:0:
192,192,40987,1,2,0:0:0:0:
64,192,41208,1,8,0:0:0:0:
192,192,41428,1,2,0:0:0:0:
320,192,41649,1,4,0:0:0:0:
320,192,42090,1,4,0:0:0:0:
320,192,42531,1,4,0:0:0:0:
64,192,45178,1,8,0:0:0:0:
192,192,45399,1,2,0:0:0:0:
64,192,45619,1,8,0:0:0:0:
192,192,45840,1,2,0:0:0:0:
64,192,46060,1,8,0:0:0:0:
192,192,46281,1,2,0:0:0:0:
64,192,46502,1,8,0:0:0:0:
192,192,46722,1,2,0:0:0:0:
64,192,46943,1,8,0:0:0:0:
192,192,47163,1,2,0:0:0:0:
64,192,47384,1,8,0:0:0:0:
192,192,47605,1,2,0:0:0:0:
64,192,47825,1,8,0:0:0:0:
192,192,48046,1,2,0:0:0:0:
64,192,48266,1,8,0:0:0:0:
192,192,48487,1,2,0:0:0:0:
64,192,48708,1,8,0:0:0:0:
192,192,48928,1,2,0:0:0:0:
64,192,49149,1,8,0:0:0:0:
192,192,49369,1,2,0:0:0:0:
64,192,49590,1,8,0:0:0:0:
192,192,49810,1,2,0:0:0:0:
64,192,50031,1,8,0:0:0:0:
192,192,50252,1,2,0:0:0:0:
64,192,50472,1,8,0:0:0:0:
192,192,50693,1,2,0:0:0:0:
64,192,50913,1,8,0:0:0:0:
192,192,51134,1,2,0:0:0:0:
64,192,51355,1,8,0:0:0:0:
192,192,51575,1,2,0:0:0:0:
64,192,51796,1,8,0:0:0:0:
192,192,52016,1,2,0:0:0:0:
64,192,52237,1,8,0:0:0:0:
192,192,52458,1,2,0:0:0:0:
64,192,52678,1,8,0:0:0:0:
192,192,52899,1,2,0:0:0:0:
64,192,53119,1,8,0:0:0:0:
192,192,53340,1,2,0:0:0:0:
64,192,53560,1,8,0:0:0:0:
192,192,53781,1,2,0:0:0:0:
64,192,54002,1,8,0:0:0:0:
192,192,54222,1,2,0:0:0:0:
64,192,54443,1,8,0:0:0:0:
192,192,54663,1,2,0:0:0:0:
64,192,54884,1,8,0:0:0:0:
192,192,55105,1,2,0:0:0:0:
64,192,55325,1,8,0:0:0:0:
192,192,55546,1,2,0:0:0:0:
64,192,55766,1,8,0:0:0:0:
192,192,55987,1,2,0:0:0:0:
64,192,56208,1,8,0:0:0:0:
192,192,56428,1,2,0:0:0:0:
64,192,56649,1,8,0:0:0:0:
192,192,56869,1,2,0:0:0:0:
64,192,57090,1,8,0:0:0:0:
192,192,57310,1,2,0:0:0:0:
320,192,57531,1,4,0:0:0:0:
320,192,57972,1,4,0:0:0:0:
320,192,58413,1,4,0:0:0:0:
64,192,59296,1,8,0:0:0:0:
192,192,59516,1,2,0:0:0:0:
64,192,59737,1,8,0:0:0:0:
192,192,59958,1,2,0:0:0:0:
64,192,60178,1,8,0:0:0:0:
192,192,60399,1,2,0:0:0:0:
64,192,60619,1,8,0:0:0:0:
192,192,60840,1,2,0:0:0:0:
64,192,61060,1,8,0:0:0:0:
192,192,61281,1,2,0:0:0:0:
64,192,61502,1,8,0:0:0:0:
192,192,61722,1,2,0:0:0:0:
64,192,61943,1,8,0:0:0:0:
192,192,62163,1,2,0:0:0:0:
64,192,62384,1,8,0:0:0:0:
192,192,62605,1,2,0:0:0:0:
64,192,62825,1,8,0:0:0:0:
192,192,63046,1,2,0:0:0:0:
64,192,63266,1,8,0:0:0:0:
192,192,63487,1,2,0:0:0:0:
64,192,63708,1,8,0:0:0:0:
192,192,63928,1,2,0:0:0:0:
64,192,64149,1,8,0:0:0:0:
192,192,64369,1,2,0:0:0:0:
64,192,64590,1,8,0:0:0:0:
192,192,64810,1,2,0:0:0:0:
64,192,65031,1,8,0:0:0:0:
192,192,65252,1,2,0:0:0:0:
64,192,65472,1,8,0:0:0:0:
192,192,65693,1,2,0:0:0:0:
64,192,65913,1,8,0:0:0:0:
192,192,66134,1,2,0:0:0:0:
64,192,66355,1,8,0:0:0:0:
192,192,66575,1,2,0:0:0:0:
64,192,66796,1,8,0:0:0:0:
192,192,67016,1,2,0:0:0:0:
64,192,67237,1,8,0:0:0:0:
192,192,67458,1,2,0:0:0:0:
64,192,67678,1,8,0:0:0:0:
192,192,67899,1,2,0:0:0:0:
64,192,68119,1,8,0:0:0:0:
192,192,68340,1,2,0:0:0:0:
64,192,68560,1,8,0:0:0:0:
192,192,68781,1,2,0:0:0:0:
64,192,69002,1,8,0:0:0:0:
192,192,69222,1,2,0:0:0:0:
64,192,69443,1,8,0:0:0:0:
192,192,69663,1,2,0:0:0:0:
64,192,69884,1,8,0:0:0:0:
64,192,69994,1,8,0:0:0:0:
64,192,70105,1,8,0:0:0:0:
192,192,70105,1,2,0:0:0:0:
64,192,70215,1,8,0:0:0:0:
64,192,70325,1,8,0:0:0:0:
64,192,70435,1,8,0:0:0:0:
64,192,70546,1,8,0:0:0:0:
192,192,70546,1,2,0:0:0:0:
64,192,70656,1,8,0:0:0:0:
64,192,70766,1,8,0:0:0:0:
64,192,70877,1,8,0:0:0:0:
64,192,70987,1,8,0:0:0:0:
192,192,70987,1,2,0:0:0:0:
64,192,71097,1,8,0:0:0:0:
64,192,71208,1,8,0:0:0:0:
64,192,71318,1,8,0:0:0:0:
64,192,71428,1,8,0:0:0:0:
192,192,71428,1,2,0:0:0:0:
64,192,71538,1,8,0:0:0:0:
64,192,71649,1,8,0:0:0:0:
192,192,71869,1,2,0:0:0:0:
64,192,72090,1,8,0:0:0:0:
192,192,72310,1,2,0:0:0:0:
64,192,72531,1,8,0:0:0:0:
192,192,72752,1,2,0:0:0:0:
320,192,72972,1,4,0:0:0:0:
