osu file format v14

[General]
AudioFilename: audio.mp3
AudioLeadIn: 0
PreviewTime: 45068
Countdown: 0
SampleSet: Soft
StackLeniency: 0.7
Mode: 3
LetterboxInBreaks: 0
SpecialStyle: 0
WidescreenStoryboard: 1

[Editor]
Bookmarks: 15178,41649,45178,58855
DistanceSpacing: 0.8
BeatDivisor: 2
GridSize: 8
TimelineZoom: 1.2

[Metadata]
Title:Be The One (TV Size)
TitleUnicode:Be The One (TV Size)
Artist:PANDORA feat. Beverly
ArtistUnicode:PANDORA feat. Beverly
Creator:RiP46
Version:Easy
Source:仮面ライダービルド
Tags:Heisei Kamen RIder Build Japanese
BeatmapID:2119465
BeatmapSetID:1012608

[Difficulty]
HPDrainRate:6
CircleSize:4
OverallDifficulty:6
ApproachRate:5
SliderMultiplier:1.4
SliderTickRate:1

[Events]
//Background and Video events
0,0,"BG.jpg",0,0
//Break Periods
//Storyboard Layer 0 (Background)
//Storyboard Layer 1 (Fail)
//Storyboard Layer 2 (Pass)
//Storyboard Layer 3 (Foreground)
//Storyboard Layer 4 (Overlay)
//Storyboard Sound Samples

[TimingPoints]
1061,441.176470588235,4,2,1,5,1,0
45178,-100,4,2,1,5,0,1
72972,-100,4,2,1,5,0,0

[HitObjects]
64,192,1061,128,0,1502:0:0:0:0:
192,192,1502,128,0,1943:0:0:0:0:
320,192,1943,128,0,2384:0:0:0:0:
448,192,2384,128,0,2825:0:0:0:0:
64,192,2825,128,0,3708:0:0:0:0:
320,192,3708,128,0,4590:0:0:0:0:
192,192,4590,128,0,5472:0:0:0:0:
320,192,5472,128,0,6355:0:0:0:0:
448,192,6355,128,0,7237:0:0:0:0:
64,192,7237,128,0,8119:0:0:0:0:
448,192,8119,128,0,8560:0:0:0:0:
320,192,8560,128,0,9002:0:0:0:0:
192,192,9002,128,0,9443:0:0:0:0:
64,192,9443,128,0,9884:0:0:0:0:
448,192,9884,128,0,10766:0:0:0:0:
192,192,10766,128,0,11649:0:0:0:0:
320,192,11649,128,0,12531:0:0:0:0:
192,192,12531,128,0,13413:0:0:0:0:
64,192,13413,128,0,14296:0:0:0:0:
448,192,14296,128,0,14737:0:0:0:0:
64,192,14737,1,0,0:0:0:0:
192,192,14737,1,0,0:0:0:0:
448,192,15178,1,0,0:0:0:0:
448,192,15619,1,0,0:0:0:0:
192,192,16060,1,0,0:0:0:0:
192,192,16502,1,0,0:0:0:0:
320,192,16722,1,0,0:0:0:0:
64,192,16943,1,0,0:0:0:0:
64,192,17384,1,0,0:0:0:0:
320,192,17605,1,0,0:0:0:0:
192,192,17825,1,0,0:0:0:0:
192,192,18266,1,0,0:0:0:0:
320,192,18487,1,0,0:0:0:0:
448,192,18708,1,0,0:0:0:0:
448,192,19149,1,0,0:0:0:0:
64,192,19369,1,0,0:0:0:0:
320,192,19590,1,0,0:0:0:0:
320,192,20031,1,0,0:0:0:0:
64,192,20472,128,0,20913:0:0:0:0:
320,192,20913,1,0,0:0:0:0:
192,192,21134,1,0,0:0:0:0:
448,192,21355,128,0,21796:0:0:0:0:
192,192,21796,1,0,0:0:0:0:
320,192,22016,1,0,0:0:0:0:
64,192,22237,1,0,0:0:0:0:
64,192,22678,1,0,0:0:0:0:
192,192,22899,1,0,0:0:0:0:
320,192,23119,1,0,0:0:0:0:
320,192,23560,1,0,0:0:0:0:
448,192,23781,1,0,0:0:0:0:
192,192,24002,1,0,0:0:0:0:
192,192,24443,1,0,0:0:0:0:
64,192,24663,1,0,0:0:0:0:
448,192,24884,1,0,0:0:0:0:
448,192,25325,1,0,0:0:0:0:
320,192,25546,1,0,0:0:0:0:
192,192,25766,1,0,0:0:0:0:
192,192,26208,1,0,0:0:0:0:
448,192,26428,1,0,0:0:0:0:
320,192,26649,1,0,0:0:0:0:
320,192,27090,1,0,0:0:0:0:
64,192,27310,1,0,0:0:0:0:
192,192,27531,1,0,0:0:0:0:
192,192,27972,1,0,0:0:0:0:
448,192,28413,128,0,28855:0:0:0:0:
320,192,28855,1,0,0:0:0:0:
192,192,29075,1,0,0:0:0:0:
64,192,29296,1,0,0:0:0:0:
448,192,29296,1,0,0:0:0:0:
64,192,29737,1,0,0:0:0:0:
192,192,29958,1,0,0:0:0:0:
320,192,30178,1,0,0:0:0:0:
320,192,30619,1,0,0:0:0:0:
448,192,30840,1,0,0:0:0:0:
192,192,31060,1,0,0:0:0:0:
192,192,31502,1,0,0:0:0:0:
64,192,31722,1,0,0:0:0:0:
448,192,31943,1,0,0:0:0:0:
448,192,32384,1,0,0:0:0:0:
320,192,32605,1,0,0:0:0:0:
192,192,32825,1,0,0:0:0:0:
192,192,33266,1,0,0:0:0:0:
64,192,33487,1,0,0:0:0:0:
320,192,33708,1,0,0:0:0:0:
320,192,34149,1,0,0:0:0:0:
192,192,34590,128,0,35031:0:0:0:0:
64,192,35031,1,0,0:0:0:0:
448,192,35252,1,0,0:0:0:0:
320,192,35472,128,0,35913:0:0:0:0:
192,192,35913,1,0,0:0:0:0:
448,192,36134,1,0,0:0:0:0:
64,192,36355,1,0,0:0:0:0:
64,192,36796,1,0,0:0:0:0:
320,192,37016,1,0,0:0:0:0:
192,192,37237,1,0,0:0:0:0:
192,192,37678,1,0,0:0:0:0:
64,192,37899,1,0,0:0:0:0:
448,192,38119,1,0,0:0:0:0:
448,192,38560,1,0,0:0:0:0:
192,192,38781,1,0,0:0:0:0:
320,192,39002,1,0,0:0:0:0:
320,192,39443,1,0,0:0:0:0:
64,192,39663,1,0,0:0:0:0:
192,192,39884,1,0,0:0:0:0:
192,192,40325,1,0,0:0:0:0:
448,192,40546,5,0,0:0:0:0:
320,192,40766,5,0,0:0:0:0:
320,192,41208,1,0,0:0:0:0:
192,192,41428,1,0,0:0:0:0:
64,192,41649,5,0,0:0:0:0:
448,192,41649,1,0,0:0:0:0:
64,192,42090,1,0,0:0:0:0:
448,192,42090,1,0,0:0:0:0:
64,192,42531,1,0,0:0:0:0:
448,192,42531,1,0,0:0:0:0:
320,192,42972,128,0,43413:0:0:0:0:
64,192,43413,128,0,44075:0:0:0:0:
448,192,44075,128,0,44296:0:0:0:0:
192,192,44296,128,0,44737:0:0:0:0:
320,192,44737,128,0,45178:0:0:0:0:
64,192,45178,128,0,46060:0:0:0:0:
448,192,45178,1,0,0:0:0:0:
192,192,45619,1,0,0:0:0:0:
320,192,46060,1,0,0:0:0:0:
448,192,46502,128,0,47384:0:0:0:0:
64,192,46943,1,0,0:0:0:0:
320,192,47384,1,0,0:0:0:0:
192,192,47825,128,0,48266:0:0:0:0:
320,192,48266,128,0,48708:0:0:0:0:
64,192,48708,128,0,49590:0:0:0:0:
448,192,49149,1,0,0:0:0:0:
320,192,49590,128,0,50031:0:0:0:0:
192,192,50031,128,0,50472:0:0:0:0:
320,192,50472,1,0,0:0:0:0:
448,192,50693,1,0,0:0:0:0:
192,192,50913,1,0,0:0:0:0:
320,192,51134,1,0,0:0:0:0:
64,192,51355,128,0,51796:0:0:0:0:
320,192,51796,1,0,0:0:0:0:
192,192,52016,1,0,0:0:0:0:
448,192,52237,128,0,53119:0:0:0:0:
64,192,52237,1,0,0:0:0:0:
320,192,52678,1,0,0:0:0:0:
64,192,53119,1,0,0:0:0:0:
192,192,53560,128,0,54443:0:0:0:0:
448,192,54002,1,0,0:0:0:0:
320,192,54443,1,0,0:0:0:0:
448,192,54884,128,0,55325:0:0:0:0:
64,192,55325,128,0,55766:0:0:0:0:
320,192,55766,128,0,56649:0:0:0:0:
192,192,56208,1,0,0:0:0:0:
448,192,56649,128,0,57090:0:0:0:0:
64,192,57090,128,0,57531:0:0:0:0:
320,192,57531,1,0,0:0:0:0:
320,192,57972,1,0,0:0:0:0:
448,192,58193,1,0,0:0:0:0:
192,192,58413,1,0,0:0:0:0:
320,192,58634,1,0,0:0:0:0:
192,192,58855,1,0,0:0:0:0:
64,192,58855,1,0,0:0:0:0:
448,192,59296,1,0,0:0:0:0:
320,192,59296,1,0,0:0:0:0:
448,192,59737,1,0,0:0:0:0:
448,192,60178,1,0,0:0:0:0:
448,192,60619,1,0,0:0:0:0:
64,192,61060,1,0,0:0:0:0:
64,192,61502,1,0,0:0:0:0:
64,192,61943,1,0,0:0:0:0:
448,192,62163,1,0,0:0:0:0:
64,192,62384,1,0,0:0:0:0:
448,192,62605,1,0,0:0:0:0:
320,192,62825,1,0,0:0:0:0:
320,192,63266,1,0,0:0:0:0:
320,192,63708,1,0,0:0:0:0:
320,192,64149,1,0,0:0:0:0:
192,192,64590,1,0,0:0:0:0:
192,192,65031,1,0,0:0:0:0:
192,192,65472,1,0,0:0:0:0:
320,192,65693,1,0,0:0:0:0:
192,192,65913,1,0,0:0:0:0:
320,192,66134,1,0,0:0:0:0:
64,192,66355,128,0,66796:0:0:0:0:
448,192,66355,1,0,0:0:0:0:
192,192,66796,128,0,67237:0:0:0:0:
320,192,67237,128,0,67678:0:0:0:0:
448,192,67678,128,0,68119:0:0:0:0:
64,192,68119,128,0,68560:0:0:0:0:
192,192,68560,128,0,69002:0:0:0:0:
320,192,69002,128,0,69443:0:0:0:0:
448,192,69443,128,0,69884:0:0:0:0:
64,192,69884,128,0,71649:0:0:0:0:
192,192,69884,1,0,0:0:0:0:
448,192,70325,1,0,0:0:0:0:
192,192,70766,1,0,0:0:0:0:
320,192,71208,1,0,0:0:0:0:
448,192,71649,128,0,72090:0:0:0:0:
192,192,72090,128,0,72310:0:0:0:0:
320,192,72310,128,0,72531:0:0:0:0:
64,192,72531,128,0,72972:0:0:0:0:
320,192,72972,128,0,73413:0:0:0:0:
448,192,72972,128,0,73413:0:0:0:0:
