osu file format v14

[General]
AudioFilename: audio.mp3
AudioLeadIn: 0
PreviewTime: 24443
Countdown: 0
SampleSet: Soft
StackLeniency: 0.7
Mode: 0
LetterboxInBreaks: 0
WidescreenStoryboard: 1

[Editor]
Bookmarks: 1041,8845,16650,24455,32260,40065,41516,55675,63468,71284,79089,86894,102504,110297,118102,125907,133711,149321,164931
DistanceSpacing: 1.1
BeatDivisor: 4
GridSize: 32
TimelineZoom: 1

[Metadata]
Title:S kazhdym
TitleUnicode:С каждым
Artist:PALC
ArtistUnicode:PALC
Creator:nemidnight
Version:Yumerios' Normal
Source:
Tags:yumerios chizu-kun russian pop русский поп переповтор пальц
BeatmapID:3711455
BeatmapSetID:1791758

[Difficulty]
HPDrainRate:3
CircleSize:3.4
OverallDifficulty:4
ApproachRate:5.5
SliderMultiplier:1.6
SliderTickRate:1

[Events]
//Background and Video events
0,0,"etojeya.jpg",0,0
//Break Periods
2,102687,109167
2,126102,130630
//Storyboard Layer 0 (Background)
//Storyboard Layer 1 (Fail)
//Storyboard Layer 2 (Pass)
//Storyboard Layer 3 (Foreground)
//Storyboard Layer 4 (Overlay)
//Storyboard Sound Samples

[TimingPoints]
1024,487.80487804878,4,2,1,48,1,0
8828,-111.111111111111,4,2,1,61,0,0
16633,-100,4,2,2,71,0,0
24438,-111.111111111111,4,2,1,48,0,0
32243,-100,4,2,2,61,0,0
38097,-100,4,2,1,72,0,0
40048,-90.9090909090909,4,2,1,90,0,1
55658,-111.111111111111,4,2,1,48,0,0
57121,-111.111111111111,4,2,2,71,0,0
63463,-100,4,2,1,72,0,0
66267,-100,4,2,2,72,0,0
66877,-100,4,2,1,72,0,0
71267,-111.111111111111,4,2,1,48,0,0
79072,-100,4,2,2,61,0,0
84926,-100,4,2,1,72,0,0
86877,-90.9090909090909,4,2,1,90,0,1
102487,-111.111111111111,4,2,1,65,0,0
110292,-111.111111111111,4,2,2,60,0,0
118097,-99.9999999999999,4,2,1,68,0,0
125902,-99.9999999999999,4,2,1,48,0,0
131755,-111.111111111111,4,2,1,72,0,0
133706,-100,4,2,1,80,0,0
149316,-90.9090909090909,4,2,1,90,0,1
164926,-111.111111111111,4,2,1,90,0,0
168828,-111.111111111111,4,2,1,40,0,0

[Colours]
Combo1 : 0,128,0
Combo2 : 224,108,14
Combo3 : 0,90,134
Combo4 : 255,140,140

[HitObjects]
32,75,8828,6,0,P|87:33|164:72,1,143.999995605469,2|2,3:2|3:2,0:0:0:0:
193,123,9560,1,2,0:0:0:0:
143,184,9804,2,0,L|61:171,2,71.9999978027344,2|2|2,3:2|0:0|3:2,0:0:0:0:
220,322,10780,2,0,L|372:287,1,143.999995605469,2|2,3:2|3:2,0:0:0:0:
423,241,11511,1,2,0:0:0:0:
358,195,11755,2,0,P|336:159|345:116,1,71.9999978027344,2|2,3:2|0:0,0:0:0:0:
361,54,12243,2,0,P|391:37|439:45,1,71.9999978027344,2|0,3:2|0:0,0:0:0:0:
486,93,12731,5,2,3:2:0:0:
358,195,13219,2,0,L|271:175,1,71.9999978027344,2|0,3:2|0:0,0:0:0:0:
226,228,13706,2,0,L|138:251,2,71.9999978027344,2|0|2,3:2|0:0|3:2,0:0:0:0:
292,280,14438,1,2,0:0:0:0:
292,280,14682,1,2,3:2:0:0:
167,377,15170,2,0,L|84:362,1,71.9999978027344,2|2,3:2|0:0,0:0:0:0:
36,311,15658,2,0,P|53:259|149:251,1,143.999995605469,2|0,3:2|3:2,0:0:0:0:
299,298,16633,6,0,L|314:386,2,80,2|2|10,3:2|0:0|0:0,0:0:0:0:
359,233,17365,1,2,0:0:0:0:
290,177,17609,2,0,B|236:157|203:200|212:208|186:243|132:231,1,160,2|8,3:2|0:0,0:0:0:0:
71,193,18341,1,2,0:0:0:0:
82,106,18584,2,0,P|142:53|227:70,1,160,2|10,3:2|0:0,0:0:0:0:
381,0,19560,2,0,L|348:172,1,160,2|8,3:2|0:0,0:0:0:0:
408,223,20292,1,2,0:0:0:0:
353,291,20536,6,0,P|284:292|242:204,1,160,2|8,3:2|0:0,0:0:0:0:
271,138,21267,1,2,0:0:0:0:
199,86,21511,2,0,P|153:97|137:203,1,160,2|8,3:2|0:0,0:0:0:0:
248,327,22487,1,2,3:2:0:0:
248,327,22731,2,0,L|422:292,1,160,2|2,0:0|0:0,0:0:0:0:
483,335,23463,1,2,3:2:0:0:
483,335,23706,1,2,0:0:0:0:
412,179,24194,1,2,0:0:0:0:
412,179,24438,6,0,P|333:163|287:222,1,143.999995605469,6|2,3:2|3:2,0:0:0:0:
203,334,25414,2,0,P|171:351|130:337,1,71.9999978027344,2|0,3:2|0:0,0:0:0:0:
66,307,25902,1,2,3:2:0:0:
59,148,26389,2,0,L|201:117,1,143.999995605469,2|2,3:2|3:2,0:0:0:0:
328,24,27365,2,0,L|313:101,1,71.9999978027344,2|0,3:2|0:0,0:0:0:0:
369,159,27853,1,2,3:2:0:0:
369,159,28097,1,2,0:0:0:0:
320,222,28341,6,0,P|263:231|165:261,1,143.999995605469,2|2,3:2|3:2,0:0:0:0:
116,299,29072,1,0,0:0:0:0:
116,299,29316,2,0,P|95:248|149:178,1,143.999995605469,2|2,3:2|3:2,0:0:0:0:
220,42,30292,2,0,P|145:65|69:83,1,143.999995605469,2|2,3:2|3:2,0:0:0:0:
30,141,31023,1,0,0:0:0:0:
30,141,31267,2,0,P|8:186|53:271,1,143.999995605469,2|2,3:2|3:2,0:0:0:0:
190,364,32243,6,0,L|154:192,1,160,2|10,3:2|0:0,0:0:0:0:
218,144,32975,1,0,0:0:0:0:
218,144,33219,2,0,L|232:57,2,80,2|0|10,3:2|0:0|0:0,0:0:0:0:
336,274,34194,2,0,P|407:261|412:159,1,160,2|10,3:2|0:0,0:0:0:0:
376,112,34926,1,0,0:0:0:0:
376,112,35170,2,0,L|281:133,1,80,2|0,3:2|0:0,0:0:0:0:
266,211,35658,1,10,0:0:0:0:
266,211,35902,1,2,0:0:0:0:
191,256,36145,6,0,P|88:241|73:165,1,160,2|10,3:2|0:0,0:0:0:0:
20,125,36877,1,0,0:0:0:0:
79,60,37121,2,0,P|205:88|260:99,1,160,2|10,3:2|0:0,0:0:0:0:
393,16,38097,2,0,P|436:4|476:30,1,80,10|10,0:0|0:0,0:0:0:0:
508,95,38584,2,0,P|491:140|479:185,1,80,10|8,0:0|0:0,0:0:0:0:
415,228,39072,2,0,P|433:296|443:337,2,80,10|8|10,0:0|0:0|0:0,0:0:0:0:
286,82,40048,6,0,P|239:67|171:176,1,176.000005371094,6|8,3:2|0:0,0:0:0:0:
235,216,40780,1,0,0:0:0:0:
154,268,41023,2,0,L|58:252,1,88.0000026855469,0|0,3:2|0:0,0:0:0:0:
50,349,41511,2,0,L|146:365,1,88.0000026855469,10|2,0:0|0:0,0:0:0:0:
228,330,41999,1,2,3:2:0:0:
154,268,42243,1,2,0:0:0:0:
235,216,42487,2,0,P|298:198|380:165,2,132.00000402832,10|2|0,0:0|0:0|0:0,0:0:0:0:
164,150,43463,1,10,0:0:0:0:
293,6,43950,6,0,B|338:-3|378:26|367:43|412:78|458:53,1,176.000005371094,2|10,3:2|0:0,0:0:0:0:
506,136,44682,1,0,0:0:0:0:
439,206,44926,2,0,L|350:191,1,88.0000026855469,0|2,3:2|0:0,0:0:0:0:
320,283,45414,2,0,L|231:298,1,88.0000026855469,10|2,0:0|0:0,0:0:0:0:
146,253,45902,1,2,3:2:0:0:
210,180,46145,1,2,0:0:0:0:
127,128,46389,2,0,P|98:38|84:-2,2,132.00000402832,10|2|2,0:0|0:0|0:0,0:0:0:0:
50,188,47365,2,0,P|32:233|53:271,1,88.0000026855469,10|2,0:0|0:0,0:0:0:0:
111,340,47853,6,0,L|295:302,1,176.000005371094,6|10,3:2|0:0,0:0:0:0:
351,234,48585,1,0,0:0:0:0:
264,191,48828,2,0,P|239:148|261:99,1,88.0000026855469,0|0,3:2|0:0,0:0:0:0:
306,35,49316,2,0,P|344:13|395:29,1,88.0000026855469,10|2,3:2|0:0,0:0:0:0:
467,73,49804,1,2,3:2:0:0:
412,153,50048,1,2,0:0:0:0:
483,218,50292,2,0,P|505:270|471:342,2,132.00000402832,10|2|2,3:2|0:0|0:0,0:0:0:0:
404,275,51268,1,10,3:2:0:0:
286,121,51755,6,0,P|240:96|138:187,1,176.000005371094,2|10,3:2|3:2,0:0:0:0:
79,226,52487,1,0,0:0:0:0:
144,297,52731,2,0,P|187:285|244:273,1,88.0000026855469,2|2,3:2|0:0,0:0:0:0:
295,347,53219,2,0,P|337:356|380:368,1,88.0000026855469,10|2,3:2|0:0,0:0:0:0:
460,313,53707,1,2,3:2:0:0:
418,225,53950,1,2,0:0:0:0:
321,234,54194,2,0,P|260:218|268:102,1,176.000005371094,10|2,3:2|3:2,0:0:0:0:
325,56,54926,1,2,0:0:0:0:
406,108,55170,1,10,3:2:0:0:
316,238,55658,5,2,0:0:0:0:
316,238,57121,1,6,3:2:0:0:
215,115,57609,6,0,P|159:114|127:196,1,143.999995605469,2|10,3:2|0:0,0:0:0:0:
178,243,58341,1,2,0:0:0:0:
136,310,58584,2,0,P|92:323|60:297,1,71.9999978027344,2|0,3:2|0:0,0:0:0:0:
25,246,59072,2,0,P|13:199|37:169,1,71.9999978027344,10|2,0:0|0:0,0:0:0:0:
70,116,59560,6,0,P|104:100|163:73,1,71.9999978027344,2|2,3:2|0:0,0:0:0:0:
191,29,60048,2,0,P|249:53|349:83,1,143.999995605469,10|2,0:0|3:2,0:0:0:0:
382,141,60780,1,2,0:0:0:0:
382,141,61023,1,10,0:0:0:0:
276,260,61511,6,0,L|192:234,1,71.9999978027344,2|0,3:2|0:0,0:0:0:0:
165,307,61999,1,10,0:0:0:0:
165,307,62243,1,2,0:0:0:0:
205,375,62487,2,0,L|355:345,1,143.999995605469,2|10,3:2|0:0,0:0:0:0:
434,194,63463,6,0,L|526:218,2,80,2|2|10,3:2|0:0|0:0,0:0:0:0:
372,130,64195,1,2,0:0:0:0:
319,200,64439,2,0,B|265:220|232:177|241:169|215:134|161:146,1,160,2|10,3:2|0:0,0:0:0:0:
107,194,65171,1,2,0:0:0:0:
107,194,65414,1,2,3:2:0:0:
193,347,65902,2,0,P|238:358|277:325,1,80,10|2,0:0|0:0,0:0:0:0:
325,277,66389,2,0,L|303:181,1,80,2|2,3:2|0:0,0:0:0:0:
368,135,66877,1,10,0:0:0:0:
247,6,67365,6,0,L|76:53,1,160,2|10,3:2|0:0,0:0:0:0:
32,113,68097,1,0,0:0:0:0:
111,150,68341,2,0,L|208:125,2,80,2|0|10,3:2|0:0|0:0,0:0:0:0:
27,305,69316,2,0,L|126:324,1,80,2|0,3:2|0:0,0:0:0:0:
169,382,69804,1,10,0:0:0:0:
169,382,70048,1,0,0:0:0:0:
239,328,70292,2,0,B|261:290|225:246|213:255|187:222|206:162,1,160,2|10,3:2|0:0,0:0:0:0:
264,119,71023,1,2,0:0:0:0:
339,161,71267,6,0,L|327:319,1,143.999995605469,6|2,3:2|3:2,0:0:0:0:
474,367,72243,2,0,P|494:325|477:284,1,71.9999978027344,2|0,3:2|0:0,0:0:0:0:
439,239,72732,1,2,3:2:0:0:
322,346,73219,2,0,L|181:315,1,143.999995605469,2|2,3:2|3:2,0:0:0:0:
66,206,74194,2,0,L|149:188,1,71.9999978027344,2|0,3:2|0:0,0:0:0:0:
202,143,74683,1,2,3:2:0:0:
202,143,74927,1,2,0:0:0:0:
243,210,75170,6,0,P|301:247|383:218,1,143.999995605469,2|2,3:2|3:2,0:0:0:0:
444,200,75902,1,0,0:0:0:0:
444,200,76145,2,0,L|417:49,1,143.999995605469,2|2,3:2|3:2,0:0:0:0:
264,18,77121,2,0,B|189:50|180:165|260:226|269:210|278:192|360:252|363:350|292:392,1,431.999986816407,2|2,3:2|3:2,0:0:0:0:
133,349,79072,6,0,P|87:296|127:197,1,160,2|10,3:2|0:0,0:0:0:0:
177,162,79805,1,0,0:0:0:0:
177,162,80049,2,0,P|196:121|181:75,2,80,2|0|10,3:2|0:0|0:0,0:0:0:0:
277,305,81023,2,0,P|323:328|394:243,1,160,2|10,3:2|0:0,0:0:0:0:
362,182,81756,1,0,0:0:0:0:
362,182,81999,2,0,P|341:135|371:90,1,80,2|0,3:2|0:0,0:0:0:0:
416,51,82488,1,10,0:0:0:0:
416,51,82732,1,2,0:0:0:0:
481,109,82975,6,0,L|441:276,1,160,2|10,3:2|0:0,0:0:0:0:
388,333,83707,1,0,0:0:0:0:
319,277,83950,2,0,B|270:263|231:299|243:313|208:347|163:325,1,160,2|10,3:2|0:0,0:0:0:0:
32,229,84926,2,0,P|17:194|34:149,1,80,10|10,0:0|0:0,0:0:0:0:
75,80,85414,2,0,P|119:57|160:80,1,80,10|8,0:0|0:0,0:0:0:0:
216,117,85902,2,0,L|313:100,2,80,10|8|10,0:0|0:0|0:0,0:0:0:0:
104,275,86877,6,0,L|290:320,1,176.000005371094,6|8,3:2|0:0,0:0:0:0:
354,373,87610,1,0,0:0:0:0:
431,315,87853,2,0,P|438:269|402:226,1,88.000002685547,0|0,3:2|0:0,0:0:0:0:
329,192,88341,2,0,P|322:146|358:103,1,88.000002685547,10|2,0:0|0:0,0:0:0:0:
431,72,88829,1,2,3:2:0:0:
500,139,89073,1,2,0:0:0:0:
438,213,89317,2,0,L|428:365,2,132.00000402832,10|2|0,0:0|0:0|0:0,0:0:0:0:
362,151,90293,1,10,0:0:0:0:
233,297,90780,6,0,L|55:250,1,176.000005371094,2|10,3:2|0:0,0:0:0:0:
3,174,91512,1,0,0:0:0:0:
53,92,91755,2,0,P|95:73|140:103,1,88.000002685547,0|2,3:2|0:0,0:0:0:0:
198,159,92243,2,0,L|295:136,1,88.000002685547,10|2,0:0|0:0,0:0:0:0:
366,190,92732,1,2,3:2:0:0:
299,259,92975,1,2,0:0:0:0:
378,314,93219,2,0,L|520:290,2,132.00000402832,10|2|2,0:0|0:0|0:0,0:0:0:0:
309,382,94194,2,0,L|217:364,1,88.000002685547,10|10,0:0|0:0,0:0:0:0:
152,297,94682,6,0,P|128:251|231:180,1,176.000005371094,6|10,3:2|0:0,0:0:0:0:
280,231,95415,1,0,0:0:0:0:
363,182,95658,2,0,P|370:139|346:104,1,88.0000026855469,0|0,3:2|0:0,0:0:0:0:
286,28,96145,2,0,L|189:51,1,88.000002685547,10|2,3:2|0:0,0:0:0:0:
125,111,96634,1,2,3:2:0:0:
202,172,96878,1,2,0:0:0:0:
130,236,97121,2,0,L|-8:218,2,132.00000402832,10|2|2,3:2|0:0|0:0,0:0:0:0:
193,309,98098,1,10,3:2:0:0:
374,243,98584,6,0,L|357:145,1,88.000002685547,2|2,3:2|0:0,0:0:0:0:
437,98,99072,2,0,P|498:135|494:234,1,176.000005371094,10|2,3:2|3:2,0:0:0:0:
443,312,99804,1,2,0:0:0:0:
374,243,100049,2,0,P|324:227|288:246,1,88.000002685547,10|10,3:2|3:3,0:0:0:0:
248,327,100537,1,2,3:2:0:0:
168,272,100780,1,10,3:3:0:0:
220,191,101023,2,0,L|234:96,1,88.000002685547,10|8,3:2|3:3,0:0:0:0:
149,53,101511,2,0,L|135:148,1,88.000002685547,2|2,3:2|3:3,0:0:0:0:
78,218,102000,1,10,3:2:0:0:
207,361,102487,5,6,3:2:0:0:
66,64,110292,6,0,P|127:63|160:152,1,143.999995605469,2|10,3:2|0:0,0:0:0:0:
129,200,111023,1,2,0:0:0:0:
129,200,111267,2,0,P|141:237|151:270,1,71.9999978027344,2|2,3:2|0:0,0:0:0:0:
131,345,111755,1,10,0:0:0:0:
282,299,112243,2,0,P|296:228|319:152,1,143.999995605469,2|10,3:2|0:0,0:0:0:0:
267,96,112975,1,2,0:0:0:0:
267,96,113219,2,0,P|227:106|184:139,2,71.9999978027344,2|0|10,3:2|0:0|0:0,0:0:0:0:
306,27,113950,1,0,0:0:0:0:
382,46,114194,6,0,P|436:90|415:178,1,143.999995605469,2|10,3:2|0:0,0:0:0:0:
391,229,114926,1,0,0:0:0:0:
391,229,115170,2,0,P|346:245|239:290,1,143.999995605469,2|10,3:2|0:0,0:0:0:0:
167,150,116145,2,0,P|128:131|46:198,1,143.999995605469,2|10,3:2|0:0,0:0:0:0:
23,256,116877,1,0,0:0:0:0:
23,256,117121,1,2,3:2:0:0:
130,372,117609,1,10,0:0:0:0:
276,274,118097,6,0,P|287:236|267:193,1,80,2|2,3:2|0:0,0:0:0:0:
217,130,118584,2,0,L|48:181,1,160,10|2,0:0|3:2,0:0:0:0:
3,240,119316,1,0,0:0:0:0:
69,297,119560,1,10,0:0:0:0:
229,369,120048,6,0,L|324:346,1,80,2|2,3:2|0:0,0:0:0:0:
367,285,120536,2,0,P|327:262|273:273,1,80,10|2,0:0|0:0,0:0:0:0:
220,215,121023,2,0,P|188:174|224:70,1,160,2|10,3:2|0:0,0:0:0:0:
283,22,121755,1,2,0:0:0:0:
343,86,121999,6,0,P|389:93|432:104,1,80,2|2,3:2|0:0,0:0:0:0:
461,179,122487,2,0,P|353:210|283:238,1,160,10|0,0:0|3:2,0:0:0:0:
251,294,123219,1,2,0:0:0:0:
179,242,123463,1,10,0:0:0:0:
255,83,123950,2,0,P|292:43|407:70,1,160,2|10,3:2|0:0,0:0:0:0:
446,119,124682,1,0,0:0:0:0:
384,181,124926,1,2,3:2:0:0:
247,292,125414,2,0,P|192:274|160:267,1,80,10|2,3:2|0:0,0:0:0:0:
110,205,125902,5,6,3:2:0:0:
145,170,131755,6,0,L|128:77,2,71.9999978027344,10|10|10,0:0|0:0|0:0,0:0:0:0:
87,224,132487,1,10,0:0:0:0:
145,277,132731,2,0,B|188:287|219:249|210:237|243:206|301:234,1,143.999995605469,10|10,0:0|0:0,0:0:0:0:
416,324,133706,6,0,L|385:143,1,160,6|10,3:2|0:0,0:0:0:0:
322,107,134438,1,0,0:0:0:0:
322,107,134682,2,0,P|306:65|326:13,2,80,2|0|10,3:2|0:0|0:0,0:0:0:0:
178,209,135658,2,0,P|128:208|101:93,1,160,2|10,3:2|0:0,0:0:0:0:
145,52,136389,1,0,0:0:0:0:
216,103,136633,2,0,P|268:87|313:78,2,80,2|0|10,3:2|0:0|0:0,0:0:0:0:
165,175,137365,1,2,0:0:0:0:
225,238,137609,6,0,B|282:252|308:216|296:202|334:173|385:186,1,160,2|10,3:2|0:0,0:0:0:0:
452,153,138341,1,2,0:0:0:0:
452,153,138584,2,0,P|438:246|430:311,1,160,2|8,3:2|0:0,0:0:0:0:
263,370,139560,6,0,P|220:307|255:228,1,160,2|10,3:2|0:0,0:0:0:0:
317,180,140292,1,2,0:0:0:0:
250,122,140536,1,2,3:2:0:0:
322,71,140780,2,0,L|432:99,2,80,8|10|8,0:0|3:2|0:0,0:0:0:0:
258,10,141511,6,0,P|171:9|129:89,1,160,6|10,3:2|0:0,0:0:0:0:
96,145,142243,1,0,0:0:0:0:
96,145,142487,2,0,P|41:162|-13:179,2,80,2|0|10,3:2|0:0|0:0,0:0:0:0:
212,277,143463,2,0,L|380:306,1,160,2|10,3:2|0:0,0:0:0:0:
434,244,144194,1,0,0:0:0:0:
500,301,144438,2,0,L|492:399,2,80,2|0|10,3:2|0:0|0:0,0:0:0:0:
434,244,145170,1,2,0:0:0:0:
496,182,145414,6,0,P|499:118|401:74,1,160,2|10,3:2|0:0,0:0:0:0:
371,140,146146,1,2,0:0:0:0:
371,140,146389,2,0,L|203:99,1,160,2|8,3:2|0:0,0:0:0:0:
66,197,147365,2,0,P|86:245|192:224,1,160,2|10,3:2|0:0,0:0:0:0:
247,182,148097,1,2,0:0:0:0:
313,239,148341,2,0,P|323:283|332:325,1,80,2|0,3:2|0:0,0:0:0:0:
417,327,148828,2,0,P|425:287|434:248,1,80,8|4,0:0|3:3,0:0:0:0:
500,178,149316,6,0,P|466:124|358:125,1,176.000005371094,6|10,3:2|0:0,0:0:0:0:
297,195,150049,1,2,0:0:0:0:
229,125,150292,1,0,3:2:0:0:
156,189,150536,2,0,L|59:178,2,88.000002685547,2|10|2,0:0|0:0|0:0,0:0:0:0:
223,258,151268,1,2,3:2:0:0:
156,327,151511,1,2,0:0:0:0:
77,270,151755,2,0,L|56:110,2,132.00000402832,10|2|2,0:0|0:0|0:0,0:0:0:0:
24,351,152731,1,10,0:0:0:0:
204,280,153219,6,0,P|288:303|382:350,1,176.000005371094,2|10,3:2|0:0,0:0:0:0:
443,279,153951,1,0,0:0:0:0:
363,224,154194,1,0,3:2:0:0:
423,148,154438,2,0,P|476:121|515:136,2,88.000002685547,2|10|2,0:0|0:0|0:0,0:0:0:0:
352,80,155171,1,2,3:2:0:0:
294,157,155414,1,2,0:0:0:0:
202,125,155658,2,0,P|184:58|161:-14,2,132.00000402832,10|2|8,0:0|0:0|0:0,0:0:0:0:
125,183,156633,2,0,P|102:239|119:274,1,88.000002685547,10|8,3:2|0:0,0:0:0:0:
157,347,157121,6,0,P|215:314|335:271,1,176.000005371094,6|10,3:2|0:0,0:0:0:0:
401,325,157854,1,0,0:0:0:0:
482,273,158097,2,0,P|504:217|480:176,1,88.000002685547,0|2,3:2|0:0,0:0:0:0:
433,119,158584,2,0,L|343:134,1,88.000002685547,10|2,0:0|0:0,0:0:0:0:
273,197,159072,1,2,3:2:0:0:
199,132,159317,1,2,0:0:0:0:
138,207,159560,2,0,P|115:287|108:375,2,132.00000402832,10|2|2,0:0|0:0|0:0,0:0:0:0:
66,140,160537,1,10,0:0:0:0:
210,11,161023,6,0,P|256:24|305:37,1,88.000002685547,2|2,3:2|0:0,0:0:0:0:
365,101,161511,2,0,P|273:130|185:166,1,176.000005371094,10|2,0:0|3:2,0:0:0:0:
152,244,162243,1,2,0:0:0:0:
205,324,162487,2,0,P|264:342|291:319,1,88.000002685547,10|2,0:0|0:0,0:0:0:0:
344,255,162976,1,2,3:2:0:0:
402,331,163219,1,2,0:0:0:0:
479,273,163462,2,0,L|493:178,1,88.000002685547,10|2,0:0|0:0,0:0:0:0:
403,145,163950,2,0,L|389:50,1,88.000002685547,2|2,3:2|0:0,0:0:0:0:
476,12,164439,1,10,0:0:0:0:
292,73,164926,5,2,3:2:0:0:
256,192,165170,12,0,168828,0:0:0:0:
