osu file format v14

[General]
AudioFilename: audio.mp3
AudioLeadIn: 0
PreviewTime: 33139
Countdown: 0
SampleSet: Soft
StackLeniency: 0.7
Mode: 0
LetterboxInBreaks: 0
WidescreenStoryboard: 1

[Editor]
Bookmarks: 8401,25245,33666,50508,58929,75771,84192,92613,109455,117876,134718,151560,168403,175771
DistanceSpacing: 1.7
BeatDivisor: 4
GridSize: 32
TimelineZoom: 1.5

[Metadata]
Title:Grib
TitleUnicode:Гриб
Artist:PALC
ArtistUnicode:PALC
Creator:nemidnight
Version:Hard
Source:
Tags:russian pop mushroom русский поп пальц вижу
BeatmapID:3799358
BeatmapSetID:1849063

[Difficulty]
HPDrainRate:4.2
CircleSize:4
OverallDifficulty:7
ApproachRate:8
SliderMultiplier:1.3
SliderTickRate:1

[Events]
//Background and Video events
0,0,"6751235.jpg",0,0
//Break Periods
2,118088,133980
//Storyboard Layer 0 (Background)
//Storyboard Layer 1 (Fail)
//Storyboard Layer 2 (Pass)
//Storyboard Layer 3 (Foreground)
//Storyboard Layer 4 (Overlay)
//Storyboard Sound Samples

[TimingPoints]
-6,263.157894736842,4,2,1,90,1,0
8413,-125,4,2,2,75,0,0
25257,-166.666666666667,4,2,2,60,0,0
33151,-200,4,2,2,90,0,0
33678,-90.9090909090909,4,2,1,90,0,1
50520,-111.111111111111,4,2,2,83,0,0
57888,-111.111111111111,4,2,2,83,0,0
58941,-125,4,2,2,75,0,0
68678,-200,4,2,2,75,0,0
71178,-144.927536231884,4,2,2,75,0,0
71572,-125,4,2,1,79,0,0
75783,-166.666666666666,4,2,2,68,0,0
78875,-166.666666666666,4,2,2,68,0,0
79072,-166.666666666666,4,2,2,68,0,0
79138,-166.666666666666,4,2,2,68,0,0
79204,-166.666666666666,4,2,2,68,0,0
83086,-166.666666666666,4,2,2,68,0,0
83151,-166.666666666666,4,2,2,68,0,0
92099,-200,4,2,2,90,0,0
92625,-90.9090909090909,4,2,1,90,0,1
109467,-111.111111111111,4,2,2,83,0,0
134730,-166.666666666667,4,2,2,68,0,0
143678,-166.666666666667,4,2,1,68,0,0
149467,-166.666666666667,4,2,1,68,0,0
150388,-166.666666666667,4,2,1,50,0,0
150520,-166.666666666667,4,2,1,55,0,0
150651,-166.666666666667,4,2,1,60,0,0
150783,-166.666666666667,4,2,1,65,0,0
150915,-166.666666666667,4,2,1,70,0,0
151046,-166.666666666667,4,2,1,75,0,0
151178,-166.666666666667,4,2,1,80,0,0
151309,-166.666666666667,4,2,1,85,0,0
151572,-90.9090909090909,4,2,1,90,0,1
168415,-111.111111111111,4,2,2,83,0,0
175783,-100,4,2,1,83,0,0

[Colours]
Combo1 : 128,64,0
Combo2 : 0,128,64

[HitObjects]
512,129,8415,6,0,P|432:150|381:85,1,156,6|10,3:2|0:1,0:0:0:0:
329,49,8941,2,0,P|339:15|345:-3,2,52,10|10|10,0:0|0:1|0:1,0:0:0:0:
259,81,9336,1,10,0:1:0:0:
259,81,9467,1,0,0:0:0:0:
207,183,9730,2,0,P|250:198|261:257,1,104,2|10,3:2|0:0,0:0:0:0:
336,282,10125,2,0,P|293:297|282:356,1,104,2|0,3:2|0:0,0:0:0:0:
210,376,10520,6,0,P|157:367|94:356,1,104,2|10,3:2|0:1,0:0:0:0:
61,264,11046,1,10,0:0:0:0:
61,264,11178,1,10,0:1:0:0:
61,264,11309,2,0,P|68:234|76:204,1,52,10|10,0:1|0:1,0:0:0:0:
160,196,11572,2,0,P|164:160|92:136,1,104,0|10,0:0|0:1,0:0:0:0:
0,78,12099,1,10,0:0:0:0:
0,78,12230,2,0,P|38:68|116:50,1,104,2|0,3:2|0:0,0:0:0:0:
159,8,12625,5,2,3:2:0:0:
212,108,12888,1,10,0:1:0:0:
285,12,13151,2,0,P|282:38|277:65,1,52,10|10,0:0|0:1,0:0:0:0:
344,109,13415,2,0,B|428:112|387:150|499:162,1,156,10|10,0:1|0:1,0:0:0:0:
512,234,13941,1,2,3:2:0:0:
459,333,14204,1,10,0:0:0:0:
459,333,14336,2,0,P|417:338|369:278,1,104,2|0,3:2|0:0,0:0:0:0:
358,222,14730,6,0,P|367:191|376:164,2,52,2|0|10,3:2|0:0|0:1,0:0:0:0:
286,341,15257,1,10,0:0:0:0:
286,341,15388,1,10,0:1:0:0:
286,341,15520,2,0,P|292:306|303:272,1,52,10|10,0:1|0:1,0:0:0:0:
243,239,15783,2,0,P|240:203|217:122,1,104,0|10,0:0|0:1,0:0:0:0:
300,97,16178,2,0,P|302:69|311:31,1,52,2|8,0:0|0:0,0:0:0:0:
248,1,16441,1,2,3:2:0:0:
248,1,16572,1,10,0:1:0:0:
131,0,16836,6,0,P|74:5|28:98,1,156,2|10,3:2|0:1,0:0:0:0:
92,131,17362,2,0,P|111:128|144:116,2,52,10|10|10,0:0|0:1|0:1,0:0:0:0:
0,209,17888,1,0,0:0:0:0:
99,256,18151,2,0,P|90:293|70:373,1,104,2|10,3:2|0:0,0:0:0:0:
163,375,18546,2,0,P|174:326|190:264,1,104,2|0,3:2|0:0,0:0:0:0:
169,203,18941,6,0,P|194:237|262:238,1,104,2|10,3:2|0:1,0:0:0:0:
357,180,19467,1,10,0:0:0:0:
357,180,19599,1,10,0:1:0:0:
357,180,19730,2,0,P|361:211|365:248,1,52,10|10,0:1|0:1,0:0:0:0:
325,298,19993,1,0,0:0:0:0:
408,364,20257,1,10,0:1:0:0:
485,290,20520,1,10,0:0:0:0:
485,290,20651,2,0,P|478:248|464:181,1,104,2|0,3:2|0:0,0:0:0:0:
486,118,21046,6,0,P|448:161|402:164,1,104,2|10,3:2|0:1,0:0:0:0:
291,76,21572,2,0,P|297:47|301:20,2,52,10|10|10,0:0|0:1|0:1,0:0:0:0:
234,189,22099,1,0,0:0:0:0:
138,114,22362,2,0,P|156:58|170:10,1,104,2|10,3:2|0:0,0:0:0:0:
256,2,22757,2,0,P|294:1|345:58,1,104,2|0,3:2|0:0,0:0:0:0:
325,116,23151,5,2,3:2:0:0:
430,100,23415,1,10,0:1:0:0:
310,199,23678,1,10,0:0:0:0:
427,239,23941,1,10,0:1:0:0:
291,324,24204,2,0,P|251:312|230:306,1,52,0|10,0:0|0:1,0:0:0:0:
183,260,24467,2,0,P|142:268|73:282,1,104,2|10,3:2|0:0,0:0:0:0:
11,249,24862,1,0,3:2:0:0:
11,249,24993,1,10,0:1:0:0:
93,167,25257,5,6,3:2:0:0:
256,192,25388,12,0,32625,0:0:0:0:
88,150,33151,6,0,P|80:112|74:80,1,65,2|2,0:0|0:0,0:0:0:0:
29,18,33678,6,0,P|86:27|185:46,1,143.000004364014,6|10,3:2|0:1,0:0:0:0:
235,124,34072,1,10,0:1:0:0:
235,124,34204,2,0,P|268:118|332:107,1,71.5000021820069,10|10,0:0|0:1,0:0:0:0:
378,42,34467,1,10,0:1:0:0:
378,42,34599,2,0,P|406:71|379:169,1,143.000004364014,10|8,0:1|0:1,0:0:0:0:
303,196,34993,5,0,3:2:0:0:
144,119,35257,2,0,P|136:154|127:189,1,71.5000021820069,10|8,0:0|0:1,0:0:0:0:
193,263,35520,2,0,P|185:298|176:333,1,71.5000021820069,2|0,0:0|0:0,0:0:0:0:
277,379,35783,6,0,P|337:370|436:357,1,143.000004364014,2|10,3:2|0:1,0:0:0:0:
461,280,36178,1,10,0:1:0:0:
461,280,36309,2,0,P|421:271|385:262,1,71.5000021820069,10|10,0:0|0:1,0:0:0:0:
304,207,36572,1,10,0:1:0:0:
304,207,36704,2,0,P|340:203|449:180,1,143.000004364014,10|8,0:1|0:1,0:0:0:0:
512,220,37099,1,0,3:2:0:0:
512,55,37362,5,10,0:0:0:0:
512,55,37493,2,0,B|433:36|460:89|363:69,1,143.000004364014,0|0,3:2|0:0,0:0:0:0:
296,7,37888,6,0,P|265:3|221:-1,1,71.5000021820069,2|2,3:2|0:0,0:0:0:0:
173,85,38151,2,0,P|129:82|95:79,1,71.5000021820069,10|10,0:1|0:1,0:0:0:0:
22,14,38415,1,10,0:0:0:0:
22,14,38546,2,0,P|12:44|-1:86,1,71.5000021820069,10|10,0:1|0:1,0:0:0:0:
70,153,38809,2,0,P|59:199|34:293,1,143.000004364014,10|8,0:1|0:1,0:0:0:0:
0,376,39204,6,0,P|25:329|124:337,1,143.000004364014,0|10,3:2|0:0,0:0:0:0:
201,273,39599,2,0,P|154:298|162:397,1,143.000004364014,8|0,0:1|0:0,0:0:0:0:
244,384,39993,6,0,P|279:377|319:369,1,71.5000021820069,2|2,3:2|0:0,0:0:0:0:
360,280,40257,2,0,P|395:287|437:300,1,71.5000021820069,10|10,0:1|0:1,0:0:0:0:
512,258,40520,2,0,P|503:302|497:336,2,71.5000021820069,10|10|10,0:0|0:1|0:1,0:0:0:0:
428,202,40915,2,0,P|437:166|461:58,1,143.000004364014,10|8,0:1|0:0,0:0:0:0:
512,9,41309,1,0,3:2:0:0:
363,0,41572,1,10,0:0:0:0:
363,0,41704,1,0,3:2:0:0:
363,0,41836,2,0,P|328:8|282:21,1,71.5000021820069,2|8,3:2|0:0,0:0:0:0:
233,97,42099,6,0,P|192:85|86:69,1,143.000004364014,6|10,3:2|0:1,0:0:0:0:
4,36,42493,1,10,0:1:0:0:
4,36,42625,2,0,P|11:61|21:106,1,71.5000021820069,10|10,0:0|0:1,0:0:0:0:
81,191,42888,1,10,0:1:0:0:
81,191,43020,2,0,P|119:134|200:152,1,143.000004364014,10|8,0:1|0:1,0:0:0:0:
258,182,43415,5,0,3:2:0:0:
271,329,43678,2,0,P|246:324|196:316,1,71.5000021820069,10|8,0:0|0:1,0:0:0:0:
118,373,43941,2,0,P|93:368|36:355,1,71.5000021820069,2|0,0:0|0:0,0:0:0:0:
0,273,44204,6,0,P|8:235|31:126,1,143.000004364014,2|10,3:2|0:1,0:0:0:0:
129,108,44599,1,10,0:1:0:0:
129,108,44730,2,0,P|122:72|115:35,1,71.5000021820069,10|10,0:0|0:1,0:0:0:0:
211,0,44993,1,10,0:1:0:0:
211,0,45125,2,0,P|239:43|341:32,1,143.000004364014,10|8,0:1|0:1,0:0:0:0:
384,0,45520,1,0,3:2:0:0:
474,124,45783,5,10,0:0:0:0:
474,124,45915,2,0,P|423:135|329:155,1,143.000004364014,0|0,3:2|0:0,0:0:0:0:
248,205,46309,6,0,P|263:243|275:285,1,71.5000021820069,2|2,3:2|0:0,0:0:0:0:
355,327,46572,2,0,P|365:292|378:259,1,71.5000021820069,10|10,0:1|0:1,0:0:0:0:
463,203,46836,1,10,0:0:0:0:
463,203,46967,2,0,P|473:237|486:270,1,71.5000021820069,10|10,0:1|0:1,0:0:0:0:
420,346,47230,2,0,P|382:351|275:378,1,143.000004364014,10|8,0:1|0:1,0:0:0:0:
189,375,47625,6,0,P|203:321|133:284,1,143.000004364014,0|10,3:2|0:0,0:0:0:0:
83,231,48020,2,0,P|107:272|38:342,1,143.000004364014,8|0,0:1|0:0,0:0:0:0:
19,278,48415,6,0,P|11:248|-2:203,1,71.5000021820069,2|2,3:2|0:0,0:0:0:0:
81,160,48678,2,0,P|89:130|105:81,1,71.5000021820069,10|10,0:1|0:1,0:0:0:0:
74,13,48941,2,0,P|46:7|-3:-1,2,71.5000021820069,10|10|10,0:0|0:1|0:1,0:0:0:0:
173,1,49336,2,0,P|205:7|318:30,1,143.000004364014,10|8,0:1|0:0,0:0:0:0:
347,101,49730,1,0,3:2:0:0:
510,94,49993,1,10,0:0:0:0:
510,94,50125,1,0,3:2:0:0:
510,94,50257,2,0,P|501:57|488:18,1,71.5000021820069,2|8,3:2|0:0,0:0:0:0:
399,0,50520,6,0,P|367:56|252:43,1,175.499994644165,6|10,3:2|0:1,0:0:0:0:
188,56,51046,2,0,P|197:25|205:-1,2,58.4999982147217,10|0|8,0:0|0:0|0:1,0:0:0:0:
126,98,51441,2,0,P|111:143|90:217,1,116.999996429443,10|10,0:1|0:1,0:0:0:0:
158,253,51836,1,0,3:2:0:0:
66,332,52099,2,0,B|168:312|115:386|240:359,1,175.499994644165,8|0,0:0|0:0,0:0:0:0:
258,289,52625,5,2,3:2:0:0:
258,289,52757,2,0,P|320:278|347:326,1,116.999996429443,2|8,0:0|0:1,0:0:0:0:
387,377,53151,2,0,P|412:374|505:359,1,116.999996429443,10|8,0:0|0:1,0:0:0:0:
512,280,53546,1,10,0:1:0:0:
512,280,53678,2,0,P|504:239|454:172,1,116.999996429443,0|0,0:0|3:2,0:0:0:0:
369,98,54204,1,8,0:0:0:0:
369,98,54336,1,0,3:2:0:0:
369,98,54467,2,0,P|342:105|309:112,1,58.4999982147217
269,179,54730,6,0,P|238:212|168:199,1,116.999996429443,2|10,3:2|0:1,0:0:0:0:
149,78,55257,2,0,P|159:54|173:17,2,58.4999982147217,10|0|8,0:0|0:0|0:1,0:0:0:0:
80,115,55651,2,0,P|54:133|62:221,1,116.999996429443,10|10,0:1|0:1,0:0:0:0:
121,242,56046,1,0,3:2:0:0:
199,328,56309,6,0,P|257:322|373:298,1,175.499994644165,8|0,0:0|0:0,0:0:0:0:
437,262,56836,6,0,P|427:229|415:198,1,58.4999982147217,2|10,3:2|0:0,0:0:0:0:
441,134,57099,2,0,P|431:101|416:67,1,58.4999982147217
362,27,57362,2,0,P|332:67|262:61,1,116.999996429443,10|0,0:0|0:0,0:0:0:0:
222,6,57757,5,0,3:2:0:0:
17,371,58941,6,0,P|80:358|175:350,1,156,2|10,3:2|0:1,0:0:0:0:
226,290,59467,2,0,P|258:294|293:303,1,52,10|10,0:0|0:1,0:0:0:0:
328,359,59730,1,10,0:1:0:0:
328,359,59862,2,0,P|370:351|437:346,1,104,2|10,3:2|0:1,0:0:0:0:
486,295,60257,1,2,3:2:0:0:
390,218,60520,2,0,P|398:176|425:110,1,104,8|0,0:0|0:0,0:0:0:0:
461,57,60915,1,0,0:0:0:0:
461,57,61046,6,0,P|497:51|514:48,2,52,2|0|10,0:0|0:0|0:1,0:0:0:0:
335,10,61572,2,0,P|317:45|307:112,1,104,10|10,0:0|0:1,0:0:0:0:
264,170,61967,1,10,0:1:0:0:
264,170,62099,1,0,0:0:0:0:
171,272,62362,1,2,3:2:0:0:
73,185,62625,2,0,P|81:146|96:71,1,104,10|0,0:0|0:0,0:0:0:0:
125,18,63020,5,0,0:0:0:0:
125,18,63151,2,0,P|155:24|186:33,1,52,2|0,3:2|0:0,0:0:0:0:
217,95,63415,2,0,P|247:89|278:80,1,52,10|10,0:1|0:1,0:0:0:0:
326,32,63678,2,0,P|364:41|434:55,1,104,10|10,0:0|0:1,0:0:0:0:
493,23,64072,1,2,3:2:0:0:
512,139,64336,1,10,0:1:0:0:
512,139,64467,1,2,3:2:0:0:
443,247,64730,2,0,P|459:296|475:366,1,104,8|0,0:0|0:0,0:0:0:0:
354,370,65257,6,0,P|305:378|267:287,1,156,2|10,0:0|0:1,0:0:0:0:
228,188,65783,2,0,P|234:161|245:120,2,52,10|10|10,0:0|0:1|0:1,0:0:0:0:
180,244,66178,1,10,0:1:0:0:
180,244,66309,2,0,P|170:278|161:309,1,52,0|10,0:0|0:1,0:0:0:0:
83,293,66572,2,0,P|90:268|97:243,1,52,2|0,3:2|0:0,0:0:0:0:
66,175,66836,1,10,0:0:0:0:
66,175,66967,2,0,P|77:139|106:18,1,156,2|2,3:2|3:2,0:0:0:0:
155,0,68678,6,0,P|93:5|56:8,2,97.5,2|2|2,0:0|0:0|0:0,0:0:0:0:
155,0,70783,6,0,P|184:3|188:3,1,32.5,2|0,0:0|0:0,0:0:0:0:
325,43,71178,2,0,P|352:47|421:60,1,89.7000001368713,2|0,0:0|0:0,0:0:0:0:
480,32,71572,6,0,P|426:66|437:155,1,156,2|10,3:2|0:1,0:0:0:0:
504,171,72099,2,0,P|519:197|518:225,1,52,10|10,0:0|0:1,0:0:0:0:
480,287,72362,1,10,0:1:0:0:
480,287,72493,2,0,P|453:292|376:314,1,104,2|10,3:2|0:1,0:0:0:0:
317,361,72888,2,0,P|308:329|295:302,1,52,2|0,3:2|0:0,0:0:0:0:
293,238,73151,2,0,P|257:241|183:258,1,104,8|0,0:0|0:0,0:0:0:0:
138,191,73546,1,0,0:0:0:0:
138,191,73678,6,0,P|148:158|160:125,1,52,2|0,0:0|0:0,0:0:0:0:
229,128,73941,2,0,P|239:95|247:65,1,52,10|10,0:1|0:1,0:0:0:0:
312,32,74204,2,0,P|334:38|369:49,2,52,10|10|10,0:0|0:1|0:1,0:0:0:0:
228,2,74599,1,10,0:1:0:0:
228,2,74730,6,0,P|189:2|117:19,1,104,0|2,0:0|3:2,0:0:0:0:
69,70,75125,1,0,0:0:0:0:
69,70,75257,2,0,P|110:95|128:162,1,104,10|0,0:0|0:0,0:0:0:0:
39,226,75783,6,0,P|94:227|144:266,1,116.999996429443,6|10,3:2|0:1,0:0:0:0:
206,300,76309,2,0,P|215:261|228:220,1,77.999997619629,10|10,0:0|0:1,0:0:0:0:
279,167,76704,2,0,P|234:150|163:137,1,116.999996429443,2|2,3:2|3:2,0:0:0:0:
256,29,77362,2,0,P|292:22|342:16,1,77.999997619629,10|10,0:0|0:1,0:0:0:0:
454,79,77888,6,0,P|469:151|473:200,1,116.999996429443,2|10,0:0|0:1,0:0:0:0:
412,250,78415,2,0,P|450:263|468:304,1,77.999997619629,10|10,0:0|0:1,0:0:0:0:
407,351,78809,2,0,P|366:360|328:372,1,77.999997619629,10|10,0:1|0:1,0:0:0:0:
257,363,79204,1,2,3:2:0:0:
217,243,79467,1,10,0:0:0:0:
217,243,79599,2,0,P|175:256|157:293,1,77.999997619629,0|0,3:2|0:0,0:0:0:0:
129,355,79993,6,0,P|141:317|86:270,1,116.999996429443,2|10,3:2|0:1,0:0:0:0:
5,285,80520,2,0,P|13:249|28:209,1,77.999997619629,10|10,0:0|0:1,0:0:0:0:
96,179,80915,2,0,P|94:130|45:78,1,116.999996429443,2|2,3:2|3:2,0:0:0:0:
161,0,81572,2,0,P|194:28|208:64,1,77.999997619629,10|0,0:0|0:0,0:0:0:0:
315,128,82099,6,0,P|334:63|378:26,1,116.999996429443,2|10,0:0|0:1,0:0:0:0:
445,5,82625,2,0,P|472:17|484:68,1,77.999997619629,10|10,0:0|0:1,0:0:0:0:
427,112,83020,1,10,0:1:0:0:
427,112,83151,2,0,P|440:141|444:191,1,77.999997619629,2|0,0:0|0:0,0:0:0:0:
495,253,83546,2,0,P|481:287|466:335,1,77.999997619629,2|0,0:0|0:0,0:0:0:0:
408,371,83941,1,0,0:0:0:0:
318,267,84204,5,2,3:2:0:0:
256,192,84336,12,0,87362,0:0:0:0:
256,192,88415,12,0,91572,0:0:0:0:
456,240,92099,6,0,P|466:276|474:309,1,65,2|2,0:0|0:0,0:0:0:0:
512,369,92625,6,0,P|483:364|363:339,1,143.000004364014,6|10,3:2|0:1,0:0:0:0:
341,250,93020,1,10,0:1:0:0:
341,250,93151,2,0,P|311:243|265:237,1,71.5000021820069,10|10,0:0|0:1,0:0:0:0:
226,330,93415,1,10,0:1:0:0:
226,330,93546,2,0,P|197:335|82:359,1,143.000004364014,10|8,0:1|0:1,0:0:0:0:
6,380,93941,1,0,3:2:0:0:
139,268,94204,6,0,P|131:237|114:190,1,71.5000021820069,10|8,0:0|0:1,0:0:0:0:
21,171,94467,2,0,P|29:140|46:98,1,71.5000021820069,2|0,0:0|0:0,0:0:0:0:
9,8,94730,6,0,P|42:52|136:44,1,143.000004364014,2|10,3:2|0:1,0:0:0:0:
215,6,95125,1,10,0:1:0:0:
215,6,95257,2,0,P|252:12|289:20,1,71.5000021820069,10|10,0:0|0:1,0:0:0:0:
366,87,95520,1,10,0:1:0:0:
366,87,95651,2,0,P|312:99|225:121,1,143.000004364014,10|8,0:1|0:1,0:0:0:0:
165,171,96046,1,0,3:2:0:0:
275,282,96309,5,10,0:0:0:0:
275,282,96441,2,0,P|319:277|421:267,1,143.000004364014,0|0,3:2|0:0,0:0:0:0:
511,303,96836,6,0,P|499:259|493:234,1,71.5000021820069,2|2,3:2|0:0,0:0:0:0:
405,184,97099,2,0,P|395:135|389:110,1,71.5000021820069,10|10,0:1|0:1,0:0:0:0:
437,27,97362,1,10,0:0:0:0:
437,27,97493,2,0,P|399:31|348:39,1,71.5000021820069,10|10,0:1|0:1,0:0:0:0:
292,105,97757,2,0,P|256:98|148:84,1,143.000004364014,10|8,0:1|0:1,0:0:0:0:
100,18,98151,6,0,P|124:51|71:132,1,143.000004364014,0|10,3:2|0:0,0:0:0:0:
0,190,98546,2,0,P|-24:223|29:312,1,143.000004364014,8|0,0:1|0:0,0:0:0:0:
101,257,98941,6,0,P|134:252|176:247,1,71.5000021820069,2|2,3:2|0:0,0:0:0:0:
256,301,99204,2,0,P|289:296|329:289,1,71.5000021820069,10|10,0:1|0:1,0:0:0:0:
358,194,99467,2,0,P|354:164|346:117,2,71.5000021820069,10|10|10,0:0|0:1|0:1,0:0:0:0:
455,219,99862,2,0,P|462:261|479:366,1,143.000004364014,10|8,0:1|0:0,0:0:0:0:
388,377,100257,1,0,3:2:0:0:
275,314,100520,1,10,0:0:0:0:
275,314,100651,1,0,3:2:0:0:
275,314,100783,2,0,P|244:321|201:331,1,71.5000021820069,2|0,3:2|0:0,0:0:0:0:
118,382,101046,6,0,P|129:329|150:236,1,143.000004364014,6|10,3:2|0:1,0:0:0:0:
251,230,101441,1,10,0:1:0:0:
251,230,101572,2,0,P|263:198|277:156,1,71.5000021820069,10|10,0:0|0:1,0:0:0:0:
374,133,101836,1,10,0:1:0:0:
374,133,101967,2,0,P|365:87|321:-12,1,143.000004364014,10|8,0:1|0:1,0:0:0:0:
244,0,102362,1,0,3:2:0:0:
206,132,102625,6,0,P|176:128|135:119,1,71.5000021820069,10|8,0:0|0:1,0:0:0:0:
124,19,102888,2,0,P|94:23|49:32,1,71.5000021820069,2|0,0:0|0:0,0:0:0:0:
8,120,103151,6,0,P|20:167|47:269,1,143.000004364014,2|10,3:2|0:1,0:0:0:0:
28,360,103546,1,10,0:1:0:0:
28,360,103678,2,0,P|65:352|99:347,1,71.5000021820069,10|10,0:0|0:1,0:0:0:0:
154,265,103941,1,10,0:1:0:0:
154,265,104072,2,0,P|213:264|235:361,1,143.000004364014,10|8,0:1|0:1,0:0:0:0:
181,371,104467,1,0,3:2:0:0:
264,233,104730,5,10,0:0:0:0:
264,233,104862,2,0,P|308:240|411:260,1,143.000004364014,0|0,3:2|0:0,0:0:0:0:
497,296,105257,6,0,P|503:260|512:226,1,71.5000021820069,2|2,3:2|0:0,0:0:0:0:
473,133,105520,2,0,P|467:106|456:59,1,71.5000021820069,10|10,0:1|0:1,0:0:0:0:
373,17,105783,1,10,0:0:0:0:
373,17,105915,2,0,P|344:22|299:31,1,71.5000021820069,10|10,0:1|0:1,0:0:0:0:
204,7,106178,2,0,P|176:52|220:124,1,143.000004364014,10|8,0:1|0:1,0:0:0:0:
316,117,106572,6,0,P|326:171|342:263,1,143.000004364014,0|10,3:2|0:0,0:0:0:0:
441,252,106967,2,0,P|431:206|414:105,1,143.000004364014,8|0,0:1|0:0,0:0:0:0:
343,41,107362,6,0,P|307:44|265:53,1,71.5000021820069,2|2,3:2|0:0,0:0:0:0:
183,3,107625,2,0,P|153:9|104:19,1,71.5000021820069,10|10,0:1|0:1,0:0:0:0:
41,87,107888,2,0,P|32:52|25:14,2,71.5000021820069,10|10|10,0:0|0:1|0:1,0:0:0:0:
131,131,108283,2,0,P|141:167|169:275,1,143.000004364014,10|8,0:1|0:0,0:0:0:0:
110,323,108678,1,0,3:2:0:0:
227,372,108941,1,10,0:0:0:0:
227,372,109072,1,0,3:2:0:0:
227,372,109204,2,0,P|264:365|305:359,1,71.5000021820069,2|8,3:2|0:0,0:0:0:0:
314,279,109467,6,0,P|339:340|436:320,1,175.499994644165,6|10,3:2|0:1,0:0:0:0:
494,276,109993,2,0,P|498:298|505:337,2,58.4999982147217,10|0|8,0:0|0:0|0:1,0:0:0:0:
419,242,110388,2,0,P|410:197|397:123,1,116.999996429443,10|10,0:1|0:1,0:0:0:0:
339,76,110783,1,0,3:2:0:0:
506,68,111046,2,0,P|422:61|330:53,1,175.499994644165,8|0,0:0|0:0,0:0:0:0:
278,0,111572,5,2,3:2:0:0:
278,0,111704,2,0,P|240:6|156:24,1,116.999996429443,2|8,0:0|0:1,0:0:0:0:
132,93,112099,2,0,P|91:49|25:61,1,116.999996429443,10|8,0:0|0:1,0:0:0:0:
0,125,112493,1,10,0:1:0:0:
0,125,112625,2,0,P|-15:161|35:221,1,116.999996429443,0|0,0:0|3:2,0:0:0:0:
140,196,113151,1,8,0:0:0:0:
140,196,113283,1,0,3:2:0:0:
140,196,113415,2,0,P|129:230|118:270,1,58.4999982147217
157,323,113678,6,0,P|193:334|271:362,1,116.999996429443,2|10,3:2|0:1,0:0:0:0:
378,318,114204,2,0,P|385:352|393:376,2,58.4999982147217,10|0|8,0:0|0:0|0:1,0:0:0:0:
327,266,114599,2,0,P|335:226|353:145,1,116.999996429443,10|10,0:1|0:1,0:0:0:0:
315,88,114993,1,0,3:2:0:0:
436,36,115257,2,0,P|477:38|487:160,1,175.499994644165,8|0,0:0|0:0,0:0:0:0:
448,197,115783,6,0,P|416:191|377:185,1,58.4999982147217,2|10,3:2|0:0,0:0:0:0:
347,124,116046,2,0,P|315:118|281:112,1,58.4999982147217
243,176,116309,2,0,P|211:169|122:157,1,116.999996429443,10|0,0:0|0:0,0:0:0:0:
88,93,116704,2,0,P|59:90|17:85,1,58.4999982147217,0|0,3:2|0:0,0:0:0:0:
256,193,117888,5,0,0:0:0:0:
256,192,134730,12,2,142625,0:0:0:0:
500,16,143151,6,0,P|493:45|476:97,1,77.999997619629,2|10,3:2|0:1,0:0:0:0:
375,137,143678,2,0,P|369:159|360:187,2,38.9999988098145,10|8|10,0:0|0:1|0:1,0:0:0:0:
379,58,144072,2,0,P|340:52|219:30,1,155.999995239258,2|0,3:2|0:0,0:0:0:0:
161,0,144730,1,10,0:0:0:0:
123,97,144993,1,2,0:0:0:0:
77,30,145257,6,0,P|31:42|-12:52,1,77.999997619629,2|10,3:2|0:1,0:0:0:0:
0,146,145783,2,0,P|6:174|10:199,1,38.9999988098145,10|8,0:0|0:1,0:0:0:0:
82,221,146046,1,10,0:1:0:0:
82,221,146178,2,0,P|89:253|114:382,1,155.999995239258,10|0,0:1|0:0,0:0:0:0:
188,380,146836,1,10,0:0:0:0:
217,288,147099,1,2,0:0:0:0:
281,340,147362,6,0,P|316:334|364:324,1,77.999997619629,2|10,3:2|0:1,0:0:0:0:
467,322,147888,2,0,P|473:346|483:374,2,38.9999988098145,10|8|10,0:0|0:1|0:1,0:0:0:0:
474,249,148283,2,0,P|452:160|431:91,1,155.999995239258,2|0,3:2|0:0,0:0:0:0:
400,33,148941,1,10,0:0:0:0:
306,23,149204,1,2,0:0:0:0:
240,85,149467,6,0,P|248:127|251:140,1,38.9999988098145,2|2,3:2|0:0,0:0:0:0:
192,168,149730,2,0,P|200:210|203:223,1,38.9999988098145,10|10,0:1|0:1,0:0:0:0:
274,240,149993,1,10,0:0:0:0:
274,240,150125,2,0,P|278:273|281:295,1,38.9999988098145,10|10,0:1|0:1,0:0:0:0:
222,326,150388,6,2,P|227:348|229:361,14,19.4999994049072,2|2|2|2|2|2|2|2|2|2|10|2|2|2|2,0:0|0:0|0:0|0:0|0:0|0:0|0:0|0:0|0:0|0:0|0:0|0:0|3:2|0:0|0:0,0:0:0:0:
104,370,151572,6,0,P|98:337|77:214,1,143.000004364014,6|10,3:2|0:1,0:0:0:0:
12,161,151967,1,10,0:1:0:0:
12,161,152099,2,0,P|4:117|-3:80,1,71.5000021820069,10|10,0:0|0:1,0:0:0:0:
83,34,152362,1,10,0:1:0:0:
83,34,152493,2,0,P|109:76|205:71,1,143.000004364014,10|8,0:1|0:1,0:0:0:0:
217,8,152888,1,0,3:2:0:0:
285,140,153151,6,0,P|317:134|364:123,1,71.5000021820069,10|8,0:0|0:1,0:0:0:0:
386,29,153415,2,0,P|418:35|458:47,1,71.5000021820069,2|0,0:0|0:0,0:0:0:0:
509,130,153678,2,0,P|498:165|465:277,1,143.000004364014,2|10,3:2|0:1,0:0:0:0:
486,369,154072,1,10,0:1:0:0:
486,369,154204,2,0,P|449:359|412:351,1,71.5000021820069,10|10,0:0|0:1,0:0:0:0:
366,270,154467,1,10,0:1:0:0:
366,270,154599,2,0,P|358:313|266:352,1,143.000004364014,10|8,0:1|0:1,0:0:0:0:
198,362,154993,1,0,3:2:0:0:
143,214,155257,5,10,0:0:0:0:
143,214,155388,2,0,P|195:223|289:241,1,143.000004364014,0|0,3:2|0:0,0:0:0:0:
377,276,155783,6,0,P|382:245|389:204,1,71.5000021820069,2|2,3:2|0:0,0:0:0:0:
464,139,156046,2,0,P|469:108|477:59,1,71.5000021820069,10|10,0:1|0:1,0:0:0:0:
400,8,156309,1,10,0:0:0:0:
400,8,156441,2,0,P|369:13|325:19,1,71.5000021820069,10|10,0:1|0:1,0:0:0:0:
252,83,156704,2,0,P|215:75|105:53,1,143.000004364014,10|8,0:1|0:1,0:0:0:0:
38,2,157099,6,0,P|2:30|31:121,1,143.000004364014,0|10,3:2|0:0,0:0:0:0:
119,129,157493,2,0,P|158:164|132:244,1,143.000004364014,8|0,0:1|0:0,0:0:0:0:
44,287,157888,6,0,P|75:296|120:313,1,71.5000021820069,2|2,3:2|0:0,0:0:0:0:
181,382,158151,2,0,P|212:373|261:362,1,71.5000021820069,10|10,0:1|0:1,0:0:0:0:
338,315,158415,2,0,P|330:343|318:390,2,71.5000021820069,10|10|10,0:0|0:1|0:1,0:0:0:0:
403,240,158809,2,0,P|394:202|369:91,1,143.000004364014,10|8,0:1|0:0,0:0:0:0:
288,66,159204,1,0,3:2:0:0:
413,1,159467,1,10,0:0:0:0:
413,1,159599,1,0,3:2:0:0:
413,1,159730,2,0,P|444:7|490:16,1,71.5000021820069,2|8,3:2|0:0,0:0:0:0:
511,111,159993,6,0,P|502:151|476:254,1,143.000004364014,6|10,3:2|0:1,0:0:0:0:
475,353,160388,1,10,0:1:0:0:
475,353,160520,2,0,P|441:346|400:337,1,71.5000021820069,10|10,0:0|0:1,0:0:0:0:
365,251,160783,1,10,0:1:0:0:
365,251,160915,2,0,P|324:241|220:218,1,143.000004364014,10|8,0:1|0:1,0:0:0:0:
164,265,161309,1,0,3:2:0:0:
137,84,161572,6,0,P|131:116|120:162,1,71.5000021820069,10|8,0:0|0:1,0:0:0:0:
41,197,161836,2,0,P|35:229|23:277,1,71.5000021820069,2|0,0:0|0:0,0:0:0:0:
52,363,162099,6,0,P|95:322|168:348,1,143.000004364014,2|10,3:2|0:1,0:0:0:0:
266,378,162493,1,10,0:1:0:0:
266,378,162625,2,0,P|304:369|343:362,1,71.5000021820069,10|10,0:0|0:1,0:0:0:0:
398,285,162888,1,10,0:1:0:0:
398,285,163020,2,0,P|359:275|252:251,1,143.000004364014,10|8,0:1|0:1,0:0:0:0:
179,269,163415,1,0,3:2:0:0:
239,113,163678,5,10,0:0:0:0:
239,113,163809,2,0,P|275:120|380:143,1,143.000004364014,0|0,3:2|0:0,0:0:0:0:
474,113,164204,6,0,L|460:187,1,71.5000021820069,2|2,3:2|0:0,0:0:0:0:
511,269,164467,2,0,L|495:349,1,71.5000021820069,10|10,0:1|0:1,0:0:0:0:
405,374,164730,1,10,0:0:0:0:
405,374,164862,2,0,L|330:359,1,71.5000021820069,10|10,0:1|0:1,0:0:0:0:
300,265,165125,2,0,P|259:271|159:296,1,143.000004364014,10|8,0:1|0:1,0:0:0:0:
118,362,165520,6,0,P|115:306|42:269,1,143.000004364014,0|10,3:2|0:0,0:0:0:0:
0,177,165915,2,0,P|-7:138|88:85,1,143.000004364014,8|0,0:1|0:0,0:0:0:0:
138,146,166309,6,0,P|173:150|214:158,1,71.5000021820069,2|2,3:2|0:0,0:0:0:0:
278,98,166572,2,0,P|313:102|356:110,1,71.5000021820069,10|10,0:1|0:1,0:0:0:0:
401,194,166836,2,0,P|396:221|386:269,2,71.5000021820069,10|10|10,0:0|0:1|0:1,0:0:0:0:
484,154,167230,2,0,P|491:116|516:-5,1,143.000004364014,10|8,0:1|0:0,0:0:0:0:
434,0,167625,1,0,3:2:0:0:
311,79,167888,1,10,0:0:0:0:
311,79,168020,1,0,3:2:0:0:
311,79,168151,2,0,P|281:76|238:68,1,71.5000021820069,2|8,3:2|0:0,0:0:0:0:
180,6,168415,6,0,P|107:4|83:112,1,175.499994644165,6|10,3:2|0:1,0:0:0:0:
17,148,168941,2,0,P|8:122|-3:84,2,58.4999982147217,10|0|8,0:0|0:0|0:1,0:0:0:0:
89,171,169336,2,0,P|103:202|133:292,1,116.999996429443,10|10,0:1|0:1,0:0:0:0:
75,333,169730,1,0,3:2:0:0:
192,374,169993,2,0,P|220:300|318:318,1,175.499994644165,8|0,0:0|0:0,0:0:0:0:
363,365,170520,5,2,3:2:0:0:
363,365,170651,2,0,P|369:328|389:248,1,116.999996429443,2|8,0:0|0:1,0:0:0:0:
459,226,171046,2,0,P|453:189|433:109,1,116.999996429443,10|8,0:0|0:1,0:0:0:0:
490,58,171441,1,10,0:1:0:0:
490,58,171572,2,0,P|456:71|391:20,1,116.999996429443,0|0,0:0|3:2,0:0:0:0:
277,3,172099,1,8,0:0:0:0:
277,3,172230,1,0,3:2:0:0:
277,3,172362,2,0,P|283:39|289:68,1,58.4999982147217
319,134,172625,6,0,P|282:124|203:102,1,116.999996429443,2|10,3:2|0:1,0:0:0:0:
108,56,173151,2,0,P|98:17|91:-7,2,58.4999982147217,10|0|8,0:0|0:0|0:1,0:0:0:0:
83,129,173546,2,0,P|90:167|102:252,1,116.999996429443,10|10,0:1|0:1,0:0:0:0:
175,275,173941,1,0,3:2:0:0:
252,362,174204,2,0,P|307:349|439:333,1,175.499994644165,8|0,0:0|0:0,0:0:0:0:
475,280,174730,6,0,P|469:251|458:204,1,58.4999982147217,2|10,3:2|0:0,0:0:0:0:
507,159,174993,2,0,P|501:130|494:96,1,58.4999982147217
437,53,175257,2,0,P|392:60|315:82,1,116.999996429443,10|0,0:0|0:0,0:0:0:0:
266,137,175651,1,0,3:2:0:0:
266,137,175783,1,4,0:0:0:0:
