osu file format v14

[General]
AudioFilename: audio.mp3
AudioLeadIn: 0
PreviewTime: 149287
Countdown: 0
SampleSet: Soft
StackLeniency: 0.7
Mode: 0
LetterboxInBreaks: 0
WidescreenStoryboard: 0

[Editor]
Bookmarks: 756,18378,41651,64923,88196,111469,134742,149287,172560,195832,219105
DistanceSpacing: 1.2
BeatDivisor: 4
GridSize: 4
TimelineZoom: 1.4

[Metadata]
Title:Expect
TitleUnicode:エクスペクト
Artist:PAGE
ArtistUnicode:PAGE
Creator:tomadoi
Version:Terminal
Source:銀魂' 延長戦
Tags:gintama enchousen ending agatsu collab silver soul japanese pop gintama' full version
BeatmapID:1987247
BeatmapSetID:951575

[Difficulty]
HPDrainRate:6
CircleSize:4
OverallDifficulty:7
ApproachRate:9
SliderMultiplier:1.6
SliderTickRate:1

[Events]
//Background and Video events
0,0,"thumb-1920-939024.jpg",0,0
//Break Periods
//Storyboard Layer 0 (Background)
//Storyboard Layer 1 (Fail)
//Storyboard Layer 2 (Pass)
//Storyboard Layer 3 (Foreground)
//Storyboard Sound Samples

[TimingPoints]
756,363.636363636364,4,2,1,34,1,0
756,-166.666666666667,4,2,1,34,0,0
6574,-100,4,2,1,72,0,0
6742,363.636363636364,4,2,1,72,1,0
18378,-111.111111111111,4,2,1,58,0,0
53287,-83.3333333333333,4,2,1,72,0,1
76378,-100,4,2,1,68,0,0
88196,-111.111111111111,4,2,1,58,0,0
123105,-100,4,2,1,76,0,0
146196,-250,4,2,1,76,0,0
147832,-250,4,2,1,48,0,0
148560,-125,4,2,1,34,0,0
154560,-90.9090909090909,4,2,1,34,0,0
155014,-90.9090909090909,4,2,1,5,0,0
155105,-125,4,2,1,34,0,0
160196,-125,4,2,1,48,0,0
160923,-83.3333333333333,4,2,1,72,0,1
171105,-83.3333333333333,4,2,1,48,0,0
171287,-125,4,2,1,48,0,0
172560,-83.3333333333333,4,2,1,72,0,1
195651,-100,4,2,1,68,0,0
219287,-1000,4,2,1,38,0,0
222014,-1000,4,2,1,28,0,0
224923,-1000,4,2,1,18,0,0
226378,-1000,4,2,1,8,0,0

[Colours]
Combo1 : 255,106,106
Combo2 : 255,146,94
Combo3 : 255,217,179
Combo4 : 168,168,255

[HitObjects]
56,239,756,6,0,P|62:287|65:336,1,95.9999970703126,2|0,0:0|0:0,0:0:0:0:
140,321,1301,1,0,0:0:0:0:
204,365,1483,2,0,P|227:368|254:373,2,47.9999985351563,2|0|0,0:0|0:0|0:0,0:0:0:0:
278,248,2028,5,0,0:0:0:0:
342,204,2210,2,0,P|365:201|392:196,2,47.9999985351563,2|0|0,0:0|0:0|0:0,0:0:0:0:
242,230,2756,2,0,P|218:232|194:237,1,47.9999985351563,2|0,0:0|0:0,0:0:0:0:
97,304,3119,5,2,0:0:0:0:
108,230,3301,1,0,0:0:0:0:
119,156,3483,1,0,0:0:0:0:
77,44,3665,6,0,P|82:91|85:142,1,95.9999970703126,2|0,0:0|0:0,0:0:0:0:
162,127,4210,1,0,0:0:0:0:
231,193,4392,2,0,P|253:196|281:202,2,47.9999985351563,2|0|0,0:0|0:0|0:0,0:0:0:0:
326,130,4937,5,0,0:0:0:0:
379,214,5119,2,0,P|402:209|426:205,2,47.9999985351563,2|0|0,0:0|0:0|0:0,0:0:0:0:
297,292,5665,2,0,P|273:296|249:300,1,47.9999985351563,2|0,0:0|0:0,0:0:0:0:
349,367,6028,5,2,0:0:0:0:
412,320,6210,1,0,0:0:0:0:
490,335,6392,1,0,0:0:0:0:
297,292,6574,6,2,B|205:285|234:335|147:335,1,154,6|0,2:1|0:0,0:0:0:0:
44,233,7105,2,2,P|52:275|56:320,1,80,10|0,2:1|0:0,0:0:0:0:
198,143,7469,2,0,P|190:185|186:230,1,80,2|0,3:1|3:0,0:0:0:0:
32,64,7832,2,2,P|40:106|44:151,1,80,10|0,2:1|0:0,0:0:0:0:
170,50,8196,5,2,3:1:0:0:
170,50,8378,1,0,3:0:0:0:
87,216,8560,1,8,0:1:0:0:
43,143,8742,2,0,B|80:127|80:127|136:140,1,80,2|0,2:1|3:0,0:0:0:0:
281,241,9105,5,2,3:1:0:0:
406,316,9287,1,8,0:1:0:0:
327,312,9469,6,0,B|227:311|274:364|181:365,1,160,6|0,2:1|0:0,0:0:0:0:
410,212,10014,2,0,B|422:251|422:251|408:301,1,80,10|0,2:1|0:0,0:0:0:0:
239,134,10378,2,0,B|227:173|227:173|241:223,1,80,2|0,3:1|3:0,0:0:0:0:
456,61,10742,2,0,B|466:98|466:98|454:137,1,80,10|0,2:1|0:0,0:0:0:0:
311,36,11105,5,2,3:1:0:0:
311,36,11287,1,0,3:0:0:0:
356,217,11469,1,8,0:1:0:0:
319,284,11651,2,0,P|311:322|306:362,1,80,2|0,2:1|3:0,0:0:0:0:
180,169,12014,5,2,3:1:0:0:
224,302,12196,1,8,0:1:0:0:
156,262,12378,6,0,B|93:251|93:251|62:263|62:263|-5:252,1,160,6|0,2:1|0:0,0:0:0:0:
59,74,12923,2,0,L|69:158,1,80,10|0,2:1|0:0,0:0:0:0:
192,285,13287,2,0,L|201:205,1,80,2|0,3:1|3:0,0:0:0:0:
330,56,13651,2,0,L|339:135,1,80,10|0,2:1|0:0,0:0:0:0:
480,306,14014,5,2,3:1:0:0:
480,306,14196,1,0,3:0:0:0:
284,288,14378,1,8,0:1:0:0:
232,348,14560,2,0,P|187:352|147:359,1,80,2|0,2:1|3:0,0:0:0:0:
290,208,14923,5,2,3:1:0:0:
422,370,15105,1,8,0:1:0:0:
461,304,15287,6,0,P|466:217|477:125,1,160,6|0,2:1|3:0,0:0:0:0:
284,288,15832,2,0,P|325:290|367:313,1,80,10|0,2:1|0:0,0:0:0:0:
203,103,16196,2,0,P|244:101|286:78,1,80,2|0,3:1|3:0,0:0:0:0:
108,296,16560,2,0,P|149:298|191:321,1,80,10|0,2:1|0:0,0:0:0:0:
59,127,16923,5,2,3:1:0:0:
59,127,17105,1,0,3:0:0:0:
220,209,17287,1,8,0:1:0:0:
279,161,17469,2,0,B|268:122|268:122|279:80,1,80,2|0,2:1|3:0,0:0:0:0:
342,32,17832,5,2,1:0:0:0:
300,195,18014,5,2,1:0:0:0:
258,358,18196,5,2,1:0:0:0:
332,315,18378,6,0,B|414:311|395:355|486:379,1,143.999995605469,4|8,0:0|0:0,0:0:0:0:
396,200,18923,2,0,P|388:162|384:116,1,71.9999978027344,0|0,0:0|3:0,0:0:0:0:
248,218,19287,1,0,3:0:0:0:
223,130,19469,2,0,P|219:165|211:200,1,71.9999978027344,8|0,0:0|0:0,0:0:0:0:
299,60,19832,1,0,3:0:0:0:
119,0,20014,5,0,3:0:0:0:
51,36,20196,1,8,0:0:0:0:
112,82,20378,1,0,0:0:0:0:
182,49,20560,1,0,3:0:0:0:
379,44,20742,6,0,L|459:33,1,71.9999978027344,0|8,3:0|0:0,0:0:0:0:
311,145,21105,5,2,0:0:0:0:
295,160,21196,1,2,0:0:0:0:
294,183,21287,1,0,3:0:0:0:
350,240,21469,1,0,3:0:0:0:
212,322,21651,2,0,L|98:342,1,107.999996704102,8|0,0:0|0:0,0:0:0:0:
113,370,22014,2,0,B|75:361|75:361|29:377,1,71.9999978027344,0|0,3:0|3:0,0:0:0:0:
174,199,22378,5,8,0:0:0:0:
118,142,22560,2,0,P|90:163|89:212,1,71.9999978027344,0|0,0:0|3:0,0:0:0:0:
212,322,22923,2,0,L|293:343,1,71.9999978027344,0|8,3:0|0:0,0:0:0:0:
445,251,23287,5,0,0:0:0:0:
373,222,23469,1,0,3:0:0:0:
398,324,23651,1,0,3:0:0:0:
472,335,23832,1,8,0:0:0:0:
449,141,24014,5,2,0:0:0:0:
448,117,24105,1,2,0:0:0:0:
464,93,24196,1,0,3:0:0:0:
364,56,24378,2,0,P|325:66|265:76,1,71.9999978027344,0|8,3:0|0:0,0:0:0:0:
198,210,24742,2,0,P|133:191|54:176,1,143.999995605469,0|0,0:0|3:0,0:0:0:0:
210,132,25287,5,8,0:0:0:0:
284,2,25469,2,0,B|298:37|298:37|292:84,1,71.9999978027344,0|0,0:0|3:0,0:0:0:0:
419,186,25832,5,0,3:0:0:0:
352,229,26014,1,8,0:0:0:0:
441,273,26196,1,0,0:0:0:0:
382,327,26378,1,0,3:0:0:0:
234,279,26560,6,0,L|140:297,1,71.9999978027344,0|8,3:0|0:0,0:0:0:0:
7,211,26923,2,0,L|-2:253,2,35.9999989013672,2|2|0,0:0|0:0|3:0,0:0:0:0:
137,126,27287,5,0,3:0:0:0:
69,83,27469,2,0,B|35:74|35:74|0:86,1,71.9999978027344,8|0,0:0|0:0,0:0:0:0:
189,16,27832,2,0,B|273:16|250:54|327:74,1,143.999995605469,0|8,3:0|0:0,0:0:0:0:
467,72,28378,6,0,P|437:42|395:44,1,71.9999978027344,0|0,0:0|3:0,0:0:0:0:
274,171,28742,1,0,3:0:0:0:
332,222,28923,2,0,L|421:249,1,71.9999978027344,8|0,0:0|0:0,0:0:0:0:
215,349,29287,2,0,L|201:223,1,107.999996704102,0|0,3:0|0:0,0:0:0:0:
171,266,29651,6,0,L|121:280,1,35.9999989013672,8|0,0:0|0:0,0:0:0:0:
269,131,29832,1,2,0:0:0:0:
295,140,29923,1,2,0:0:0:0:
323,148,30014,1,0,3:0:0:0:
217,60,30196,5,0,3:0:0:0:
145,94,30378,1,8,0:0:0:0:
9,16,30560,2,0,P|6:87|-2:178,1,143.999995605469,0|0,0:0|3:0,0:0:0:0:
116,294,31105,2,0,B|196:294|176:339|270:362,1,143.999995605469,8|0,0:0|3:0,0:0:0:0:
353,239,31651,6,0,L|272:262,1,71.9999978027344,0|8,3:0|0:0,0:0:0:0:
353,239,32014,1,0,0:0:0:0:
455,276,32196,2,0,P|470:320|474:364,1,71.9999978027344,0|0,3:0|3:0,0:0:0:0:
488,200,32560,5,8,0:0:0:0:
449,133,32742,1,2,0:0:0:0:
445,108,32832,1,2,0:0:0:0:
448,80,32923,1,0,3:0:0:0:
291,127,33105,5,0,3:0:0:0:
225,98,33287,1,8,0:0:0:0:
128,140,33469,1,0,0:0:0:0:
57,109,33651,2,0,P|65:63|70:24,1,71.9999978027344,0|0,3:0|3:0,0:0:0:0:
156,234,34014,5,8,0:0:0:0:
91,277,34196,2,0,B|55:267|55:267|5:283,1,71.9999978027344,0|0,0:0|3:0,0:0:0:0:
218,313,34560,2,0,P|208:249|199:154,1,143.999995605469,0|0,3:0|0:0,0:0:0:0:
277,363,35105,5,0,3:0:0:0:
295,290,35287,1,0,3:0:0:0:
152,366,35469,1,8,0:0:0:0:
98,310,35651,6,0,L|55:302,2,35.9999989013672,2|2|0,0:0|0:0|3:0,0:0:0:0:
207,209,36014,1,0,3:0:0:0:
136,127,36196,1,8,0:0:0:0:
192,73,36378,2,0,L|209:3,1,71.9999978027344,0|0,0:0|3:0,0:0:0:0:
311,173,36742,5,0,3:0:0:0:
385,149,36923,2,0,P|450:168|502:246,1,143.999995605469,8|0,0:0|3:0,0:0:0:0:
276,261,37469,5,0,3:0:0:0:
344,304,37651,2,0,L|357:382,1,71.9999978027344,8|0,0:0|0:0,0:0:0:0:
195,285,38014,2,0,L|79:263,1,107.999996704102,0|0,3:0|0:0,0:0:0:0:
116,249,38378,1,8,0:0:0:0:
42,113,38560,5,2,0:0:0:0:
23,128,38651,1,2,0:0:0:0:
25,152,38741,1,0,3:0:0:0:
162,109,38923,2,0,P|212:97|261:90,1,71.9999978027344,0|8,3:0|0:0,0:0:0:0:
396,133,39287,5,0,0:0:0:0:
468,107,39469,1,0,3:0:0:0:
406,57,39651,1,0,3:0:0:0:
335,83,39832,1,8,0:0:0:0:
160,28,40014,6,0,L|78:16,1,71.9999978027344,0|0,0:0|3:0,0:0:0:0:
206,191,40378,2,0,P|172:222|173:251,1,71.9999978027344,0|8,3:0|0:0,0:0:0:0:
366,166,40742,5,0,0:0:0:0:
439,149,40923,1,0,3:0:0:0:
512,132,41105,1,0,3:0:0:0:
301,75,41287,5,8,0:0:0:0:
202,28,41469,1,2,0:0:0:0:
173,22,41560,1,2,0:0:0:0:
143,15,41651,1,4,0:0:0:0:
83,173,41832,6,0,P|43:186|11:199,1,71.9999978027344,0|8,3:0|0:0,0:0:0:0:
160,108,42196,2,0,P|204:130|220:199,1,107.999996704102
207,195,42560,1,0,3:0:0:0:
180,286,42742,1,8,0:0:0:0:
272,373,42923,6,0,P|230:373|195:379,1,71.9999978027344,4|0,0:0|3:0,0:0:0:0:
338,262,43287,1,0,3:0:0:0:
395,311,43469,2,0,P|436:311|472:317,1,71.9999978027344,8|0,0:0|0:0,0:0:0:0:
338,142,43832,5,0,3:0:0:0:
338,142,44014,1,0,3:0:0:0:
278,190,44196,2,0,P|236:190|201:196,1,71.9999978027344,8|0,0:0|0:0,0:0:0:0:
157,133,44560,5,0,3:0:0:0:
7,260,44742,1,0,3:0:0:0:
29,185,44923,5,8,0:0:0:0:
122,275,45105,2,0,P|156:284|191:302,1,71.9999978027344,0|0,0:0|3:0,0:0:0:0:
249,352,45469,1,0,3:0:0:0:
309,183,45651,1,8,0:0:0:0:
397,216,45832,6,0,P|329:227|253:249,1,143.999995605469,4|0,0:0|3:0,0:0:0:0:
197,195,46378,1,8,0:0:0:0:
248,63,46560,2,0,B|240:98|240:98|249:137,1,71.9999978027344,0|0,0:0|3:0,0:0:0:0:
248,63,46923,1,0,3:0:0:0:
107,173,47105,2,0,P|65:179|31:188,1,71.9999978027344,8|0,0:0|0:0,0:0:0:0:
233,284,47469,5,0,3:0:0:0:
233,284,47651,1,0,3:0:0:0:
284,336,47832,2,0,P|326:342|360:351,1,71.9999978027344,8|0,0:0|0:0,0:0:0:0:
379,164,48196,5,0,3:0:0:0:
512,197,48378,2,0,B|446:178|447:232|376:246,1,143.999995605469,0|4,3:0|0:0,0:0:0:0:
272,90,48923,6,0,P|282:46|285:8,1,71.9999978027344,0|0,3:0|3:0,0:0:0:0:
289,202,49287,2,0,P|273:270|264:354,1,143.999995605469,8|0,0:0|3:0,0:0:0:0:
289,202,49832,1,0,3:0:0:0:
106,306,50014,2,0,P|135:307|185:320,1,71.9999978027344,8|0,0:0|0:0,0:0:0:0:
175,86,50378,5,0,3:0:0:0:
175,86,50560,1,0,3:0:0:0:
115,133,50742,2,0,P|86:134|36:147,1,71.9999978027344,8|0,0:0|0:0,0:0:0:0:
266,160,51105,5,0,3:0:0:0:
318,103,51287,2,0,P|389:99|465:86,1,143.999995605469,0|8,3:0|0:0,0:0:0:0:
318,103,51832,1,0,3:0:0:0:
147,2,52014,5,0,3:0:0:0:
147,2,52196,2,0,P|154:33|156:76,1,71.9999978027344,8|0,0:0|0:0,0:0:0:0:
188,297,52560,5,0,3:0:0:0:
178,277,52651,1,0,3:0:0:0:
178,248,52742,1,0,3:0:0:0:
196,217,52832,1,0,3:0:0:0:
231,192,52923,5,8,3:2:0:0:
264,154,53014,5,0,3:0:0:0:
277,97,53105,5,0,3:0:0:0:
254,36,53196,5,0,3:0:0:0:
254,36,53287,2,0,P|146:49|50:65,1,191.999994140625,6|8,2:1|0:1,0:0:0:0:
365,201,53832,6,0,P|415:211|460:223,1,95.9999970703126,2|0,2:1|3:0,0:0:0:0:
365,201,54196,1,0,3:0:0:0:
282,283,54378,1,8,0:1:0:0:
169,133,54560,6,2,B|64:123|98:192|-3:224,1,191.999994140625,6|0,2:1|3:0,1:0:0:0:
249,100,55105,2,0,P|252:44|261:5,1,95.9999970703126,10|0,0:1|0:0,0:0:0:0:
185,149,55469,5,0,3:0:0:0:
281,238,55651,1,0,3:0:0:0:
171,338,55832,1,8,0:1:0:0:
244,377,56014,6,0,P|247:327|254:277,1,95.9999970703126,2|4,2:1|0:0,0:0:0:0:
73,268,56378,2,0,P|70:315|63:363,1,95.9999970703126,2|8,3:1|0:1,0:0:0:0:
166,232,56742,1,0,0:0:0:0:
94,69,56923,5,0,3:0:0:0:
94,69,57105,1,0,3:0:0:0:
57,248,57287,1,8,0:1:0:0:
240,36,57469,6,0,P|309:53|375:168,1,191.999994140625,6|2,2:1|3:1,0:0:0:0:
481,289,58014,2,0,P|473:340|467:391,1,95.9999970703126,8|0,0:1|0:0,0:0:0:0:
458,209,58378,5,0,3:0:0:0:
314,283,58560,1,0,3:0:0:0:
163,175,58742,1,8,0:1:0:0:
210,17,58923,5,2,0:0:0:0:
210,17,59014,1,2,0:0:0:0:
210,17,59105,2,0,L|193:224,1,191.999994140625,6|8,2:1|0:1,0:0:0:0:
436,19,59651,5,2,2:1:0:0:
436,19,59832,2,0,L|447:127,1,95.9999970703126,0|0,3:0|3:0,0:0:0:0:
406,181,60196,1,8,0:1:0:0:
234,329,60378,6,2,B|122:311|122:311|81:337|93:385,1,191.999994140625,6|0,2:1|3:0,1:0:0:0:
300,276,60923,2,0,B|286:232|286:232|304:171,1,95.9999970703126,8|0,0:1|0:0,0:0:0:0:
349,348,61287,1,0,3:0:0:0:
349,348,61469,1,0,3:0:0:0:
168,153,61651,5,8,0:1:0:0:
99,114,61832,2,0,P|88:193|78:315,1,191.999994140625,2|2,3:1|3:1,0:0:0:0:
327,70,62378,2,0,P|336:124|338:174,1,95.9999970703126,8|0,0:1|0:0,0:0:0:0:
287,222,62742,1,0,3:0:0:0:
354,263,62923,1,0,3:0:0:0:
422,222,63105,1,8,0:1:0:0:
231,349,63287,6,0,P|173:359|136:371,1,95.9999970703126,6|0,2:1|0:0,0:0:0:0:
94,101,63651,2,0,P|36:91|-1:79,1,95.9999970703126,2|8,3:1|0:1,0:0:0:0:
94,101,64014,1,0,0:0:0:0:
260,234,64196,5,0,3:0:0:0:
280,243,64378,1,0,3:0:0:0:
406,209,64560,1,8,0:1:0:0:
491,321,64742,5,2,0:0:0:0:
491,321,64832,1,2,0:0:0:0:
491,321,64923,1,6,2:1:0:0:
315,176,65105,5,0,3:0:0:0:
260,234,65287,2,0,P|210:248|149:277,1,95.9999970703126,8|0,0:1|0:0,0:0:0:0:
320,39,65651,5,0,3:0:0:0:
320,39,65832,1,0,3:0:0:0:
219,0,66014,1,8,0:1:0:0:
315,176,66196,2,2,B|419:145|406:230|493:236,1,191.999994140625,6|0,2:1|3:0,1:0:0:0:
251,363,66742,6,0,B|238:313|238:313|253:258,1,95.9999970703126,8|0,0:1|0:0,0:0:0:0:
69,156,67105,1,0,3:0:0:0:
0,187,67287,1,0,3:0:0:0:
87,236,67469,1,8,0:1:0:0:
255,175,67651,5,2,0:0:0:0:
270,144,67742,1,2,0:0:0:0:
254,116,67832,1,6,2:1:0:0:
199,62,68014,1,0,3:0:0:0:
386,0,68196,1,8,0:1:0:0:
368,75,68378,1,2,2:1:0:0:
512,225,68560,5,0,3:0:0:0:
512,225,68742,1,0,3:0:0:0:
479,123,68923,1,8,0:1:0:0:
306,367,69105,6,0,P|318:274|324:165,1,191.999994140625,6|0,2:1|3:0,0:0:0:0:
419,351,69651,1,8,0:1:0:0:
512,261,69832,2,0,L|440:276,2,47.9999985351563,2|2|0,0:0|0:0|3:0,0:0:0:0:
323,175,70196,2,0,B|276:162|276:162|203:186,1,95.9999970703126,2|8,3:1|0:1,0:0:0:0:
0,45,70560,5,2,0:0:0:0:
0,45,70651,1,2,0:0:0:0:
0,45,70742,2,0,B|62:35|111:12|111:12|155:41|126:86,1,191.999994140625,6|8,2:1|0:1,0:0:0:0:
48,184,71287,1,0,0:0:0:0:
178,336,71469,5,0,3:0:0:0:
178,336,71651,1,2,3:1:0:0:
153,260,71832,1,8,0:1:0:0:
310,180,72014,1,0,0:0:0:0:
356,256,72196,6,0,P|349:308|345:357,1,95.9999970703126,0|0,3:0|3:0,0:0:0:0:
157,75,72560,2,0,P|164:127|168:176,1,95.9999970703126,8|0,0:1|0:0,0:0:0:0:
406,60,72923,1,0,3:0:0:0:
339,16,73105,5,2,3:1:0:0:
299,140,73287,1,8,0:1:0:0:
236,339,73469,1,2,3:1:0:0:
170,291,73651,6,0,B|274:273|256:335|364:342,1,191.999994140625,6|8,2:1|0:1,0:0:0:0:
202,193,74196,1,0,0:0:0:0:
63,308,74378,5,0,3:0:0:0:
7,256,74560,1,2,0:0:0:0:
0,227,74651,1,2,0:0:0:0:
13,199,74742,1,8,0:1:0:0:
180,78,74923,5,2,3:1:0:0:
118,28,75105,2,0,L|16:3,1,95.9999970703126
144,205,75469,1,8,0:1:0:0:
272,138,75651,2,0,L|374:113,1,95.9999970703126,0|2,0:0|3:1,0:0:0:0:
180,78,76014,5,0,3:0:0:0:
107,107,76196,1,8,0:1:0:0:
317,213,76378,6,2,P|315:113|321:19,1,160,6|0,2:1|3:0,1:0:0:0:
221,266,76923,2,0,B|204:304|204:304|218:355,1,80,10|0,0:1|0:0,0:0:0:0:
413,295,77287,5,2,3:1:0:0:
413,295,77469,1,0,3:0:0:0:
489,321,77651,2,0,P|495:273|505:223,1,80,10|0,0:1|0:0,0:0:0:0:
349,106,78014,5,2,3:1:0:0:
413,63,78196,1,0,3:0:0:0:
220,12,78378,1,8,0:1:0:0:
158,64,78560,2,0,L|63:95,1,80,2|0,0:1|3:0,0:0:0:0:
212,208,78923,5,2,0:0:0:0:
224,230,79014,1,2,0:0:0:0:
218,256,79105,1,8,0:1:0:0:
349,106,79287,6,0,B|410:124|410:124|434:153|434:153|503:173,1,160,6|0,2:1|3:0,0:0:0:0:
340,305,79832,2,0,B|330:266|330:266|342:218,1,80,10|0,0:1|0:0,0:0:0:0:
222,93,80196,2,0,L|118:74,1,80,2|0,3:1|3:0,0:0:0:0:
374,0,80560,2,0,L|386:81,1,80,10|0,0:1|0:0,0:0:0:0:
217,218,80923,6,0,B|127:225|158:264|64:297,1,160,2|8,3:1|0:1,0:0:0:0:
266,346,81469,2,0,P|317:362|362:385,1,80,2|0,0:1|3:0,0:0:0:0:
485,243,81832,5,2,0:0:0:0:
505,266,81923,1,2,0:0:0:0:
498,292,82014,1,8,0:1:0:0:
313,202,82196,6,0,P|320:120|322:21,1,160,6|0,2:1|3:0,0:0:0:0:
219,224,82742,2,0,L|125:259,1,80,10|0,0:1|0:0,0:0:0:0:
206,31,83105,2,0,L|112:-4,1,80,2|0,3:1|3:0,0:0:0:0:
312,146,83469,2,0,B|323:186|323:186|314:253,1,80,10|0,0:1|0:0,0:0:0:0:
411,54,83832,5,2,3:1:0:0:
411,54,84014,1,0,3:0:0:0:
476,97,84196,1,8,0:1:0:0:
317,224,84378,2,0,L|220:260,1,80,2|0,0:1|3:0,0:0:0:0:
419,338,84742,6,0,L|424:385,2,40,2|2|8,0:0|0:0|0:1,0:0:0:0:
241,251,85105,6,0,P|248:154|250:67,1,160,6|0,2:1|3:0,0:0:0:0:
102,214,85651,2,0,B|62:203|62:203|11:218,1,80,10|0,0:1|0:0,0:0:0:0:
188,38,86014,5,2,3:1:0:0:
188,38,86196,1,0,3:0:0:0:
249,91,86378,2,0,P|295:106|348:134,1,80,10|0,0:1|0:0,0:0:0:0:
102,214,86742,5,2,3:1:0:0:
152,153,86923,1,0,3:0:0:0:
264,309,87105,1,8,0:1:0:0:
168,364,87287,2,0,P|123:374|61:393,1,80,2|0,0:1|3:0,0:0:0:0:
285,160,88014,6,0,L|297:105,1,40,2|2,0:0|0:0,0:0:0:0:
285,160,88196,1,4,0:0:0:0:
352,270,88378,5,0,3:0:0:0:
352,270,88560,2,0,P|344:304|341:353,1,71.9999978027344,8|0,0:0|0:0,0:0:0:0:
273,197,88923,1,0,3:0:0:0:
273,197,89105,1,0,3:0:0:0:
141,301,89287,1,8,0:0:0:0:
221,374,89469,1,0,0:0:0:0:
296,348,89651,6,0,P|328:350|371:357,1,71.9999978027344,0|0,3:0|3:0,0:0:0:0:
179,191,90014,2,0,P|211:189|254:182,1,71.9999978027344,8|0,0:0|0:0,0:0:0:0:
133,324,90378,1,0,3:0:0:0:
133,324,90469,1,8,0:0:0:0:
133,324,90560,1,0,3:0:0:0:
66,266,90742,2,0,P|71:230|74:194,1,71.9999978027344,8|0,0:0|3:0,0:0:0:0:
190,273,91105,5,0,3:0:0:0:
207,283,91287,1,0,3:0:0:0:
60,114,91469,5,8,0:0:0:0:
43,124,91651,1,0,0:0:0:0:
191,23,91832,6,0,P|227:36|264:46,1,71.9999978027344,0|0,3:0|3:0,0:0:0:0:
165,186,92196,2,0,P|130:195|96:207,1,71.9999978027344,8|0,0:0|0:0,0:0:0:0:
219,122,92560,5,0,3:0:0:0:
219,122,92742,1,0,3:0:0:0:
291,258,92923,2,0,P|325:267|359:279,1,71.9999978027344,8|0,0:0|0:0,0:0:0:0:
432,249,93287,1,0,3:0:0:0:
432,249,93378,1,8,0:0:0:0:
432,249,93469,1,0,3:0:0:0:
382,184,93651,1,8,0:0:0:0:
301,351,93832,6,0,P|229:355|156:366,1,143.999995605469,0|0,3:0|3:0,0:0:0:0:
40,276,94378,2,0,B|49:313|49:313|38:347,1,71.9999978027344,8|0,0:0|0:0,0:0:0:0:
136,283,94742,1,0,3:0:0:0:
136,283,94923,1,0,3:0:0:0:
67,169,95105,1,8,0:0:0:0:
157,58,95287,6,0,P|148:138|145:206,1,143.999995605469,0|0,3:0|3:0,0:0:0:0:
228,328,95832,2,0,P|229:290|235:253,1,71.9999978027344,8|0,0:0|0:0,0:0:0:0:
345,174,96196,1,0,3:0:0:0:
345,174,96287,1,8,0:0:0:0:
345,174,96378,1,0,3:0:0:0:
315,248,96560,1,8,0:0:0:0:
297,58,96742,1,0,3:0:0:0:
368,93,96923,6,0,B|446:93|426:137|514:138,1,143.999995605469,0|8,3:0|0:0,0:0:0:0:
303,268,97469,1,0,0:0:0:0:
249,323,97651,2,0,B|171:323|191:367|103:368,1,143.999995605469,0|8,3:0|0:0,0:0:0:0:
330,351,98196,6,0,P|400:356|500:373,1,143.999995605469,0|0,3:0|3:0,0:0:0:0:
395,233,98742,2,0,P|360:239|316:237,1,71.9999978027344,8|0,0:0|0:0,0:0:0:0:
215,334,99105,1,0,3:0:0:0:
215,334,99196,1,8,0:0:0:0:
215,334,99287,1,0,3:0:0:0:
110,217,99469,2,0,P|116:252|114:296,1,71.9999978027344,8|0,0:0|0:0,0:0:0:0:
220,221,99832,6,0,L|229:75,1,143.999995605469,0|8,3:0|0:0,0:0:0:0:
122,24,100378,2,0,P|129:58|132:102,1,71.9999978027344,0|0,0:0|3:0,0:0:0:0:
331,49,100742,1,0,3:0:0:0:
331,49,100923,2,0,P|323:84|321:120,1,71.9999978027344,8|0,0:0|0:0,0:0:0:0:
386,260,101287,5,0,3:0:0:0:
386,260,101469,1,0,3:0:0:0:
406,153,101651,5,8,0:0:0:0:
267,238,101832,1,0,0:0:0:0:
306,342,102014,1,0,3:0:0:0:
311,329,102105,1,8,0:0:0:0:
298,329,102196,1,0,3:0:0:0:
384,371,102378,2,0,P|419:376|465:387,1,71.9999978027344,8|0,0:0|3:0,0:0:0:0:
221,257,102742,6,0,B|205:290|205:290|212:332,1,71.9999978027344,0|0,3:0|3:0,0:0:0:0:
263,189,103105,1,8,0:0:0:0:
263,189,103287,1,0,0:0:0:0:
199,95,103469,2,0,L|189:22,1,71.9999978027344,0|0,3:0|3:0,0:0:0:0:
189,23,103742,1,8,0:0:0:0:
189,23,103832,1,8,0:0:0:0:
265,0,104014,1,0,3:0:0:0:
356,110,104196,6,0,P|387:117|424:132,1,71.9999978027344,0|0,3:0|3:0,0:0:0:0:
250,224,104560,2,0,P|219:231|182:246,1,71.9999978027344,8|0,0:0|0:0,0:0:0:0:
335,315,104923,1,0,3:0:0:0:
335,315,105014,1,8,0:0:0:0:
335,315,105105,1,0,3:0:0:0:
328,188,105287,5,8,0:0:0:0:
388,235,105469,2,0,B|469:243|442:284|517:292,1,143.999995605469,0|0,3:0|3:0,0:0:0:0:
356,383,106014,2,0,P|360:347|357:304,1,71.9999978027344,8|0,0:0|0:0,0:0:0:0:
235,137,106378,2,0,P|239:173|234:251,1,107.999996704102,0|0,3:0|0:0,0:0:0:0:
235,244,106742,2,0,L|156:237,1,71.9999978027344,8|0,0:0|0:0,0:0:0:0:
97,276,107105,5,0,3:0:0:0:
260,384,107287,2,0,B|271:347|271:347|262:313,1,71.9999978027344,0|8,3:0|0:0,0:0:0:0:
235,244,107651,1,0,0:0:0:0:
142,358,107832,1,0,3:0:0:0:
142,358,107923,1,8,0:0:0:0:
142,358,108014,1,0,3:0:0:0:
39,226,108196,2,0,P|78:234|117:244,1,71.9999978027344,8|0,0:0|3:0,0:0:0:0:
254,109,108560,6,0,P|168:125|111:132,1,143.999995605469,0|8,3:0|0:0,0:0:0:0:
254,109,109105,1,0,0:0:0:0:
351,189,109287,2,0,P|388:193|424:201,1,71.9999978027344,0|0,3:0|3:0,0:0:0:0:
421,200,109560,1,8,0:0:0:0:
421,200,109651,1,8,0:0:0:0:
328,66,109832,1,0,3:0:0:0:
253,218,110014,6,0,P|261:270|270:361,1,143.999995605469,0|8,3:0|0:0,0:0:0:0:
253,218,110560,1,0,0:0:0:0:
289,67,110742,1,0,3:0:0:0:
289,67,110832,1,8,0:0:0:0:
289,67,110923,1,8,0:0:0:0:
375,184,111105,5,8,0:0:0:0:
178,104,111287,1,0,3:0:0:0:
137,31,111469,6,0,P|135:98|131:177,1,143.999995605469,4|8,3:2|0:0,0:0:0:0:
221,311,112014,2,0,P|260:328|299:349,1,71.9999978027344,0|0,3:0|0:0,0:0:0:0:
467,241,112378,2,0,P|493:266|489:307,1,71.9999978027344,0|0,3:0|0:0,0:0:0:0:
329,207,112742,6,0,B|322:124|368:160|356:58,1,143.999995605469,8|0,0:0|3:0,0:0:0:0:
228,177,113287,1,8,0:0:0:0:
228,177,113469,1,0,0:0:0:0:
199,357,113651,5,0,3:0:0:0:
138,313,113832,1,0,3:0:0:0:
205,282,114014,1,8,0:0:0:0:
268,325,114196,1,0,3:0:0:0:
95,228,114378,6,0,P|108:149|108:125,1,71.9999978027344,0|0,3:0|0:0,0:0:0:0:
244,38,114742,1,8,0:0:0:0:
300,90,114923,2,0,L|382:119,1,71.9999978027344,0|0,3:0|0:0,0:0:0:0:
473,276,115287,2,0,B|494:245|494:245|486:199,1,71.9999978027344,0|0,3:0|0:0,0:0:0:0:
332,311,115651,6,0,P|247:337|169:369,1,143.999995605469,8|0,0:0|3:0,0:0:0:0:
34,242,116196,1,8,0:0:0:0:
105,213,116378,1,0,0:0:0:0:
232,243,116560,5,0,3:0:0:0:
305,213,116742,1,0,3:0:0:0:
184,155,116923,1,8,0:0:0:0:
255,123,117105,1,0,3:0:0:0:
413,148,117287,5,0,3:0:0:0:
413,148,117469,1,0,3:0:0:0:
509,46,117651,2,0,P|501:86|494:140,1,71.9999978027344,8|0,0:0|0:0,0:0:0:0:
355,68,118014,1,0,3:0:0:0:
194,106,118196,5,0,3:0:0:0:
120,96,118378,1,0,0:0:0:0:
46,86,118560,1,8,0:0:0:0:
150,220,118742,6,0,B|161:255|161:255|159:307,1,71.9999978027344,0|0,3:0|0:0,0:0:0:0:
335,132,119105,2,0,P|327:227|326:297,1,143.999995605469,8|0,0:0|3:0,0:0:0:0:
196,67,119651,5,0,3:0:0:0:
133,113,119832,2,0,L|33:140,1,71.9999978027344,8|0,0:0|0:0,0:0:0:0:
216,294,120196,5,0,3:0:0:0:
216,294,120378,1,0,3:0:0:0:
162,349,120560,1,8,0:0:0:0:
261,366,120742,2,0,L|339:381,1,71.9999978027344,0|0,0:0|3:0,0:0:0:0:
257,167,121105,5,0,3:0:0:0:
368,78,121287,1,0,0:0:0:0:
292,5,121469,1,8,0:0:0:0:
114,324,122378,5,0,3:0:0:0:
129,306,122469,1,0,3:0:0:0:
140,278,122560,1,0,3:0:0:0:
134,243,122651,1,0,3:0:0:0:
110,214,122742,5,8,3:2:0:0:
77,197,122832,5,0,3:0:0:0:
51,149,122923,5,0,3:0:0:0:
68,90,123014,5,0,3:0:0:0:
68,90,123105,2,0,P|139:106|237:138,1,160,6|10,2:1|0:1,0:0:0:0:
294,104,123651,5,0,0:0:0:0:
451,53,123832,1,2,3:1:0:0:
354,11,124014,1,0,3:0:0:0:
377,82,124196,1,8,0:1:0:0:
292,262,124378,6,0,B|281:303|281:303|285:365,1,80,6|0,2:1|0:0,0:0:0:0:
492,188,124742,2,0,L|406:168,1,80,2|8,3:1|0:1,0:0:0:0:
270,70,125105,5,2,0:1:0:0:
172,116,125287,1,0,3:0:0:0:
157,93,125378,1,8,0:1:0:0:
167,67,125469,1,0,3:0:0:0:
77,209,125651,2,0,L|-5:231,1,80,8|0,0:1|0:0,0:0:0:0:
223,384,126014,6,0,P|230:295|242:205,2,160,6|10|2,2:1|0:1|3:1,0:0:0:0:
155,343,126923,1,0,3:0:0:0:
319,219,127105,1,8,0:1:0:0:
150,88,127287,6,0,B|137:128|137:128|143:187,1,80,6|0,2:1|0:0,0:0:0:0:
304,117,127651,1,0,3:0:0:0:
408,153,127832,1,8,0:1:0:0:
481,124,128014,1,2,0:1:0:0:
373,0,128196,5,0,3:0:0:0:
341,6,128287,1,8,0:1:0:0:
313,13,128378,1,0,3:0:0:0:
145,189,128560,5,8,0:1:0:0:
77,151,128742,1,2,0:0:0:0:
77,151,128832,1,2,0:0:0:0:
77,151,128923,2,0,P|38:138|-7:131,1,80,6|0,2:1|3:0,0:0:0:0:
204,6,129287,2,0,B|218:45|218:45|208:98,1,80,10|0,0:1|0:0,0:0:0:0:
376,211,129651,5,2,3:1:0:0:
376,211,129832,1,0,3:0:0:0:
294,287,130014,1,8,0:1:0:0:
349,351,130196,6,0,P|390:362|439:383,1,80,6|0,2:1|0:0,0:0:0:0:
224,210,130560,2,0,P|185:224|174:265,1,80,2|8,3:1|0:1,0:0:0:0:
340,136,130923,5,2,0:1:0:0:
464,210,131105,1,0,3:0:0:0:
482,188,131196,1,8,0:1:0:0:
477,163,131287,1,0,3:0:0:0:
306,35,131469,5,8,0:1:0:0:
219,100,131651,1,2,0:0:0:0:
219,100,131742,1,2,0:0:0:0:
219,100,131832,2,0,P|164:113|115:131,1,80,6|0,2:1|3:0,0:0:0:0:
220,337,132196,2,0,P|181:325|142:316,1,80,10|0,0:1|0:0,0:0:0:0:
356,233,132560,5,2,3:1:0:0:
356,233,132742,1,0,3:0:0:0:
141,120,132923,1,8,0:1:0:0:
195,56,133105,6,0,B|277:114|236:206|236:206,2,160,6|2|2,2:1|3:1|0:1,0:0:0:0:
376,167,134014,1,0,3:0:0:0:
403,176,134105,1,8,0:1:0:0:
428,186,134196,1,0,3:0:0:0:
276,343,134378,5,8,0:1:0:0:
206,318,134560,1,2,0:0:0:0:
206,318,134651,1,2,0:0:0:0:
206,318,134742,2,0,P|164:327|128:338,1,80,6|0,2:1|3:0,0:0:0:0:
77,183,135105,2,0,P|37:174|0:163,1,80,8|0,0:1|0:0,0:0:0:0:
123,263,135469,1,0,3:0:0:0:
123,263,135651,1,0,3:0:0:0:
237,108,135832,1,8,0:1:0:0:
329,195,136014,6,0,B|431:205|386:251|499:259,1,160,6|0,2:1|3:0,0:0:0:0:
324,341,136560,2,0,P|280:347|244:358,1,80,8|0,0:1|0:0,0:0:0:0:
109,231,136923,1,0,3:0:0:0:
103,211,137014,1,8,0:1:0:0:
107,191,137105,1,0,3:0:0:0:
194,242,137287,1,8,0:1:0:0:
87,366,137469,5,2,0:0:0:0:
87,366,137560,1,2,0:0:0:0:
87,366,137651,2,0,P|43:372|7:383,1,80,6|0,2:1|3:0,0:0:0:0:
104,271,138014,1,8,0:1:0:0:
246,357,138196,6,0,P|305:361|409:375,1,160,2|2,3:1|3:1,0:0:0:0:
445,312,138742,1,8,0:1:0:0:
328,116,138923,6,0,B|337:219|377:172|377:278,1,160,6|0,2:1|3:0,0:0:0:0:
419,137,139469,2,0,P|421:98|428:52,1,80,8|0,0:1|0:0,0:0:0:0:
318,210,139832,1,0,3:0:0:0:
318,210,139923,1,8,0:1:0:0:
318,210,140014,1,0,3:0:0:0:
245,112,140196,1,8,0:1:0:0:
147,237,140378,2,0,P|124:241|109:248,1,40,2|2,0:0|0:0,0:0:0:0:
153,143,140560,6,0,P|193:155|243:163,1,80,6|0,2:1|3:0,0:0:0:0:
246,343,140923,2,0,P|206:350|168:361,1,80,10|0,0:1|0:0,0:0:0:0:
296,243,141287,2,0,L|464:261,1,160,2|8,3:1|0:1,0:0:0:0:
210,267,141832,6,0,L|42:285,1,160,2|2,3:1|3:1,0:0:0:0:
243,114,142378,2,0,B|225:148|225:148|234:189,1,80,8|2,0:1|0:1,0:0:0:0:
172,53,142742,1,0,3:0:0:0:
172,53,142832,1,8,0:1:0:0:
172,53,142923,1,0,3:0:0:0:
285,0,143105,1,8,0:1:0:0:
412,104,143287,1,0,3:0:0:0:
493,61,143469,6,0,P|405:80|328:93,1,160,6|8,2:1|0:1,0:0:0:0:
469,218,144014,1,0,0:0:0:0:
469,218,144196,2,0,P|429:207|389:201,1,80,2|0,3:1|3:0,0:0:0:0:
337,257,144560,1,8,0:1:0:0:
212,341,144742,6,0,B|116:312|130:386|41:355,1,160,2|0,3:1|3:0,0:0:0:0:
63,193,145287,2,0,P|72:231|76:276,1,80,8|2,0:1|0:1,0:0:0:0:
172,177,145651,1,0,3:0:0:0:
172,177,145742,1,8,0:1:0:0:
172,177,145832,1,0,3:0:0:0:
75,74,146014,1,8,0:1:0:0:
148,297,146196,6,2,B|295:248|257:338|421:369,1,288,6|2,2:1|0:1,0:1:0:0:
413,367,148196,1,2,0:1:0:0:
455,204,148560,5,2,0:0:0:0:
412,268,148742,1,0,3:0:0:0:
460,373,148923,1,8,0:1:0:0:
503,309,149105,1,0,3:0:0:0:
312,193,149287,6,0,P|320:270|326:343,1,128,4|8,0:0|0:0,0:0:0:0:
371,138,149832,2,0,L|440:101,1,64,8|0,0:0|0:0,0:0:0:0:
273,39,150196,5,0,3:0:0:0:
211,78,150378,1,8,0:0:0:0:
117,37,150560,2,0,L|46:22,1,64,0|0,3:0|0:0,0:0:0:0:
180,161,150923,2,0,L|196:243,1,64,0|0,3:0|3:0,0:0:0:0:
328,93,151287,5,8,0:0:0:0:
398,122,151469,1,8,0:0:0:0:
460,76,151651,1,0,0:0:0:0:
390,47,151832,1,2,0:0:0:0:
327,187,152014,6,0,L|254:212,1,64,0|0,0:0|3:0,0:0:0:0:
87,133,152378,1,0,0:0:0:0:
152,94,152560,1,8,0:0:0:0:
152,94,152742,1,8,0:0:0:0:
176,279,152923,6,0,P|173:236|165:189,1,64,0|0,0:0|3:0,0:0:0:0:
233,340,153287,1,8,0:0:0:0:
370,251,153469,2,0,L|445:275,1,64,0|0,3:0|0:0,0:0:0:0:
319,186,153832,2,0,P|310:120|297:49,1,128,0|8,3:0|0:0,0:0:0:0:
492,153,154378,5,2,0:0:0:0:
355,285,154560,2,0,B|228:259|271:370|152:376,1,220.000006713867,2|0,1:3|0:0,0:0:0:0:
148,355,155105,6,0,P|88:336|9:317,1,128,4|8,0:0|0:0,0:0:0:0:
174,198,155651,1,8,0:0:0:0:
75,145,155832,2,0,B|87:177|87:177|76:229,1,64,0|0,3:0|3:0,0:0:0:0:
222,80,156196,5,8,0:0:0:0:
166,29,156378,2,0,L|95:12,1,64,0|0,3:0|0:0,0:0:0:0:
246,158,156742,1,0,3:0:0:0:
190,209,156923,1,8,0:0:0:0:
239,267,157105,1,8,0:0:0:0:
66,345,157287,6,0,P|79:295|85:256,1,64,0|0,3:0|0:0,0:0:0:0:
193,103,157651,1,8,0:0:0:0:
246,158,157832,2,0,L|322:189,1,64,0|0,0:0|3:0,0:0:0:0:
474,98,158196,2,0,P|499:123|503:158,2,64,0|8|8,0:0|0:0|0:0,0:0:0:0:
376,258,158742,5,0,3:0:0:0:
408,188,158923,1,0,3:0:0:0:
325,77,159105,1,8,0:0:0:0:
371,17,159287,1,0,3:0:0:0:
226,76,159469,6,0,L|159:105,1,64,2|0,3:0|3:0,0:0:0:0:
315,257,159832,1,8,0:0:0:0:
219,334,160014,1,8,0:0:0:0:
306,149,160196,5,0,3:0:0:0:
316,142,160287,1,0,3:0:0:0:
345,138,160378,1,0,3:0:0:0:
385,153,160469,1,0,3:0:0:0:
416,196,160560,5,8,3:2:0:0:
468,210,160651,5,0,3:0:0:0:
506,161,160742,5,0,3:0:0:0:
473,96,160832,5,0,3:0:0:0:
473,96,160923,2,0,P|464:194|445:311,1,191.999994140625,6|8,2:1|0:1,0:0:0:0:
361,59,161469,6,0,L|265:19,1,95.9999970703126,2|0,0:1|3:0,0:0:0:0:
361,59,161832,1,0,3:0:0:0:
191,259,162014,5,10,0:1:0:0:
249,144,162196,2,2,P|262:203|263:262,1,95.9999970703126,6|0,2:1|0:0,1:0:0:0:
51,110,162560,2,0,B|24:216|90:191|57:318,1,191.999994140625,2|0,3:1|0:0,0:0:0:0:
163,77,163105,5,0,3:0:0:0:
111,18,163287,1,0,3:0:0:0:
147,104,163469,1,8,0:1:0:0:
294,33,163651,6,0,L|394:11,1,95.9999970703126,2|4,3:1|0:0,0:0:0:0:
242,186,164014,2,0,B|222:231|222:231|232:303,1,95.9999970703126,2|8,3:1|0:1,0:0:0:0:
341,166,164378,1,0,0:0:0:0:
133,72,164560,5,0,3:0:0:0:
133,72,164742,1,0,3:0:0:0:
197,28,164923,1,8,0:1:0:0:
143,202,165105,6,0,P|97:217|34:243,1,95.9999970703126,6|0,2:1|0:0,0:0:0:0:
244,104,165469,1,2,3:1:0:0:
354,253,165651,1,8,0:1:0:0:
420,212,165832,1,2,0:0:0:0:
446,238,165923,1,2,0:0:0:0:
444,273,166014,1,0,3:0:0:0:
255,208,166196,5,0,3:0:0:0:
424,104,166378,1,8,0:1:0:0:
240,21,166560,5,2,0:0:0:0:
240,21,166651,1,2,0:0:0:0:
240,21,166742,2,0,B|122:28|182:80|60:110,1,191.999994140625,6|8,2:1|0:1,0:0:0:0:
27,167,167287,1,0,0:0:0:0:
167,316,167469,5,0,3:0:0:0:
167,316,167651,1,0,3:0:0:0:
272,204,167832,1,8,0:1:0:0:
69,258,168014,6,0,P|63:308|54:368,1,95.9999970703126,6|0,2:1|0:0,0:0:0:0:
69,258,168378,1,2,3:1:0:0:
235,367,168560,1,8,0:1:0:0:
297,322,168742,2,0,L|367:335,2,47.9999985351563,2|2|0,0:0|0:0|3:0,0:0:0:0:
411,139,169105,5,0,3:0:0:0:
477,245,169287,1,8,0:1:0:0:
319,84,169469,6,0,P|310:134|312:179,1,95.9999970703126,6|0,2:1|0:0,0:0:0:0:
85,254,169832,2,0,P|94:204|92:159,1,95.9999970703126,2|8,3:1|0:1,0:0:0:0:
207,195,170196,5,0,0:0:0:0:
380,275,170378,1,0,3:0:0:0:
380,275,170560,1,0,3:0:0:0:
318,321,170742,1,8,0:1:0:0:
416,149,170923,6,0,B|462:133|462:133|533:171,1,95.9999970703126,2|0,3:1|3:0,0:0:0:0:
325,47,171287,6,2,B|275:62|275:62|257:90|257:90|202:109,1,128,2|2,2:0|2:0,2:0:0:0:
41,39,171832,5,0,3:0:0:0:
54,32,171923,1,0,3:0:0:0:
82,40,172014,1,0,3:0:0:0:
104,74,172105,1,0,3:0:0:0:
93,119,172196,5,8,3:1:0:0:
47,148,172287,5,0,3:0:0:0:
12,201,172378,5,0,3:0:0:0:
36,270,172469,5,0,3:0:0:0:
36,270,172560,2,0,P|122:281|243:301,1,191.999994140625,6|8,2:1|0:1,0:0:0:0:
458,154,173105,2,0,P|406:162|361:165,1,95.9999970703126,2|0,0:1|3:0,0:0:0:0:
458,154,173469,1,0,3:0:0:0:
362,164,173651,1,8,0:1:0:0:
306,331,173832,6,2,B|326:218|261:263|283:141,1,191.999994140625,6|0,2:1|3:0,1:2:0:0:
481,330,174378,2,0,P|432:327|385:345,1,95.9999970703126,8|0,0:1|0:0,0:0:0:0:
220,266,174742,5,0,3:0:0:0:
359,133,174923,1,0,3:0:0:0:
401,205,175105,1,8,0:1:0:0:
295,312,175287,6,0,P|186:327|85:345,1,191.999994140625,2|2,3:1|3:1,0:0:0:0:
410,224,175832,2,0,P|454:229|516:238,1,95.9999970703126,8|0,0:1|0:0,0:0:0:0:
303,102,176196,5,0,3:0:0:0:
246,228,176378,1,0,3:0:0:0:
328,201,176560,1,8,0:1:0:0:
255,7,176742,6,0,P|187:32|176:159,1,191.999994140625,6|2,2:1|3:1,0:0:0:0:
308,284,177287,2,0,P|317:329|322:382,1,95.9999970703126,8|0,0:1|0:0,0:0:0:0:
361,211,177651,5,0,3:0:0:0:
225,328,177832,1,0,3:0:0:0:
14,242,178014,1,8,0:1:0:0:
33,161,178196,5,2,0:0:0:0:
33,161,178287,1,2,0:0:0:0:
33,161,178378,2,0,L|234:191,1,191.999994140625,6|8,2:1|0:1,0:0:0:0:
266,127,178923,1,2,0:1:0:0:
425,238,179105,5,0,3:0:0:0:
354,266,179287,1,0,3:0:0:0:
167,326,179469,5,8,0:1:0:0:
233,361,179651,2,0,L|432:386,1,191.999994140625,6|2,2:1|3:1,0:0:0:0:
167,326,180196,2,0,L|66:341,1,95.9999970703126,8|0,0:1|0:0,0:0:0:0:
212,257,180560,5,0,3:0:0:0:
415,193,180742,1,0,3:0:0:0:
365,256,180923,5,8,0:1:0:0:
273,179,181105,1,2,0:0:0:0:
273,179,181196,1,2,0:0:0:0:
273,179,181287,2,0,P|296:136|434:123,1,191.999994140625,6|8,2:1|0:1,0:0:0:0:
431,121,181832,1,0,0:0:0:0:
259,60,182014,5,0,3:0:0:0:
139,33,182196,1,0,3:0:0:0:
209,0,182378,1,8,0:1:0:0:
147,215,182560,2,0,L|185:26,1,191.999994140625,6|2,0:1|3:1,0:0:0:0:
66,261,183105,6,0,B|109:240|109:240|161:254,1,95.9999970703126,8|0,0:1|0:0,0:0:0:0:
227,300,183469,5,0,3:0:0:0:
407,348,183651,1,0,3:0:0:0:
485,263,183832,5,8,0:1:0:0:
310,318,184014,1,2,0:0:0:0:
310,318,184105,1,2,0:0:0:0:
310,318,184196,1,6,2:1:0:0:
175,365,184378,5,0,3:0:0:0:
265,231,184560,1,8,0:1:0:0:
306,166,184742,1,0,0:0:0:0:
182,95,184923,6,0,L|168:-3,1,95.9999970703126,0|0,3:0|3:0,0:0:0:0:
182,95,185287,1,8,0:1:0:0:
23,215,185469,6,0,B|158:173|105:256|199:270,1,191.999994140625,6|2,2:1|3:1,0:0:0:0:
367,343,186014,2,0,P|411:350|461:365,1,95.9999970703126,8|0,0:1|0:0,0:0:0:0:
304,279,186378,5,0,3:0:0:0:
263,72,186560,1,0,3:0:0:0:
325,130,186742,5,8,0:1:0:0:
267,205,186923,1,2,0:0:0:0:
267,205,187014,1,2,0:0:0:0:
267,205,187105,2,0,P|306:165|431:186,1,191.999994140625,6|8,2:1|0:1,0:0:0:0:
403,256,187651,1,2,0:1:0:0:
213,342,187832,6,0,P|166:351|121:368,1,95.9999970703126,0|0,3:0|3:0,0:0:0:0:
213,342,188196,1,8,0:1:0:0:
72,192,188378,6,0,P|137:218|264:223,1,191.999994140625,6|2,2:1|3:1,0:0:0:0:
430,45,188923,2,0,P|389:29|324:29,1,95.9999970703126,8|0,0:1|0:0,0:0:0:0:
367,211,189287,5,0,3:0:0:0:
380,284,189469,1,0,3:0:0:0:
438,127,189651,5,8,0:1:0:0:
457,25,189832,1,2,0:0:0:0:
457,25,189923,1,2,0:0:0:0:
457,25,190014,1,6,2:1:0:0:
388,64,190196,5,0,3:0:0:0:
243,156,190378,2,0,L|144:174,1,95.9999970703126,8|2,0:1|0:1,0:0:0:0:
243,156,190742,5,0,3:0:0:0:
410,244,190923,1,0,3:0:0:0:
284,360,191105,1,8,0:1:0:0:
266,280,191287,6,0,P|275:128|280:77,1,191.999994140625,2|2,3:1|3:1,0:0:0:0:
160,350,191832,2,0,P|161:303|166:251,1,95.9999970703126,8|0,0:1|0:0,0:0:0:0:
365,316,192196,5,0,3:0:0:0:
438,340,192378,1,0,3:0:0:0:
239,224,192560,5,8,0:1:0:0:
173,262,192742,1,2,0:0:0:0:
173,262,192832,1,2,0:0:0:0:
173,262,192923,2,0,L|67:281,1,95.9999970703126,6|0,2:1|3:0,0:0:0:0:
16,326,193287,2,0,P|-8:291|31:150,1,191.999994140625,8|0,0:1|3:0,0:0:0:0:
98,181,193832,1,2,3:1:0:0:
290,247,194014,5,8,0:1:0:0:
430,305,194196,2,0,P|454:270|415:129,1,191.999994140625,6|0,2:1|3:0,0:0:0:0:
241,40,194742,2,0,P|193:52|143:53,1,95.9999970703126,8|0,0:1|0:0,0:0:0:0:
289,212,195105,5,0,3:0:0:0:
385,56,195287,1,0,3:0:0:0:
261,19,195469,5,8,0:1:0:0:
330,123,195651,2,0,L|342:316,1,160,6|0,2:1|3:0,0:0:0:0:
142,179,196196,2,0,B|139:140|139:140|164:92,1,80,8|0,0:1|0:0,0:0:0:0:
194,325,196560,5,2,3:1:0:0:
194,325,196742,1,0,3:0:0:0:
120,295,196923,1,8,0:1:0:0:
272,190,197105,5,2,0:0:0:0:
272,190,197196,1,2,0:0:0:0:
272,190,197287,2,0,P|315:175|365:164,1,80,2|0,3:1|3:0,0:0:0:0:
123,39,197651,1,8,0:1:0:0:
182,90,197832,2,0,L|188:145,2,40,2|2|0,0:1|0:0|3:0,0:0:0:0:
141,358,198196,5,2,3:1:0:0:
177,250,198378,1,8,0:1:0:0:
20,78,198560,6,0,P|34:189|40:263,1,160,6|0,2:1|3:0,0:0:0:0:
182,90,199105,2,0,L|267:59,1,80,8|0,0:1|0:0,0:0:0:0:
486,167,199469,5,2,3:1:0:0:
359,77,199651,1,0,3:0:0:0:
306,148,199832,5,8,0:1:0:0:
512,85,200014,1,2,0:0:0:0:
512,85,200105,1,2,0:0:0:0:
512,85,200196,2,0,L|489:252,1,160,2|8,3:1|0:1,0:0:0:0:
322,357,200742,6,0,L|315:313,2,40,2|2|0,0:1|0:0|3:0,0:0:0:0:
394,317,201105,1,2,3:1:0:0:
245,197,201287,1,8,0:1:0:0:
407,50,201469,6,0,B|318:29|331:108|228:101,1,160,6|0,2:1|3:0,0:0:0:0:
431,236,202014,2,0,L|523:265,1,80,8|0,0:1|0:0,0:0:0:0:
391,167,202378,5,2,3:1:0:0:
295,309,202560,1,0,3:0:0:0:
237,258,202742,1,8,0:1:0:0:
67,320,202923,5,2,0:0:0:0:
67,320,203014,1,2,0:0:0:0:
67,320,203105,2,0,P|120:334|168:350,1,80,2|0,3:1|3:0,0:0:0:0:
268,159,203469,1,8,0:1:0:0:
208,117,203651,2,0,B|190:153|190:153|197:208,1,80,2|0,0:1|3:0,0:0:0:0:
339,258,204014,5,2,3:1:0:0:
508,335,204196,1,8,0:1:0:0:
454,384,204378,6,0,P|467:305|480:190,1,160,6|0,2:1|3:0,0:0:0:0:
309,337,204923,2,0,P|270:346|210:371,1,80,8|0,0:1|0:0,0:0:0:0:
308,135,205287,2,0,P|269:126|209:101,1,80,2|0,3:1|3:0,0:0:0:0:
365,247,205651,1,8,0:1:0:0:
198,90,205832,5,2,0:0:0:0:
198,90,205923,1,2,0:0:0:0:
198,90,206014,2,0,B|274:104|257:146|342:167,1,160,2|8,3:1|0:1,0:0:0:0:
115,242,206560,2,0,L|70:253,2,40,2|2|0,0:1|0:0|3:0,0:0:0:0:
179,178,206923,5,2,3:1:0:0:
57,348,207105,1,8,0:1:0:0:
220,99,207287,6,0,P|208:212|207:291,1,160,6|0,2:1|3:0,0:0:0:0:
81,113,207832,2,0,B|75:75|75:75|97:18,1,80,8|0,0:1|0:0,0:0:0:0:
267,166,208196,5,2,3:1:0:0:
267,166,208378,1,0,3:0:0:0:
126,284,208560,1,8,0:1:0:0:
190,329,208742,6,0,L|197:382,2,40,2|2|2,0:0|0:0|3:1,0:0:0:0:
363,224,209105,1,0,3:0:0:0:
220,97,209287,1,8,0:1:0:0:
281,49,209469,2,0,P|328:61|372:79,1,80,2|0,0:1|3:0,0:0:0:0:
113,152,209832,5,2,3:1:0:0:
242,242,210014,1,8,0:1:0:0:
40,377,210196,6,0,P|103:340|192:340,1,160,6|0,2:1|3:0,0:0:0:0:
23,167,210742,2,0,P|11:209|14:263,1,80,8|0,0:1|0:0,0:0:0:0:
180,118,211105,5,2,3:1:0:0:
241,66,211287,1,0,3:0:0:0:
138,31,211469,1,8,0:1:0:0:
295,138,211651,5,2,0:0:0:0:
295,138,211742,1,2,0:0:0:0:
295,138,211832,2,0,L|389:166,1,80,2|0,3:1|3:0,0:0:0:0:
201,247,212196,1,8,0:1:0:0:
398,156,212378,2,0,L|390:204,2,40,2|2|0,0:1|0:0|3:0,0:0:0:0:
334,95,212742,5,2,3:1:0:0:
492,203,212923,1,8,0:1:0:0:
269,345,213105,6,0,B|262:253|312:280|299:169,1,160,6|0,2:1|3:0,0:0:0:0:
167,325,213651,2,0,P|118:338|68:362,1,80,8|0,0:1|0:0,0:0:0:0:
205,153,214014,5,2,3:1:0:0:
205,153,214196,1,0,3:0:0:0:
324,290,214378,1,8,0:1:0:0:
384,240,214560,1,0,0:0:0:0:
313,181,214742,5,2,3:1:0:0:
450,367,214923,2,0,L|470:185,1,160,0|2,3:0|0:1,0:0:0:0:
301,326,215469,2,0,P|250:342|206:365,1,80,0|2,3:0|3:1,0:0:0:0:
363,215,215832,5,8,0:1:0:0:
144,277,216014,2,0,B|235:284|209:340|305:362,1,160,6|0,2:1|3:0,0:0:0:0:
278,159,216560,2,0,B|239:147|239:147|179:169,1,80,8|0,0:1|0:0,0:0:0:0:
28,39,216923,2,0,B|64:52|64:52|103:40,1,80,2|0,3:1|3:0,0:0:0:0:
179,71,217287,1,8,0:1:0:0:
69,324,217469,5,2,0:0:0:0:
69,324,217560,1,2,0:0:0:0:
69,324,217651,2,0,P|74:245|77:137,1,160,2|8,3:1|0:1,0:0:0:0:
184,329,218196,2,0,L|229:349,2,40,2|2|0,0:1|0:0|3:0,0:0:0:0:
320,233,218560,5,2,3:1:0:0:
481,109,218742,1,8,3:1:0:0:
497,187,218923,1,2,0:1:0:0:
382,104,219105,5,0,3:0:0:0:
493,22,219287,2,0,B|318:13|386:153|235:170,1,312,2|0,2:1|0:0,0:0:0:0:
