osu file format v14

[General]
AudioFilename: audio.mp3
AudioLeadIn: 0
PreviewTime: 60364
Countdown: 0
SampleSet: Soft
StackLeniency: 0.7
Mode: 0
LetterboxInBreaks: 0
WidescreenStoryboard: 1

[Editor]
Bookmarks: 1995,108081
DistanceSpacing: 1.1
BeatDivisor: 4
GridSize: 4
TimelineZoom: 2

[Metadata]
Title:SKY HIGH (feat. rerone)
TitleUnicode:SKY↑HIGH (feat. rerone)
Artist:P4koo
ArtistUnicode:P4koo
Creator:Gero
Version:NORMAL!
Source:osu!
Tags:FA Featured Artist Mappers Mappers' Guild MPG MG 레로네 れろね Pakoo p4koochan IDOL POP Electronic Korean
BeatmapID:2617819
BeatmapSetID:1254502

[Difficulty]
HPDrainRate:4
CircleSize:4
OverallDifficulty:4
ApproachRate:5
SliderMultiplier:1.4
SliderTickRate:2

[Events]
//Background and Video events
0,0,"BG.jpg",0,0
//Break Periods
//Storyboard Layer 0 (Background)
//Storyboard Layer 1 (Fail)
//Storyboard Layer 2 (Pass)
//Storyboard Layer 3 (Foreground)
//Storyboard Layer 4 (Overlay)
//Storyboard Sound Samples

[TimingPoints]
1995,434.782608695653,4,2,2,50,1,0
8516,-100,4,2,1,40,0,0
8734,-100,4,2,1,60,0,0
8951,-100,4,2,1,80,0,1
15147,-100,4,2,3,80,0,1
15799,-100,4,2,3,80,0,0
15908,-100,4,2,1,80,0,1
22864,-100,4,2,2,60,0,0
36777,-100,4,2,1,60,0,0
50690,-100,4,2,2,50,0,0
57429,-100,4,2,1,50,0,0
61125,-100,4,2,1,80,0,1
66560,-100,4,2,3,80,0,1
67647,-100,4,2,1,80,0,1
74168,-100,4,2,3,80,0,1
74929,-100,4,2,1,80,0,0
75038,-100,4,2,1,80,0,1
80473,-100,4,2,3,80,0,1
81560,-100,4,2,1,80,0,1
85255,-100,4,2,1,80,0,1
88516,-100,4,2,1,40,0,0
88734,-100,4,2,1,60,0,0
88951,-100,4,2,1,80,0,1
91995,-100,4,2,3,80,0,1
92429,-100,4,2,1,80,0,1
95147,-100,4,2,3,80,0,1
95799,-100,4,2,1,80,0,0
95908,-100,4,2,1,70,0,0
103299,-100,4,2,1,50,0,0
103516,-100,4,2,1,60,0,0
104603,-100,4,2,1,40,0,0
106342,-100,4,2,1,20,0,0
108081,-100,4,2,1,5,0,0

[Colours]
Combo1 : 69,218,106
Combo2 : 84,203,224
Combo3 : 255,102,102
Combo4 : 239,129,181

[HitObjects]
256,84,1995,6,0,B|304:84|304:84|320:69|320:69|336:84|336:84|384:84,1,140,12|8,0:0|0:0,0:0:0:0:
434,23,2647,2,0,P|463:84|434:145,1,140,2|2,0:0|0:0,0:0:0:0:
384,206,3299,1,8,0:0:0:0:
256,300,3734,6,0,B|208:300|208:300|192:315|192:315|176:300|176:300|128:300,1,140,8|8,0:0|0:0,0:0:0:0:
78,361,4386,2,0,P|49:300|78:239,1,140,2|2,0:0|0:0,0:0:0:0:
128,178,5038,1,8,0:0:0:0:
256,84,5473,6,0,B|292:84|292:84|316:59,1,70,8|2,0:0|0:0,0:0:0:0:
391,59,5908,2,0,B|415:83|415:83|451:83,1,70,8|2,0:0|0:0,0:0:0:0:
452,160,6342,2,0,L|354:260,1,140,8|8,0:0|0:0,0:0:0:0:
256,160,7212,6,0,L|158:260,1,140,4|2,0:0|1:3,0:0:0:0:
103,314,7864,2,0,L|151:363,2,70,4|8|2,1:3|1:3|1:3,0:0:0:0:
48,259,8516,1,2,1:2:0:0:
103,114,8951,6,0,B|80:80|104:32|148:32|148:32|173:32,1,140,4|8,1:0|0:0,0:0:0:0:
338,32,9821,2,0,B|364:32|364:32|408:32|432:80|409:114,1,140,4|8,3:0|0:0,0:0:0:0:
479,148,10473,2,0,L|339:148,1,140,2|2,0:0|0:0,0:0:0:0:
276,192,11125,1,8,0:0:0:0:
339,236,11342,2,0,B|371:244|386:284|386:284|371:324|339:332,1,140,2|2,0:0|0:0,0:0:0:0:
276,376,11995,1,8,0:0:0:0:
152,284,12429,6,0,B|92:284|92:284|74:271|74:271|16:271,1,140,4|8,3:0|0:0,0:0:0:0:
16,112,13299,2,0,B|74:113|74:113|92:100|92:100|152:100,1,140,4|8,3:0|0:0,0:0:0:0:
213,145,13951,1,2,3:2:0:0:
276,192,14168,2,0,B|260:224|276:256|276:256|237:256,2,105,4|4|4,1:0|1:0|1:0,0:0:0:0:
344,160,15038,2,0,P|356:192|344:224,2,70,2|10|8,0:0|3:2|3:2,0:0:0:0:
496,192,15908,6,0,B|496:232|496:232|518:252|518:252|496:272|496:272|496:312,1,140,4|8,1:0|0:0,0:0:0:0:
344,312,16777,2,0,B|308:312|308:312|252:312|232:372,1,140,4|8,3:0|0:0,0:0:0:0:
169,328,17429,2,0,B|132:328|132:328|84:360|36:328,1,140,2|2,0:0|0:0,0:0:0:0:
84,268,18081,1,8,0:0:0:0:
36,208,18299,2,0,B|84:176|132:208|132:208|169:208,1,140,2|2,0:0|0:0,0:0:0:0:
232,164,18951,1,4,1:0:0:0:
295,120,19168,6,0,B|347:88|395:116|395:120|395:124|443:152|495:120,1,210,4|4,1:0|1:0,0:0:0:0:
372,208,20255,2,0,B|361:241|361:241|372:274,1,70,4|0,1:0|1:0,0:0:0:0:
428,328,20690,1,4,1:0:0:0:
373,382,20908,2,0,L|177:306,1,210,4|12,1:0|3:0,0:0:0:0:
161,152,21995,6,0,L|114:152,2,46.6666666666667,2|2|2,1:2|1:2|1:2,0:0:0:0:
212,152,22429,1,4,1:0:0:0:
256,88,22647,1,4,1:0:0:0:
300,152,22864,6,0,P|332:164|364:152,1,70,4|10,1:0|0:0,0:0:0:0:
408,216,23299,2,0,P|440:204|472:216,1,70,4|10,3:0|0:0,0:0:0:0:
440,288,23734,2,0,B|400:304|400:304|348:320|314:275,1,140,4|4,3:0|3:0,0:0:0:0:
212,152,24603,6,0,P|180:164|148:152,1,70,4|10,3:0|0:0,0:0:0:0:
104,216,25038,2,0,P|72:204|40:216,1,70,4|10,3:0|0:0,0:0:0:0:
72,288,25473,2,0,B|112:304|112:304|164:320|197:275,1,140,4|4,3:0|3:0,0:0:0:0:
300,152,26342,6,0,B|256:97|256:97|212:152,1,140,4|4,3:0|3:0,0:0:0:0:
157,96,26995,1,10,0:0:0:0:
212,40,27212,2,0,B|188:16|188:16|151:16,2,70,4|10|4,3:0|0:0|3:0,0:0:0:0:
355,96,28081,6,0,B|425:96,2,70,4|10|4,3:0|0:0|3:0,0:0:0:0:
300,152,28734,2,0,B|288:184|260:192|248:192|248:192|260:192|288:200|300:232,1,140,10|10,0:0|0:0,0:0:0:0:
355,288,29386,1,4,3:0:0:0:
200,288,29821,6,0,B|164:288|164:288|139:312,1,70,4|10,3:0|0:0,0:0:0:0:
100,248,30255,2,0,B|75:272|75:272|39:272,1,70,4|10,3:0|0:0,0:0:0:0:
40,196,30690,2,0,L|170:144,1,140,4|4,3:0|3:0,0:0:0:0:
312,96,31560,6,0,B|348:96|348:96|372:71,1,70,4|10,3:0|0:0,0:0:0:0:
412,136,31994,2,0,B|436:111|436:111|472:111,1,70,4|10,3:0|0:0,0:0:0:0:
472,188,32429,2,0,L|341:239,1,140,4|4,3:0|3:0,0:0:0:0:
200,288,33299,6,0,B|132:288|132:288|89:229,1,140,4|4,3:0|3:0,0:0:0:0:
89,154,33951,2,0,B|132:96|132:96|200:96,2,140,10|10|4,0:0|0:0|3:0,0:0:0:0:
156,192,35038,2,0,B|240:192|240:192|256:179|256:179|272:192|272:192|356:192,2,210,4|4|4,1:0|1:0|1:0,0:0:0:0:
88,332,36777,6,0,B|128:320|152:352|152:376|152:376|201:376,1,140,4|10,1:0|1:2,0:0:0:0:
256,320,37429,1,2,0:0:0:0:
310,376,37647,2,0,B|360:376|360:376|360:352|384:320|424:332,1,140,4|10,3:0|1:2,0:0:0:0:
356,192,38516,6,0,B|356:144|356:144|356:120|336:88|294:88,1,140,4|10,3:0|1:2,0:0:0:0:
217,88,39168,2,0,B|176:88|156:120|156:144|156:144|156:192,1,140,2|2,0:0|0:0,0:0:0:0:
80,192,39821,1,10,1:2:0:0:
156,324,40255,6,0,B|192:324|192:324|216:299,1,70,4|2,3:0|0:0,0:0:0:0:
295,299,40690,2,0,B|320:324|320:324|356:324,1,70,10|2,1:2|0:0,0:0:0:0:
434,324,41125,1,4,3:0:0:0:
512,192,41560,1,10,1:2:0:0:
434,60,41995,6,0,P|402:48|370:60,1,70,4|2,3:0|0:0,0:0:0:0:
313,112,42429,1,10,1:2:0:0:
256,60,42647,2,0,L|116:60,1,140,2|2,0:0|0:0,0:0:0:0:
38,60,43299,1,10,1:2:0:0:
116,192,43734,6,0,B|158:235|158:235|155:244|155:244|152:252|152:252|195:296,1,140,4|10,3:0|1:2,0:0:0:0:
256,248,44386,1,2,0:0:0:0:
316,296,44603,2,0,B|359:252|359:252|356:244|356:244|353:235|353:235|396:192,1,140,4|10,3:0|1:2,0:0:0:0:
396,37,45473,6,0,B|351:37|351:37|319:37|294:66|294:100,1,140,4|10,3:0|1:2,0:0:0:0:
217,100,46125,2,0,B|218:66|193:37|161:37|161:37|116:37,1,140,2|2,0:0|0:0,0:0:0:0:
38,37,46777,1,10,1:2:0:0:
116,172,47212,6,0,B|75:213|108:268|116:268|124:268|157:323|116:364,2,210,4|2|10,3:0|0:0|1:2,0:0:0:0:
193,172,48734,2,0,B|200:228|256:248|256:248|312:228|319:172,1,210,4|4,1:0|1:3,0:0:0:0:
396,172,49603,2,0,B|437:213|404:268|396:268|388:268|355:323|396:364,1,210,4|4,1:0|1:3,0:0:0:0:
256,320,50690,6,0,L|116:320,2,140,4|4|4,1:0|3:0|3:0,0:0:0:0:
344,192,51995,1,4,3:0:0:0:
256,64,52429,2,0,L|116:64,1,140,4|4,3:0|3:0,0:0:0:0:
38,64,53081,2,0,B|38:126|38:126|38:178|70:220|130:219,1,210,10|4,0:0|3:0,0:0:0:0:
256,300,54168,6,0,B|304:328|356:300|356:300|408:328|456:300,2,210,4|10|4,3:0|0:0|3:0,0:0:0:0:
305,240,55690,2,0,B|356:192|356:192|407:240,1,140,10|10,0:0|0:0,0:0:0:0:
456,180,56342,1,4,3:0:0:0:
407,120,56560,2,0,B|356:72|356:72|305:120,1,140,10|0,0:0|1:0,0:0:0:0:
256,60,57212,1,0,1:0:0:0:
207,120,57429,6,0,B|164:88|156:32|156:32|148:88|105:120,1,210,4|6,1:0|1:3,0:0:0:0:
156,264,58516,1,6,1:3:0:0:
156,264,58734,2,0,B|192:264|192:264|217:286,1,70,6|2,1:3|1:2,0:0:0:0:
294,286,59168,6,0,P|318:222|294:158,1,140,4|10,1:0|1:3,0:0:0:0:
218,158,59821,2,0,P|194:222|218:286,1,140,14|6,1:3|3:0,0:0:0:0:
356,356,60690,1,8,1:3:0:0:
494,286,61125,6,0,B|522:222|522:222|494:158,1,140,4|8,1:0|1:2,0:0:0:0:
356,222,61995,2,0,B|384:158|384:158|356:94,1,140,4|8,3:0|1:2,0:0:0:0:
308,158,62647,2,0,B|256:111|256:111|204:158,1,140,2|2,0:0|0:0,0:0:0:0:
156,94,63299,1,8,1:2:0:0:
156,94,63516,2,0,B|128:158|128:158|156:222,1,140,2|2,0:0|0:0,0:0:0:0:
78,222,64168,1,10,1:2:0:0:
156,356,64603,6,0,B|236:356|236:356|256:341|256:341|276:356|276:356|356:356,2,210,4|2|8,3:0|0:0|1:2,0:0:0:0:
234,222,66342,2,0,L|297:97,1,140,4|8,3:0|1:2,0:0:0:0:
358,49,66995,2,0,P|298:19|238:49,1,140,2|2,0:0|0:0,0:0:0:0:
175,97,67647,1,8,1:2:0:0:
52,192,68081,6,0,P|24:254|52:316,1,140,4|8,1:0|1:2,0:0:0:0:
193,254,68951,2,0,B|256:224|256:224|319:254,1,140,4|8,3:0|1:2,0:0:0:0:
364,192,69603,2,0,B|364:120|364:120|296:120,1,140,2|2,0:0|0:0,0:0:0:0:
256,56,70255,1,8,1:2:0:0:
216,120,70473,2,0,B|148:120|148:120|148:192,1,140,2|2,0:0|0:0,0:0:0:0:
193,254,71125,5,8,1:2:0:0:
193,254,71342,2,0,P|256:228|319:254,1,140,4|4,1:0|1:0,0:0:0:0:
364,192,71995,1,4,1:0:0:0:
319,339,72429,2,0,B|319:375|319:375|256:348|256:348|193:375|193:375|193:339,2,210,4|4|6,1:0|1:0|1:3,0:0:0:0:
364,192,74168,2,0,L|448:192,2,70,8|0|8,1:2|1:0|1:2,0:0:0:0:
319,45,75038,6,0,P|256:19|193:45,1,140,4|8,1:0|1:2,0:0:0:0:
67,135,75908,2,0,P|130:109|193:135,1,140,4|8,3:0|1:2,0:0:0:0:
256,90,76560,2,0,L|380:154,1,140,2|2,0:0|0:0,0:0:0:0:
448,192,77212,1,8,1:2:0:0:
380,229,77429,2,0,L|256:294,1,140,2|2,0:0|0:0,0:0:0:0:
201,348,78081,1,10,1:2:0:0:
67,249,78516,6,0,P|32:192|67:135,1,140,4|8,3:0|1:2,0:0:0:0:
121,80,79168,1,2,0:0:0:0:
175,135,79386,2,0,L|214:232,2,105,4|2|2,3:0|0:0|0:0,0:0:0:0:
229,80,80255,6,0,B|300:80|300:80|348:31,1,140,4|8,3:0|1:2,0:0:0:0:
426,31,80908,2,0,L|426:171,1,140,2|2,0:0|0:0,0:0:0:0:
503,171,81560,1,8,1:2:0:0:
426,304,81995,2,0,B|385:263|330:296|330:304|330:312|275:345|234:304,2,210,4|2|8,1:0|0:0|1:2,0:0:0:0:
349,171,83734,6,0,L|292:42,1,140,4|8,3:0|1:2,0:0:0:0:
219,42,84386,2,0,L|163:171,1,140,2|2,0:0|0:0,0:0:0:0:
218,225,85038,1,8,1:2:0:0:
294,225,85255,6,0,B|294:265|329:281|329:281|294:297|294:337,1,140,4|4,1:0|1:0,0:0:0:0:
218,336,85908,2,0,B|218:296|183:280|183:280|218:264|218:224,1,140,4|4,1:0|1:0,0:0:0:0:
217,70,86777,1,4,1:0:0:0:
217,70,86995,2,0,B|256:12|256:12|295:70,1,140,4|4,1:0|1:3,0:0:0:0:
332,140,87647,5,4,1:3:0:0:
256,281,88081,1,6,1:3:0:0:
180,140,88516,1,2,1:2:0:0:
104,281,88951,6,0,B|104:352|104:352|173:352,1,140,4|8,1:0|0:0,0:0:0:0:
339,352,89821,2,0,B|408:352|408:352|408:281,1,140,4|8,3:0|0:0,0:0:0:0:
478,248,90473,2,0,L|338:248,1,140,2|2,0:0|0:0,0:0:0:0:
284,192,91125,1,8,0:0:0:0:
338,136,91342,2,0,B|316:80|256:80|256:80|222:80,1,140,2|2,0:0|0:0,0:0:0:0:
144,80,91995,1,8,0:0:0:0:
40,192,92429,6,0,B|56:156|92:150|92:150|128:156|144:192,1,140,4|8,3:0|0:0,0:0:0:0:
248,304,93299,2,0,B|232:268|196:262|196:262|160:268|144:304,1,140,4|8,3:0|0:0,0:0:0:0:
92,248,93951,1,2,3:2:0:0:
40,304,94168,6,0,L|-5:209,1,105,4|4,1:0|1:0,0:0:0:0:
92,136,94821,2,0,L|46:41,2,105,4|8|8,1:0|0:0|3:2,0:0:0:0:
144,80,95690,1,10,3:2:0:0:
200,136,95908,6,0,P|256:100|312:136,1,140,4|8,0:0|0:0,0:0:0:0:
312,288,96777,2,0,P|256:324|200:288,1,140,0|8,0:0|0:0,0:0:0:0:
256,236,97429,6,0,L|256:376,1,140,2|2,0:0|0:0,0:0:0:0:
333,376,98081,1,8,0:0:0:0:
410,376,98299,2,0,L|410:236,1,140,2|2,0:0|0:0,0:0:0:0:
476,192,98951,1,8,0:0:0:0:
410,148,99168,2,0,L|410:8,1,140,4|4,1:0|1:0,0:0:0:0:
333,8,99821,1,4,1:0:0:0:
256,135,100255,6,0,L|256:65,2,70,4|8|4,1:0|0:0|1:0,0:0:0:0:
196,192,100908,2,0,B|232:192|256:222|256:222|280:192|316:192,1,140,4|0,1:0|1:0,0:0:0:0:
376,244,101560,1,0,1:0:0:0:
256,344,101995,6,0,L|256:297,2,46.6666666666667,2|2|2,1:2|1:2|1:2,0:0:0:0:
219,380,102429,1,4,1:0:0:0:
141,380,102647,1,4,1:0:0:0:
8,192,103299,5,2,0:0:0:0:
256,192,103516,12,0,108081,0:0:0:0:
