osu file format v14

[General]
AudioFilename: audio.mp3
AudioLeadIn: 0
PreviewTime: 60364
Countdown: 0
SampleSet: Soft
StackLeniency: 0.4
Mode: 0
LetterboxInBreaks: 0
WidescreenStoryboard: 1

[Editor]
Bookmarks: 1995,108081
DistanceSpacing: 1.4
BeatDivisor: 4
GridSize: 4
TimelineZoom: 2

[Metadata]
Title:SKY HIGH (feat. rerone)
TitleUnicode:SKY↑HIGH (feat. rerone)
Artist:P4koo
ArtistUnicode:P4koo
Creator:Gero
Version:INSANE!
Source:osu!
Tags:FA Featured Artist Mappers Mappers' Guild MPG MG 레로네 れろね Pakoo p4koochan IDOL POP Electronic Korean
BeatmapID:2640270
BeatmapSetID:1254502

[Difficulty]
HPDrainRate:6
CircleSize:4
OverallDifficulty:8
ApproachRate:9
SliderMultiplier:1.65
SliderTickRate:2

[Events]
//Background and Video events
0,0,"BG.jpg",0,0
//Break Periods
//Storyboard Layer 0 (Background)
//Storyboard Layer 1 (Fail)
//Storyboard Layer 2 (Pass)
//Storyboard Layer 3 (Foreground)
//Storyboard Layer 4 (Overlay)
//Storyboard Sound Samples

[TimingPoints]
1995,434.782608695653,4,2,2,50,1,0
8516,-100,4,2,1,40,0,0
8734,-100,4,2,1,60,0,0
8951,-66.6666666666667,4,2,1,80,0,1
15147,-66.6666666666667,4,2,3,80,0,1
15799,-66.6666666666667,4,2,3,80,0,0
15908,-66.6666666666667,4,2,1,80,0,1
22864,-83.3333333333333,4,2,2,60,0,0
36777,-76.9230769230769,4,2,1,60,0,0
50690,-83.3333333333333,4,2,2,50,0,0
57429,-80,4,2,1,50,0,0
61125,-66.6666666666667,4,2,1,80,0,1
66560,-66.6666666666667,4,2,3,80,0,1
67647,-66.6666666666667,4,2,1,80,0,1
74168,-66.6666666666667,4,2,3,80,0,1
74929,-66.6666666666667,4,2,1,80,0,0
75038,-66.6666666666667,4,2,1,80,0,1
80473,-66.6666666666667,4,2,3,80,0,1
81560,-66.6666666666667,4,2,1,80,0,1
88516,-100,4,2,1,40,0,0
88734,-100,4,2,1,60,0,0
88951,-66.6666666666667,4,2,1,80,0,1
91995,-66.6666666666667,4,2,3,80,0,1
92429,-66.6666666666667,4,2,1,80,0,1
95147,-66.6666666666667,4,2,3,80,0,1
95799,-66.6666666666667,4,2,1,80,0,0
95908,-83.3333333333333,4,2,1,70,0,0
103299,-83.3333333333333,4,2,1,50,0,0
103408,-83.3333333333333,4,2,1,60,0,0
104603,-83.3333333333333,4,2,1,40,0,0
106342,-83.3333333333333,4,2,1,20,0,0
108081,-83.3333333333333,4,2,1,5,0,0

[Colours]
Combo1 : 69,218,106
Combo2 : 84,203,224
Combo3 : 255,102,102
Combo4 : 239,129,181

[HitObjects]
410,152,1995,6,0,B|402:192|402:192|410:232,1,82.5,12|2,0:0|0:0,0:0:0:0:
478,192,2321,1,0,0:0:0:0:
478,192,2429,1,8,0:0:0:0:
324,153,2647,2,0,P|312:192|324:231,1,82.5,2|8,0:0|0:0,0:0:0:0:
323,329,3081,5,2,0:0:0:0:
295,358,3190,1,0,0:0:0:0:
256,369,3299,1,8,0:0:0:0:
216,359,3408,1,0,0:0:0:0:
189,329,3516,1,2,0:0:0:0:
102,232,3734,6,0,B|110:192|110:192|102:152,1,82.5,8|2,0:0|0:0,0:0:0:0:
34,192,4060,1,0,0:0:0:0:
34,192,4168,1,8,0:0:0:0:
188,231,4386,2,0,P|200:192|188:153,1,82.5,2|8,0:0|0:0,0:0:0:0:
189,55,4821,5,2,0:0:0:0:
216,25,4929,1,0,0:0:0:0:
255,14,5038,1,8,0:0:0:0:
295,24,5147,1,0,0:0:0:0:
322,54,5255,1,2,0:0:0:0:
324,153,5473,6,0,B|295:230,1,82.5,8|2,0:0|0:0,0:0:0:0:
216,230,5799,1,0,0:0:0:0:
216,230,5908,2,0,B|188:153,1,82.5,8|2,0:0|0:0,0:0:0:0:
256,80,6342,1,8,0:0:0:0:
324,153,6560,5,2,0:0:0:0:
291,167,6668,1,0,0:0:0:0:
255,172,6777,1,8,0:0:0:0:
220,167,6886,1,0,0:0:0:0:
187,152,6995,5,2,0:0:0:0:
256,40,7212,1,4,0:0:0:0:
324,153,7429,6,0,L|365:153,1,41.25,4|4,3:0|3:0,0:0:0:0:
486,191,7647,5,2,1:3:0:0:
453,216,7755,1,2,1:3:0:0:
412,216,7864,1,4,1:3:0:0:
378,192,7973,1,2,1:3:0:0:
365,153,8081,1,8,1:3:0:0:
378,114,8190,1,8,1:3:0:0:
412,90,8299,1,2,1:3:0:0:
453,90,8408,1,2,1:3:0:0:
486,115,8516,5,2,1:2:0:0:
365,153,8734,1,2,0:0:0:0:
486,191,8951,6,0,B|486:229|486:229|486:275|443:297,1,123.750004720688,4|2,1:0|0:0,0:0:0:0:
380,350,9277,1,0,0:0:0:0:
317,297,9386,2,0,B|256:288|256:288|195:297,1,123.750004720688,8|2,0:0|0:0,0:0:0:0:
26,193,9821,6,0,B|26:155|26:155|26:109|69:87,1,123.750004720688,4|2,3:0|0:0,0:0:0:0:
132,34,10147,1,0,0:0:0:0:
195,87,10255,2,0,B|256:96|256:96|317:87,1,123.750004720688,8|2,0:0|0:0,0:0:0:0:
486,192,10690,6,0,B|450:188|434:163|434:163|418:188|382:192,1,123.750004720688,4|2,3:0|0:0,0:0:0:0:
434,256,11016,1,0,0:0:0:0:
434,256,11125,2,0,P|443:285|434:314,1,61.875002360344,8|0,0:0|0:0,0:0:0:0:
382,378,11342,1,2,0:0:0:0:
130,378,11560,5,4,3:0:0:0:
130,378,11668,1,8,0:0:0:0:
78,314,11777,2,0,P|69:285|78:256,1,61.875002360344,2|0,0:0|0:0,0:0:0:0:
26,192,11995,2,0,B|62:188|78:163|78:163|94:188|130:192,1,123.750004720688,8|2,0:0|0:0,0:0:0:0:
317,88,12429,6,0,B|337:104|337:104|337:176|337:176|317:192,1,123.750004720688,4|2,3:0|0:0,0:0:0:0:
256,140,12755,1,0,0:0:0:0:
195,192,12864,2,0,B|175:176|175:176|175:104|175:104|195:88,1,123.750004720688,8|2,0:0|0:0,0:0:0:0:
317,192,13299,6,0,B|336:221|336:221|360:261|337:306,1,123.750004720688,4|2,3:0|0:0,0:0:0:0:
256,305,13625,1,0,0:0:0:0:
174,306,13734,2,0,B|152:261|176:221|176:221|195:192,1,123.750004720688,8|2,0:0|3:2,0:0:0:0:
317,88,14168,6,0,B|370:88|370:88|378:92|378:92|386:88|386:88|439:88,1,123.750004720688,4|2,1:0|0:0,0:0:0:0:
317,9,14495,2,0,B|264:9|264:9|256:5|256:5|248:9|248:9|195:9,1,123.750004720688,4|0,1:0|0:0,0:0:0:0:
73,88,14821,2,0,B|126:88|126:88|134:92|134:92|142:88|142:88|195:88,1,123.750004720688,4|2,1:0|0:0,0:0:0:0:
256,161,15147,5,8,0:0:0:0:
256,161,15255,1,10,3:2:0:0:
256,161,15364,1,8,0:0:0:0:
256,161,15473,2,0,L|256:223,1,61.875002360344,8|0,3:2|0:0,0:0:0:0:
304,304,15690,5,10,3:2:0:0:
304,304,15799,1,8,3:2:0:0:
304,304,15908,2,0,B|288:332|256:340|256:340|224:332|208:304,1,123.750004720688,4|2,1:0|0:0,0:0:0:0:
164,372,16234,1,0,0:0:0:0:
120,304,16342,2,0,B|104:332|72:340|72:340|40:332|24:304,1,123.750004720688,8|2,0:0|0:0,0:0:0:0:
208,80,16777,6,0,B|224:52|256:44|256:44|288:52|304:80,1,123.750004720688,4|2,3:0|0:0,0:0:0:0:
348,12,17103,1,0,0:0:0:0:
392,80,17212,2,0,B|408:52|440:44|440:44|472:52|488:80,1,123.750004720688,8|2,0:0|0:0,0:0:0:0:
304,304,17647,6,0,P|256:337|208:304,1,123.750004720688,4|2,3:0|0:0,0:0:0:0:
164,236,17973,1,2,0:0:0:0:
164,236,18081,2,0,B|184:209|184:209|184:180,1,61.875002360344,8|0,0:0|0:0,0:0:0:0:
184,99,18299,1,2,0:0:0:0:
348,236,18516,5,4,3:0:0:0:
348,236,18625,1,8,0:0:0:0:
348,236,18734,2,0,B|328:209|328:209|328:180,1,61.875002360344,2|0,0:0|0:0,0:0:0:0:
328,99,18951,5,4,1:0:0:0:
256,241,19168,1,4,1:0:0:0:
256,241,19386,1,8,0:0:0:0:
184,99,19603,1,4,1:0:0:0:
328,99,19821,5,4,1:0:0:0:
328,99,19929,1,0,1:0:0:0:
184,99,20147,1,0,1:0:0:0:
184,99,20255,1,4,1:0:0:0:
256,241,20473,1,0,1:0:0:0:
328,99,20690,5,4,1:0:0:0:
328,119,20799,1,2,3:0:0:0:
328,139,20908,1,4,1:0:0:0:
328,159,21016,1,0,1:0:0:0:
328,179,21125,6,0,L|357:233,3,61.875002360344,4|4|12|4,3:0|3:0|3:0|3:0,0:0:0:0:
184,176,21560,2,0,L|154:230,3,61.875002360344,12|4|12|4,3:0|3:0|3:0|3:0,0:0:0:0:
256,100,21995,6,0,B|256:72|256:72|252:64|252:64|260:64|260:64|256:56|256:56|256:28,2,82.5000031471254,2|2|2,1:2|1:2|1:2,0:0:0:0:
256,100,22429,1,4,1:0:0:0:
256,316,22647,1,4,1:0:0:0:
298,172,22864,6,0,B|334:172|334:172|342:161|342:161|350:172|350:172|386:172,1,98.9999969787599,4|10,1:0|0:0,0:0:0:0:
428,100,23190,1,0,0:0:0:0:
470,172,23299,2,0,B|428:261,1,98.9999969787599,4|10,3:0|0:0,0:0:0:0:
214,172,23734,6,0,B|178:172|178:172|170:161|170:161|162:172|162:172|126:172,1,98.9999969787599,4|10,3:0|0:0,0:0:0:0:
84,100,24060,1,0,0:0:0:0:
42,172,24168,2,0,B|84:261,1,98.9999969787599,4|10,3:0|0:0,0:0:0:0:
298,172,24603,6,0,P|256:150|214:172,1,98.9999969787599,4|10,3:0|0:0,0:0:0:0:
256,244,24929,1,0,0:0:0:0:
256,244,25038,2,0,B|256:281|256:281|252:289|252:289|260:289|260:289|256:297|256:297|256:334,1,98.9999969787599,4|10,3:0|0:0,0:0:0:0:
340,100,25473,6,0,B|324:72|340:44|340:44|299:44,1,98.9999969787599,4|10,3:0|0:0,0:0:0:0:
256,116,25799,1,0,0:0:0:0:
212,44,25908,2,0,B|172:44|172:44|188:72|172:100,1,98.9999969787599,4|10,3:0|0:0,0:0:0:0:
86,333,26342,6,0,B|122:333|122:333|130:321|130:321|138:333|138:333|174:333,1,98.9999969787599,4|10,3:0|0:0,0:0:0:0:
256,333,26668,1,0,0:0:0:0:
339,333,26777,2,0,B|374:333|374:333|382:321|382:321|390:333|390:333|426:333,1,98.9999969787599,4|10,3:0|0:0,0:0:0:0:
499,125,27212,6,0,B|479:125|479:125|451:125|427:101|427:75,1,98.9999969787599,4|10,3:0|0:0,0:0:0:0:
378,6,27538,1,0,0:0:0:0:
328,75,27647,2,0,B|328:100|304:124|276:124|276:124|256:124,1,98.9999969787599,4|10,3:0|0:0,0:0:0:0:
13,125,28081,6,0,B|33:125|33:125|61:125|85:101|85:75,1,98.9999969787599,4|10,3:0|0:0,0:0:0:0:
134,6,28408,1,0,0:0:0:0:
184,75,28516,2,0,B|184:100|208:124|236:124|236:124|256:124,1,98.9999969787599,4|10,3:0|0:0,0:0:0:0:
382,280,28951,6,0,L|309:347,1,98.9999969787599,4|10,3:0|0:0,0:0:0:0:
256,280,29277,1,0,0:0:0:0:
202,347,29386,2,0,L|130:280,1,98.9999969787599,4|10,3:0|0:0,0:0:0:0:
319,126,29821,6,0,L|319:225,1,98.9999969787599,4|10,3:0|0:0,0:0:0:0:
256,280,30147,1,0,0:0:0:0:
193,225,30255,2,0,L|193:126,1,98.9999969787599,4|10,3:0|0:0,0:0:0:0:
402,64,30690,6,0,B|354:64|374:64|334:64|319:26,1,98.9999969787599,4|10,3:0|0:0,0:0:0:0:
256,84,31016,1,0,0:0:0:0:
193,26,31125,2,0,B|177:64|137:64|157:64|109:64,1,98.9999969787599,4|10,3:0|0:0,0:0:0:0:
319,225,31560,6,0,L|368:225,1,49.4999984893799,4|0,3:0|0:0,0:0:0:0:
256,280,31777,1,10,0:0:0:0:
256,280,31886,1,0,0:0:0:0:
256,280,31995,2,0,B|212:280|212:280|208:288|208:288|161:288,1,98.9999969787599,4|10,3:0|0:0,0:0:0:0:
256,104,32429,6,0,B|212:104|212:104|208:96|208:96|161:96,1,98.9999969787599,4|10,3:0|0:0,0:0:0:0:
109,30,32755,1,0,0:0:0:0:
57,96,32864,2,0,L|34:192,1,98.9999969787599,4|10,3:0|0:0,0:0:0:0:
256,280,33299,6,0,B|212:280|212:280|208:288|208:288|161:288,1,98.9999969787599,4|10,3:0|0:0,0:0:0:0:
109,354,33625,1,0,0:0:0:0:
57,288,33734,2,0,L|34:192,1,98.9999969787599,4|10,3:0|0:0,0:0:0:0:
256,104,34168,6,0,L|305:104,1,49.4999984893799,4|0,3:0|0:0,0:0:0:0:
387,104,34386,1,10,0:0:0:0:
256,280,34603,2,0,L|305:280,1,49.4999984893799,4|0,3:0|0:0,0:0:0:0:
387,280,34821,1,4,3:0:0:0:
256,192,35038,5,4,1:0:0:0:
125,280,35255,1,6,1:3:0:0:
125,280,35364,1,6,1:3:0:0:
125,280,35473,1,6,1:3:0:0:
256,148,35690,5,4,1:0:0:0:
387,280,35908,1,6,1:3:0:0:
387,280,36016,1,6,1:3:0:0:
387,280,36125,1,6,1:3:0:0:
256,104,36342,5,4,1:0:0:0:
125,280,36560,5,6,1:3:0:0:
125,280,36668,1,6,1:3:0:0:
125,280,36777,2,0,B|72:280|72:280|25:251,1,107.249995090485,4|2,1:0|0:0,0:0:0:0:
88,192,37103,1,0,0:0:0:0:
25,132,37212,2,0,B|72:104|72:104|125:104,1,107.249995090485,10|2,1:2|0:0,0:0:0:0:
297,104,37647,6,0,B|341:104|341:104|349:109|349:109|357:104|357:104|401:104,1,107.249995090485,4|2,3:0|0:0,0:0:0:0:
473,56,37973,1,0,0:0:0:0:
473,56,38081,2,0,P|493:104|473:152,1,107.249995090485,10|2,1:2|0:0,0:0:0:0:
297,192,38516,6,0,P|277:240|297:288,1,107.249995090485,4|2,3:0|0:0,0:0:0:0:
349,360,38842,1,0,0:0:0:0:
349,360,38951,2,0,B|297:372|297:372|245:360,1,107.249995090485,10|2,1:2|0:0,0:0:0:0:
116,244,39386,6,0,B|96:192|116:140,1,107.249995090485,4|2,3:0|0:0,0:0:0:0:
168,68,39712,1,0,0:0:0:0:
168,68,39821,2,0,B|116:88|64:68,1,107.249995090485,10|2,1:2|0:0,0:0:0:0:
220,140,40255,6,0,B|233:192|233:192|220:244,1,107.249995090485,4|2,3:0|0:0,0:0:0:0:
168,316,40581,1,0,0:0:0:0:
168,316,40690,2,0,B|220:303|220:303|272:316,1,107.249995090485,10|2,1:2|0:0,0:0:0:0:
392,192,41125,6,0,B|392:140|392:140|447:140,1,107.249995090485,4|2,3:0|0:0,0:0:0:0:
496,68,41451,1,0,0:0:0:0:
496,68,41560,2,0,L|388:68,1,107.249995090485,10|2,1:2|0:0,0:0:0:0:
216,68,41995,6,0,B|216:104|216:104|216:128|196:152|171:151,1,107.249995090485,4|2,3:0|0:0,0:0:0:0:
96,192,42321,1,0,0:0:0:0:
96,192,42429,2,0,L|42:192,1,53.6249975452424,10|0,1:2|0:0,0:0:0:0:
172,232,42647,1,2,0:0:0:0:
296,68,42864,6,0,B|296:104|296:104|296:128|316:152|340:151,1,107.249995090485,4|2,3:0|0:0,0:0:0:0:
416,192,43190,1,0,0:0:0:0:
416,192,43299,2,0,L|469:192,1,53.6249975452424,10|0,1:2|0:0,0:0:0:0:
339,232,43516,1,10,1:2:0:0:
215,67,43734,6,0,B|243:59|255:34|255:34|267:59|295:67,1,107.249995090485,4|2,3:0|0:0,0:0:0:0:
256,144,44060,1,0,0:0:0:0:
256,144,44168,2,0,L|150:122,1,107.249995090485,10|2,1:2|0:0,0:0:0:0:
215,317,44603,6,0,B|243:325|255:350|255:350|267:325|295:317,1,107.249995090485,4|2,3:0|0:0,0:0:0:0:
256,240,44929,1,0,0:0:0:0:
256,240,45038,2,0,L|150:261,1,107.249995090485,10|2,1:2|0:0,0:0:0:0:
340,192,45473,6,0,B|381:192|381:192|389:188|389:188|389:196|389:196|397:192|397:192|438:192,1,107.249995090485,4|2,3:0|0:0,0:0:0:0:
496,128,45799,1,0,0:0:0:0:
496,128,45908,2,0,B|476:108|476:108|476:82,1,53.6249975452424,10|0,1:2|0:0,0:0:0:0:
389,82,46125,1,2,0:0:0:0:
172,192,46342,6,0,B|131:192|131:192|123:188|123:188|123:196|123:196|115:192|115:192|74:192,1,107.249995090485,4|2,3:0|0:0,0:0:0:0:
16,128,46668,1,0,0:0:0:0:
16,128,46777,2,0,B|36:108|36:108|36:82,1,53.6249975452424,10|0,1:2|0:0,0:0:0:0:
123,82,46995,1,2,0:0:0:0:
256,192,47212,6,0,B|256:299,1,107.249995090485,4|2,3:0|0:0,0:0:0:0:
202,366,47538,1,0,0:0:0:0:
202,366,47647,2,0,B|309:366,1,107.249995090485,10|2,1:2|0:0,0:0:0:0:
256,192,48081,6,0,B|256:84,1,107.249995090485,4|2,3:0|0:0,0:0:0:0:
342,84,48408,1,0,0:0:0:0:
342,84,48516,1,10,1:2:0:0:
170,84,48734,1,4,1:0:0:0:
256,192,48951,6,0,B|280:228|264:268|256:268|248:268|232:308|256:344,1,160.874992635727,4|4,1:3|1:3,0:0:0:0:
332,305,49386,2,0,L|385:305,1,53.6249975452424,4|0,1:3|1:0,0:0:0:0:
462,344,49603,5,4,1:0:0:0:
462,311,49712,1,2,1:3:0:0:
462,278,49821,1,2,1:3:0:0:
462,244,49929,1,2,1:3:0:0:
462,212,50038,5,4,1:3:0:0:
342,84,50255,1,4,1:3:0:0:
170,84,50473,1,4,1:3:0:0:
50,212,50690,6,0,B|80:232|80:284|80:284|147:284,1,148.49999546814,4|0,1:0|0:0,0:0:0:0:
212,328,51125,2,0,P|192:284|212:240,1,98.9999969787599,4|10,3:0|0:0,0:0:0:0:
462,212,51560,6,0,B|432:232|432:284|432:284|364:284,1,148.49999546814,4|0,3:0|0:0,0:0:0:0:
300,328,51995,2,0,P|320:284|300:240,1,98.9999969787599,4|10,3:0|0:0,0:0:0:0:
170,84,52429,6,0,B|170:135|170:135|218:135,1,98.9999969787599,4|10,3:0|0:0,0:0:0:0:
256,68,52755,1,0,0:0:0:0:
294,135,52864,2,0,B|342:135|342:135|342:84,1,98.9999969787599,4|10,3:0|0:0,0:0:0:0:
300,240,53299,6,0,B|268:252|256:296|256:296|244:252|212:240,1,148.49999546814,4|0,3:0|0:0,0:0:0:0:
180,312,53734,1,4,3:0:0:0:
332,312,53951,1,10,0:0:0:0:
442,192,54168,6,0,B|442:152|414:120|370:120|370:120|335:120,1,148.49999546814,4|0,3:0|0:0,0:0:0:0:
256,120,54603,2,0,B|268:72|268:72|256:24,1,98.9999969787599,4|10,3:0|0:0,0:0:0:0:
70,192,55038,6,0,B|70:232|98:264|142:264|142:264|176:264,1,148.49999546814,4|0,3:0|0:0,0:0:0:0:
256,264,55473,2,0,B|244:312|244:312|256:360,1,98.9999969787599,4|10,3:0|0:0,0:0:0:0:
442,192,55908,6,0,B|454:144|454:144|442:96,1,98.9999969787599,4|10,3:0|0:0,0:0:0:0:
380,144,56234,1,0,0:0:0:0:
380,144,56342,2,0,B|332:144|332:144|295:107,1,98.9999969787599,4|10,3:0|0:0,0:0:0:0:
160,192,56777,5,4,3:0:0:0:
296,276,56995,1,0,1:0:0:0:
296,276,57103,1,2,1:3:0:0:
296,276,57212,1,0,1:0:0:0:
160,192,57429,6,0,B|120:192|120:192|112:184|112:184|104:192|104:192|64:192,2,103.125,4|2|6,1:0|1:3|1:3,0:0:0:0:
352,192,58081,1,6,1:3:0:0:
352,192,58190,2,0,B|392:192|392:192|400:184|400:184|408:192|408:192|448:192,1,103.125,6|6,1:3|1:3,0:0:0:0:
400,264,58516,5,6,1:3:0:0:
400,292,58625,1,6,1:3:0:0:
400,320,58734,1,6,1:3:0:0:
400,348,58842,1,4,1:3:0:0:
400,376,58951,1,2,1:2:0:0:
256,264,59168,5,4,1:0:0:0:
256,292,59277,1,10,1:3:0:0:
256,320,59386,1,10,1:3:0:0:
256,348,59495,1,10,1:3:0:0:
256,376,59603,1,10,1:3:0:0:
112,264,59821,5,14,1:3:0:0:
112,292,59929,1,14,1:3:0:0:
112,320,60038,1,14,1:3:0:0:
112,348,60147,1,14,1:3:0:0:
112,376,60255,6,0,L|77:376,4,34.375,6|6|6|6|6,3:0|3:0|3:0|3:0|3:0,0:0:0:0:
4,376,60690,5,8,1:3:0:0:
4,348,60799,1,10,1:3:0:0:
4,320,60908,1,10,1:3:0:0:
4,292,61016,1,14,1:3:0:0:
4,264,61125,6,0,B|4:232|4:232|4:184|48:156,1,123.750004720688,4|2,1:0|0:0,0:0:0:0:
112,96,61451,1,0,0:0:0:0:
177,157,61560,2,0,B|201:133|201:133|201:105,1,61.875002360344,8|0,1:2|0:0,0:0:0:0:
335,157,61777,2,0,B|311:133|311:133|311:105,1,61.875002360344,2|0,0:0|0:0,0:0:0:0:
256,192,61995,6,0,B|256:241|256:241|252:249|252:249|260:249|260:249|256:257|256:257|256:306,1,123.750004720688,4|2,3:0|0:0,0:0:0:0:
196,368,62321,1,0,0:0:0:0:
196,368,62429,2,0,P|256:380|316:368,1,123.750004720688,8|2,1:2|0:0,0:0:0:0:
508,264,62864,6,0,B|508:232|508:232|508:184|464:156,1,123.750004720688,4|2,3:0|0:0,0:0:0:0:
400,96,63190,1,0,0:0:0:0:
335,157,63299,2,0,B|311:133|311:133|311:105,1,61.875002360344,8|0,1:2|0:0,0:0:0:0:
177,157,63516,2,0,B|201:133|201:133|201:105,1,61.875002360344,2|0,0:0|0:0,0:0:0:0:
256,192,63734,5,2,1:2:0:0:
256,192,63842,1,10,1:2:0:0:
256,192,63951,2,0,L|256:253,1,61.875002360344,2|0,0:0|0:0,0:0:0:0:
196,312,64168,2,0,L|168:368,1,61.875002360344,10|0,1:2|0:0,0:0:0:0:
316,312,64386,2,0,L|344:368,1,61.875002360344,2|0,0:0|0:0,0:0:0:0:
408,312,64603,6,0,B|460:312|460:312|456:272|484:246,1,123.750004720688,4|2,3:0|0:0,0:0:0:0:
416,192,64929,1,0,0:0:0:0:
348,137,65038,2,0,L|296:24,1,123.750004720688,8|2,1:2|0:0,0:0:0:0:
104,72,65473,6,0,B|52:72|52:72|56:112|28:138,1,123.750004720688,4|2,3:0|0:0,0:0:0:0:
96,192,65799,1,0,0:0:0:0:
164,247,65908,2,0,L|215:359,1,123.750004720688,8|2,1:2|0:0,0:0:0:0:
408,312,66342,6,0,B|408:284|384:252|344:252|344:252|317:252,1,123.750004720688,4|8,3:0|1:2,0:0:0:0:
256,192,66668,1,0,0:0:0:0:
318,132,66777,2,0,L|379:132,1,61.875002360344,8|0,1:2|0:0,0:0:0:0:
256,72,66995,2,0,L|194:72,1,61.875002360344,2|0,0:0|0:0,0:0:0:0:
132,132,67212,5,4,3:0:0:0:
112,159,67321,1,8,1:2:0:0:
105,192,67429,1,2,0:0:0:0:
112,226,67538,1,2,0:0:0:0:
132,252,67647,6,0,B|136:283|136:283|132:314,1,61.875002360344,8|0,1:2|0:0,0:0:0:0:
218,375,67864,2,0,B|214:344|214:344|218:313,1,61.875002360344,2|0,0:0|0:0,0:0:0:0:
304,252,68081,6,0,B|338:232|362:248|362:252|362:256|390:272|420:252,1,123.750004720688,4|2,1:0|0:0,0:0:0:0:
484,192,68408,1,0,0:0:0:0:
420,132,68516,2,0,B|386:112|362:128|362:132|362:136|334:152|304:132,1,123.750004720688,8|2,1:2|0:0,0:0:0:0:
208,252,68951,6,0,B|174:232|150:248|150:252|150:256|122:272|92:252,1,123.750004720688,4|2,3:0|0:0,0:0:0:0:
28,192,69277,1,0,0:0:0:0:
92,132,69386,2,0,B|126:112|150:128|150:132|150:136|178:152|208:132,1,123.750004720688,8|2,1:2|0:0,0:0:0:0:
304,252,69821,6,0,P|256:285|208:252,1,123.750004720688,4|2,3:0|0:0,0:0:0:0:
159,323,70147,1,0,0:0:0:0:
159,323,70255,2,0,P|182:344|210:358,1,61.875002360344,8|0,1:2|0:0,0:0:0:0:
352,323,70473,2,0,P|329:344|301:358,1,61.875002360344,2|0,0:0|0:0,0:0:0:0:
256,285,70690,5,2,1:2:0:0:
256,285,70799,1,8,1:2:0:0:
256,285,70908,2,0,L|256:223,1,61.875002360344,2|0,0:0|0:0,0:0:0:0:
232,140,71125,2,0,B|256:120|256:120|280:140,1,61.875002360344,8|0,1:2|0:0,0:0:0:0:
352,72,71342,6,0,B|312:72|264:40|256:6|256:6|248:40|200:72|160:72,1,247.500009441376,4|4,1:0|1:0,0:0:0:0:
48,244,71995,2,0,P|19:192|48:140,1,123.750004720688,4|0,1:0|0:0,0:0:0:0:
160,312,72429,2,0,B|200:312|248:344|256:378|256:378|264:344|312:312|352:312,1,247.500009441376,4|4,1:0|1:0,0:0:0:0:
464,192,73081,1,4,1:0:0:0:
352,72,73299,5,4,1:3:0:0:
345,113,73408,1,4,1:3:0:0:
325,151,73516,1,4,1:3:0:0:
294,180,73625,1,4,1:3:0:0:
256,196,73734,5,6,1:3:0:0:
217,180,73842,1,6,1:3:0:0:
186,151,73951,1,6,1:3:0:0:
166,113,74060,1,6,1:3:0:0:
160,72,74168,6,0,L|195:21,3,61.875002360344,8|8|0|8,1:2|1:2|1:0|1:2,0:0:0:0:
352,72,74603,2,0,L|316:21,3,61.875002360344,8|0|8|8,1:2|1:0|1:2|1:2,0:0:0:0:
256,113,75038,6,0,B|256:236,1,123.750004720688,4|2,1:0|0:0,0:0:0:0:
213,312,75364,1,0,0:0:0:0:
213,312,75473,2,0,B|205:342|205:342|213:372,1,61.875002360344,8|0,1:2|0:0,0:0:0:0:
299,372,75690,2,0,B|307:342|307:342|299:312,1,61.875002360344,2|0,0:0|0:0,0:0:0:0:
381,342,75908,6,0,B|376:300|404:276|436:276|436:276|461:276,1,123.750004720688,4|2,3:0|0:0,0:0:0:0:
488,192,76234,1,0,0:0:0:0:
461,108,76342,2,0,B|436:108|436:108|404:108|376:84|381:42,1,123.750004720688,8|2,1:2|0:0,0:0:0:0:
222,113,76777,6,0,B|161:113|161:113|112:152,1,123.750004720688,4|2,3:0|0:0,0:0:0:0:
32,192,77103,1,0,0:0:0:0:
112,232,77212,2,0,P|121:261|112:290,1,61.875002360344,8|0,1:2|0:0,0:0:0:0:
198,348,77429,2,0,P|189:319|198:290,1,61.875002360344,2|0,0:0|0:0,0:0:0:0:
284,232,77647,5,2,1:2:0:0:
284,232,77755,1,10,1:2:0:0:
284,232,77864,2,0,P|293:261|284:290,1,61.875002360344,2|0,0:0|0:0,0:0:0:0:
370,348,78081,2,0,P|361:319|370:290,1,61.875002360344,10|0,1:2|0:0,0:0:0:0:
456,232,78299,2,0,P|465:261|456:290,1,61.875002360344,2|0,0:0|0:0,0:0:0:0:
370,174,78516,6,0,B|370:121|314:121|314:68,1,123.750004720688,4|2,3:0|0:0,0:0:0:0:
256,4,78842,1,0,0:0:0:0:
198,68,78951,2,0,B|198:121|142:121|142:174,1,123.750004720688,8|2,1:2|0:0,0:0:0:0:
142,347,79386,6,0,B|122:311|150:275|182:275|182:275|206:275,1,123.750004720688,4|2,3:0|0:0,0:0:0:0:
256,347,79712,1,0,0:0:0:0:
306,275,79821,2,0,B|330:275|330:275|362:275|390:311|370:347,1,123.750004720688,8|2,1:2|0:0,0:0:0:0:
256,192,80255,6,0,B|256:143|256:143|252:135|252:135|260:135|260:135|256:127|256:127|256:78,1,123.750004720688,4|8,3:0|1:2,0:0:0:0:
318,17,80581,1,0,0:0:0:0:
318,17,80690,2,0,L|347:71,1,61.875002360344,8|0,1:2|0:0,0:0:0:0:
194,17,80908,2,0,L|164:71,1,61.875002360344,2|0,0:0|0:0,0:0:0:0:
196,165,81125,5,4,3:0:0:0:
223,185,81234,1,8,1:2:0:0:
256,192,81342,1,2,0:0:0:0:
290,185,81451,1,2,0:0:0:0:
316,165,81560,6,0,B|347:161|347:161|378:165,1,61.875002360344,8|0,1:2|0:0,0:0:0:0:
500,226,81777,2,0,B|469:222|469:222|438:226,1,61.875002360344,8|0,1:2|0:0,0:0:0:0:
316,287,81995,6,0,B|347:340|347:340|378:287,1,123.750004720688,4|2,1:0|0:0,0:0:0:0:
256,364,82321,1,0,0:0:0:0:
256,364,82429,2,0,B|196:256,1,123.750004720688,8|2,1:2|0:0,0:0:0:0:
196,97,82864,6,0,B|165:44|165:44|134:97,1,123.750004720688,4|2,3:0|0:0,0:0:0:0:
256,20,83190,1,0,0:0:0:0:
256,20,83299,2,0,B|316:128,1,123.750004720688,8|2,1:2|0:0,0:0:0:0:
316,287,83734,6,0,B|316:315|316:315|347:329|347:329|378:315|378:315|378:287,1,123.750004720688,4|2,3:0|0:0,0:0:0:0:
438,226,84060,1,0,0:0:0:0:
438,226,84168,2,0,B|468:280,1,61.875002360344,8|0,1:2|0:0,0:0:0:0:
498,165,84386,2,0,B|467:111,1,61.875002360344,2|0,0:0|0:0,0:0:0:0:
385,82,84603,5,2,1:2:0:0:
385,82,84712,1,8,1:2:0:0:
385,82,84821,2,0,P|376:111|385:140,1,61.875002360344,2|0,0:0|0:0,0:0:0:0:
299,82,85038,2,0,P|308:53|299:24,1,61.875002360344,8|0,1:2|0:0,0:0:0:0:
213,82,85255,6,0,B|177:110|101:82|81:38|137:10|193:38|173:82|97:110|61:82,1,247.500009441376,4|4,1:0|1:0,0:0:0:0:
137,229,85908,2,0,B|152:200|184:192|184:192|152:184|137:155,1,123.750004720688,4|0,1:0|0:0,0:0:0:0:
61,302,86342,2,0,B|97:274|173:302|193:346|137:374|81:346|101:302|177:274|213:302,1,247.500009441376,4|4,1:0|1:0,0:0:0:0:
352,192,86995,1,4,1:0:0:0:
213,82,87212,5,4,1:3:0:0:
198,109,87320,1,4,1:3:0:0:
184,136,87429,1,4,1:3:0:0:
170,164,87538,1,0,1:0:0:0:
156,192,87646,5,4,1:3:0:0:
170,219,87755,1,4,1:3:0:0:
184,247,87864,1,4,1:3:0:0:
198,274,87973,1,0,1:0:0:0:
213,302,88081,6,0,B|181:302|181:302|159:323,1,61.875002360344,6|8,1:3|1:3,0:0:0:0:
299,302,88299,2,0,B|331:302|331:302|352:323,1,61.875002360344,6|8,1:3|1:3,0:0:0:0:
256,233,88516,6,0,L|256:151,1,82.5,2|2,1:2|0:0,0:0:0:0:
26,193,88951,6,0,B|26:155|26:155|26:109|69:87,1,123.750004720688,4|2,1:0|0:0,0:0:0:0:
132,34,89277,1,0,0:0:0:0:
195,87,89386,2,0,B|256:96|256:96|317:87,1,123.750004720688,8|2,0:0|0:0,0:0:0:0:
486,191,89821,6,0,B|486:229|486:229|486:275|443:297,1,123.750004720688,4|2,3:0|0:0,0:0:0:0:
380,350,90147,1,0,0:0:0:0:
317,297,90255,2,0,B|256:288|256:288|195:297,1,123.750004720688,8|2,0:0|0:0,0:0:0:0:
26,192,90690,6,0,B|62:196|78:221|78:221|94:196|130:192,1,123.750004720688,4|2,3:0|0:0,0:0:0:0:
78,128,91016,1,0,0:0:0:0:
78,128,91125,2,0,P|69:99|78:70,1,61.875002360344,8|0,0:0|0:0,0:0:0:0:
130,6,91342,1,2,0:0:0:0:
382,6,91560,5,4,3:0:0:0:
382,6,91668,1,8,0:0:0:0:
434,70,91777,2,0,P|443:99|434:128,1,61.875002360344,2|0,0:0|0:0,0:0:0:0:
486,192,91995,2,0,B|450:196|434:221|434:221|418:196|382:192,1,123.750004720688,8|10,0:0|0:0,0:0:0:0:
195,296,92429,6,0,B|175:280|175:280|175:208|175:208|195:192,1,123.750004720688,4|2,3:0|0:0,0:0:0:0:
256,244,92755,1,0,0:0:0:0:
317,192,92864,2,0,B|337:208|337:208|337:280|337:280|317:296,1,123.750004720688,8|2,0:0|0:0,0:0:0:0:
195,192,93299,6,0,B|176:163|176:163|152:123|175:78,1,123.750004720688,4|2,3:0|0:0,0:0:0:0:
256,79,93625,1,0,0:0:0:0:
338,78,93734,2,0,B|360:123|336:163|336:163|317:192,1,123.750004720688,8|2,0:0|3:2,0:0:0:0:
195,296,94168,6,0,B|142:296|142:296|134:292|134:292|126:296|126:296|73:296,1,123.750004720688,4|2,1:0|0:0,0:0:0:0:
195,375,94495,2,0,B|248:375|248:375|256:379|256:379|264:375|264:375|317:375,1,123.750004720688,4|0,1:0|0:0,0:0:0:0:
439,296,94821,2,0,B|386:296|386:296|378:292|378:292|370:296|370:296|317:296,1,123.750004720688,4|2,1:0|0:0,0:0:0:0:
256,223,95147,5,8,0:0:0:0:
256,223,95255,1,10,3:2:0:0:
256,223,95364,1,8,0:0:0:0:
256,223,95473,2,0,L|256:161,1,61.875002360344,8|0,3:2|0:0,0:0:0:0:
208,80,95690,5,10,3:2:0:0:
208,80,95799,1,8,3:2:0:0:
208,80,95908,2,0,P|256:70|304:80,1,98.9999969787599,4|2,0:0|0:0,0:0:0:0:
168,192,96342,2,0,P|120:202|72:192,1,98.9999969787599,8|2,0:0|0:0,0:0:0:0:
208,304,96777,6,0,P|256:294|304:304,1,98.9999969787599,0|2,0:0|0:0,0:0:0:0:
356,360,97103,1,0,0:0:0:0:
408,304,97212,2,0,B|408:284|432:260|460:260|460:260|484:260,1,98.9999969787599,8|2,0:0|0:0,0:0:0:0:
484,124,97647,6,0,B|460:124|460:124|432:124|408:100|408:80,1,98.9999969787599,2|2,3:0|0:0,0:0:0:0:
356,24,97973,1,2,3:0:0:0:
304,80,98081,2,0,P|256:90|208:80,1,98.9999969787599,8|2,0:0|0:0,0:0:0:0:
156,24,98408,2,0,P|108:14|60:24,1,98.9999969787599,8|8,0:0|0:0,0:0:0:0:
8,80,98734,1,2,0:0:0:0:
96,192,98951,1,8,0:0:0:0:
8,304,99168,5,4,1:0:0:0:
8,304,99386,1,8,0:0:0:0:
96,192,99603,1,4,1:0:0:0:
184,304,99821,5,4,1:0:0:0:
184,304,99929,1,8,0:0:0:0:
328,304,100147,1,8,0:0:0:0:
328,304,100255,1,4,1:0:0:0:
416,192,100473,1,8,0:0:0:0:
504,304,100690,5,4,1:0:0:0:
504,324,100799,1,2,3:0:0:0:
504,344,100908,1,4,1:0:0:0:
504,364,101016,1,0,1:0:0:0:
504,384,101125,6,0,L|454:384,3,49.4999984893799,0|0|0|0,1:0|1:0|1:0|1:0,0:0:0:0:
364,384,101560,2,0,L|314:384,3,49.4999984893799,0|0|0|0,1:0|1:0|1:0|1:0,0:0:0:0:
364,294,101995,6,0,B|364:274|364:274|368:266|368:266|360:266|360:266|364:258|364:258|364:238,2,65.9999979858399,2|2|2,1:2|1:2|1:2,0:0:0:0:
364,294,102429,1,4,1:0:0:0:
148,294,102647,1,4,1:0:0:0:
148,294,103299,5,2,0:0:0:0:
256,192,103408,12,0,108081,0:0:0:0:
