osu file format v14

[General]
AudioFilename: audio.mp3
AudioLeadIn: 0
PreviewTime: 60364
Countdown: 0
SampleSet: Soft
StackLeniency: 0.5
Mode: 0
LetterboxInBreaks: 0
WidescreenStoryboard: 1

[Editor]
Bookmarks: 1995,108081
DistanceSpacing: 1.1
BeatDivisor: 4
GridSize: 4
TimelineZoom: 2

[Metadata]
Title:SKY HIGH (feat. rerone)
TitleUnicode:SKY↑HIGH (feat. rerone)
Artist:P4koo
ArtistUnicode:P4koo
Creator:Gero
Version:HARD!
Source:osu!
Tags:FA Featured Artist Mappers Mappers' Guild MPG MG 레로네 れろね Pakoo p4koochan IDOL POP Electronic Korean
BeatmapID:2617818
BeatmapSetID:1254502

[Difficulty]
HPDrainRate:5
CircleSize:4
OverallDifficulty:6
ApproachRate:8
SliderMultiplier:1.6
SliderTickRate:2

[Events]
//Background and Video events
0,0,"BG.jpg",0,0
//Break Periods
//Storyboard Layer 0 (Background)
//Storyboard Layer 1 (Fail)
//Storyboard Layer 2 (Pass)
//Storyboard Layer 3 (Foreground)
//Storyboard Layer 4 (Overlay)
//Storyboard Sound Samples

[TimingPoints]
1995,434.782608695653,4,2,2,50,1,0
8516,-100,4,2,1,40,0,0
8734,-100,4,2,1,60,0,0
8951,-100,4,2,1,80,0,1
15147,-100,4,2,3,80,0,1
15799,-100,4,2,3,80,0,0
15908,-100,4,2,1,80,0,1
22864,-100,4,2,2,60,0,0
36777,-90.9090909090909,4,2,1,60,0,0
50690,-100,4,2,2,50,0,0
57429,-100,4,2,1,50,0,0
61125,-83.3333333333333,4,2,1,80,0,1
66560,-83.3333333333333,4,2,3,80,0,1
67647,-83.3333333333333,4,2,1,80,0,1
74168,-83.3333333333333,4,2,3,80,0,1
74929,-83.3333333333333,4,2,1,80,0,0
75038,-83.3333333333333,4,2,1,80,0,1
80473,-83.3333333333333,4,2,3,80,0,1
81560,-83.3333333333333,4,2,1,80,0,1
85255,-100,4,2,1,80,0,1
88516,-100,4,2,1,40,0,0
88734,-100,4,2,1,60,0,0
88951,-100,4,2,1,80,0,1
91995,-100,4,2,3,80,0,1
92429,-100,4,2,1,80,0,1
95147,-100,4,2,3,80,0,1
95799,-100,4,2,1,80,0,0
95908,-100,4,2,1,70,0,0
103299,-100,4,2,1,50,0,0
103408,-100,4,2,1,60,0,0
104603,-100,4,2,1,40,0,0
106342,-100,4,2,1,20,0,0
108081,-100,4,2,1,5,0,0

[Colours]
Combo1 : 69,218,106
Combo2 : 84,203,224
Combo3 : 255,102,102
Combo4 : 239,129,181

[HitObjects]
232,356,1995,6,0,P|207:303|232:252,1,120,12|0,0:0|0:0,0:0:0:0:
256,216,2429,1,8,0:0:0:0:
316,152,2647,2,0,B|329:114|329:114|316:76,1,80,2|8,0:0|0:0,0:0:0:0:
256,12,3081,1,2,0:0:0:0:
256,12,3190,1,0,0:0:0:0:
256,12,3299,1,8,0:0:0:0:
195,76,3516,1,2,0:0:0:0:
134,12,3734,6,0,P|98:-3|62:12,1,80,8|2,0:0|0:0,0:0:0:0:
1,76,4168,1,8,0:0:0:0:
62,140,4386,2,0,P|98:155|134:140,1,80,2|8,0:0|0:0,0:0:0:0:
195,76,4821,1,2,0:0:0:0:
195,76,4929,1,0,0:0:0:0:
195,76,5038,1,8,0:0:0:0:
256,140,5255,6,0,B|280:176|260:216|256:216|252:216|232:256|256:292,1,160,2|2,0:0|0:0,0:0:0:0:
317,356,5908,2,0,B|300:388|300:388|212:388|212:388|195:356,2,160,8|8|8,0:0|0:0|0:0,0:0:0:0:
256,292,6995,1,2,0:0:0:0:
195,356,7212,1,4,0:0:0:0:
256,292,7429,5,4,3:0:0:0:
256,284,7538,1,4,3:0:0:0:
256,276,7647,2,0,L|256:236,3,40,2|2|4|2,1:3|1:3|1:3|1:3,0:0:0:0:
256,192,8081,2,0,L|256:152,3,40,8|8|2|2,1:3|1:3|1:3|1:3,0:0:0:0:
256,108,8516,1,2,1:2:0:0:
256,108,8951,6,0,P|271:72|256:36,1,80,4|2,1:0|0:0,0:0:0:0:
347,108,9386,2,0,P|332:144|347:180,1,80,8|2,0:0|0:0,0:0:0:0:
409,242,9821,1,4,3:0:0:0:
348,304,10038,1,2,0:0:0:0:
348,304,10147,2,0,P|302:337|256:304,1,120,8|2,0:0|0:0,0:0:0:0:
195,242,10690,5,4,3:0:0:0:
134,304,10908,1,2,0:0:0:0:
73,242,11125,2,0,B|64:203|64:203|73:164,1,80,8|2,0:0|0:0,0:0:0:0:
134,102,11560,1,4,3:0:0:0:
134,102,11668,1,8,0:0:0:0:
134,102,11777,1,2,0:0:0:0:
195,164,11995,2,0,B|204:203|204:203|195:242,1,80,8|2,0:0|0:0,0:0:0:0:
317,164,12429,6,0,B|308:203|308:203|317:242,1,80,4|2,3:0|0:0,0:0:0:0:
409,164,12864,2,0,B|418:125|418:125|409:86,1,80,8|2,0:0|0:0,0:0:0:0:
456,12,13299,1,4,3:0:0:0:
502,86,13516,1,2,0:0:0:0:
502,86,13625,2,0,B|502:134|502:134|493:142|493:142|502:150|502:150|502:198,1,120,8|2,0:0|3:2,0:0:0:0:
502,285,14168,6,0,B|462:285|462:285|430:309|430:309|390:309,1,120,4|4,1:0|1:0,0:0:0:0:
316,200,14821,2,0,B|272:216|256:250|256:250|240:216|196:200,1,160,4|10,1:0|3:2,0:0:0:0:
196,200,15364,1,8,0:0:0:0:
196,200,15473,1,8,3:2:0:0:
70,200,15690,5,10,3:2:0:0:
70,200,15799,1,8,3:2:0:0:
70,200,15908,2,0,P|55:236|70:272,1,80,4|2,1:0|0:0,0:0:0:0:
133,137,16342,2,0,P|148:101|133:65,1,80,8|2,0:0|0:0,0:0:0:0:
195,2,16777,1,4,3:0:0:0:
256,65,16995,1,2,0:0:0:0:
256,65,17103,2,0,B|316:65|316:65|358:107,1,120,8|2,0:0|0:0,0:0:0:0:
307,177,17647,6,0,P|359:202|411:177,1,120,4|2,3:0|0:0,0:0:0:0:
455,176,18081,1,8,0:0:0:0:
504,248,18299,1,2,0:0:0:0:
455,320,18516,1,4,3:0:0:0:
455,320,18625,1,8,0:0:0:0:
455,320,18734,2,0,L|483:348,2,40,2|0|4,0:0|0:0|1:0,0:0:0:0:
368,320,19168,6,0,B|298:320|298:320|290:324|290:324|282:328|282:328|209:328,1,160,4|4,1:0|1:0,0:0:0:0:
132,372,19821,1,4,1:0:0:0:
132,372,19929,1,0,1:0:0:0:
55,328,20147,1,0,1:0:0:0:
55,328,20255,1,4,1:0:0:0:
132,284,20473,5,0,1:0:0:0:
132,284,20581,1,0,1:0:0:0:
132,284,20690,2,0,L|132:244,1,40,4|2,1:0|3:0,0:0:0:0:
132,203,20908,6,0,B|208:203|208:203|188:163|208:123,1,160,4|12,1:0|3:0,0:0:0:0:
256,44,21560,1,12,3:0:0:0:
256,44,21777,1,12,3:0:0:0:
304,122,21995,6,0,L|304:175,2,53.3333333333333,2|2|2,1:2|1:2|1:2,0:0:0:0:
304,122,22429,1,4,1:0:0:0:
352,44,22647,1,4,1:0:0:0:
406,122,22864,6,0,B|425:122|425:122|439:107|439:107|453:122|453:122|472:122,1,80,4|10,1:0|0:0,0:0:0:0:
472,206,23299,2,0,B|472:246|472:246|500:274,1,80,4|10,3:0|0:0,0:0:0:0:
437,336,23734,1,4,3:0:0:0:
374,275,23951,2,0,B|332:275|332:275|295:275|256:304|256:349,1,160,10|10,0:0|0:0,0:0:0:0:
193,286,24603,5,4,3:0:0:0:
256,223,24821,1,10,0:0:0:0:
256,223,24929,1,0,0:0:0:0:
256,223,25038,1,4,3:0:0:0:
193,160,25255,2,0,B|240:148|256:115|256:115|272:148|319:160,1,160,10|10,0:0|0:0,0:0:0:0:
382,97,25908,1,4,3:0:0:0:
319,34,26125,1,10,0:0:0:0:
382,97,26342,6,0,B|422:97|422:97|450:125,1,80,4|10,3:0|0:0,0:0:0:0:
508,192,26777,1,4,3:0:0:0:
450,258,26995,1,10,0:0:0:0:
450,258,27103,1,0,0:0:0:0:
450,258,27212,2,0,B|422:287|422:287|382:287,1,80,4|10,3:0|0:0,0:0:0:0:
319,350,27647,1,4,3:0:0:0:
256,287,27864,5,10,0:0:0:0:
256,287,27973,1,0,0:0:0:0:
256,287,28081,2,0,L|256:207,2,80,4|10|4,3:0|0:0|3:0,0:0:0:0:
319,350,28734,2,0,B|292:384|292:384|256:372|220:384|220:384|193:350,1,160,10|10,0:0|0:0,0:0:0:0:
106,350,29386,1,4,3:0:0:0:
106,262,29603,5,10,0:0:0:0:
106,262,29712,1,0,0:0:0:0:
106,262,29821,2,0,B|87:262|87:262|73:277|73:277|59:262|59:262|40:262,1,80,4|10,3:0|0:0,0:0:0:0:
40,178,30256,2,0,B|40:138|40:138|12:110,1,80,4|10,3:0|0:0,0:0:0:0:
75,48,30691,1,4,3:0:0:0:
138,109,30908,2,0,B|180:109|180:109|217:109|256:80|256:35,1,160,10|10,0:0|0:0,0:0:0:0:
319,98,31560,5,4,3:0:0:0:
256,161,31778,1,10,0:0:0:0:
256,161,31886,1,0,0:0:0:0:
256,161,31995,1,4,3:0:0:0:
319,224,32212,2,0,B|272:236|256:269|256:269|240:236|193:224,1,160,10|10,0:0|0:0,0:0:0:0:
130,287,32865,1,4,3:0:0:0:
193,350,33082,1,10,0:0:0:0:
130,287,33299,6,0,B|90:287|90:287|62:259,1,80,4|10,3:0|0:0,0:0:0:0:
4,192,33734,1,4,3:0:0:0:
62,126,33952,1,10,0:0:0:0:
62,126,34060,1,0,0:0:0:0:
62,126,34169,2,0,B|90:97|90:97|130:97,1,80,4|10,3:0|0:0,0:0:0:0:
193,34,34604,1,4,3:0:0:0:
256,97,34821,5,4,3:0:0:0:
256,97,34929,1,4,3:0:0:0:
256,97,35038,1,4,1:0:0:0:
319,34,35255,2,0,L|347:5,2,40,6|6|6,1:3|1:3|1:3,0:0:0:0:
256,97,35690,1,4,1:0:0:0:
193,34,35908,2,0,L|164:5,2,40,6|6|6,1:3|1:3|1:3,0:0:0:0:
256,97,36342,1,4,1:0:0:0:
193,160,36560,5,6,1:3:0:0:
193,160,36668,1,6,1:3:0:0:
193,160,36777,2,0,B|193:207|193:207|174:243,1,88.000002685547,4|2,1:0|0:0,0:0:0:0:
319,160,37212,2,0,B|319:207|319:207|337:243,1,88.000002685547,10|2,1:2|0:0,0:0:0:0:
256,296,37647,1,4,3:0:0:0:
174,243,37864,2,0,L|80:244,1,88.000002685547,2|10,0:0|1:2,0:0:0:0:
4,192,38299,5,2,0:0:0:0:
4,192,38408,1,0,0:0:0:0:
4,192,38516,2,0,P|-10:151|4:110,1,88.000002685547,4|2,3:0|0:0,0:0:0:0:
87,59,38951,1,10,1:2:0:0:
170,110,39168,2,0,L|200:27,1,88.000002685547,2|4,0:0|3:0,0:0:0:0:
342,110,39603,2,0,L|311:27,1,88.000002685547,2|10,0:0|1:2,0:0:0:0:
256,110,40038,5,2,0:0:0:0:
256,110,40147,1,0,0:0:0:0:
256,110,40255,1,4,3:0:0:0:
213,195,40473,2,0,P|256:204|299:195,1,88.000002685547,2|10,0:0|1:2,0:0:0:0:
342,280,40908,1,2,0:0:0:0:
299,365,41125,2,0,P|256:356|213:365,1,88.000002685547,4|2,3:0|0:0,0:0:0:0:
170,280,41560,1,10,1:2:0:0:
213,195,41777,5,2,0:0:0:0:
213,195,41886,1,0,0:0:0:0:
213,195,41995,2,0,P|256:204|299:195,2,88.000002685547,4|2|10,3:0|0:0|1:2,0:0:0:0:
256,110,42647,2,0,B|308:110|308:110|356:110|384:66|384:28,1,176.000005371094,2|2,0:0|0:0,0:0:0:0:
452,96,43299,1,10,1:2:0:0:
452,192,43516,5,10,1:2:0:0:
452,192,43625,1,10,1:2:0:0:
452,192,43734,2,0,B|452:236|452:236|479:270,1,88.000002685547,4|2,3:0|0:0,0:0:0:0:
408,336,44168,2,0,P|367:350|326:336,1,88.000002685547,10|2,1:2|0:0,0:0:0:0:
256,271,44603,1,4,3:0:0:0:
186,336,44821,2,0,P|145:350|104:336,1,88.000002685547,2|10,0:0|1:2,0:0:0:0:
32,270,45255,5,2,0:0:0:0:
32,270,45364,1,0,0:0:0:0:
32,270,45473,1,4,3:0:0:0:
104,204,45690,2,0,P|145:190|186:204,1,88.000002685547,2|10,0:0|1:2,0:0:0:0:
256,136,46125,2,0,P|336:167|416:136,1,176.000005371094,2|2,0:0|0:0,0:0:0:0:
500,84,46777,1,10,1:2:0:0:
417,33,46995,5,2,0:0:0:0:
417,33,47103,1,0,0:0:0:0:
417,33,47212,1,4,3:0:0:0:
500,84,47429,2,0,B|500:128|500:128|524:164,1,88.000002685547,2|10,0:0|1:2,0:0:0:0:
455,233,47864,2,0,L|330:357,1,176.000005371094,2|2,0:0|0:0,0:0:0:0:
256,296,48516,1,10,1:2:0:0:
181,357,48734,1,4,1:0:0:0:
256,296,48951,6,0,B|256:243|256:243|252:235|252:235|260:235|260:235|256:227|256:227|256:174,1,132.00000402832,4|4,1:3|1:3,0:0:0:0:
216,144,49386,1,4,1:3:0:0:
296,92,49603,2,0,L|340:92,3,44.0000013427735,4|2|2|2,1:0|1:3|1:3|1:3,0:0:0:0:
388,92,50038,5,4,1:3:0:0:
432,8,50255,1,4,1:3:0:0:
476,92,50473,1,4,1:3:0:0:
432,176,50690,6,0,B|364:176|364:248|296:248,1,160,4|4,1:0|3:0,0:0:0:0:
256,168,51342,1,10,0:0:0:0:
216,248,51560,2,0,B|148:248|148:176|80:176,1,160,4|4,3:0|3:0,0:0:0:0:
36,92,52212,1,10,0:0:0:0:
80,8,52429,6,0,L|210:100,1,160,4|4,3:0|3:0,0:0:0:0:
301,100,53081,2,0,L|432:8,1,160,10|10,0:0|0:0,0:0:0:0:
476,92,53734,1,4,3:0:0:0:
476,92,53951,1,10,0:0:0:0:
432,176,54168,6,0,B|352:176|352:176|352:256,1,160,4|4,3:0|3:0,0:0:0:0:
424,308,54821,2,0,P|352:338|280:308,1,160,10|10,0:0|0:0,0:0:0:0:
208,360,55473,1,4,3:0:0:0:
135,308,55690,1,10,0:0:0:0:
208,360,55908,5,4,3:0:0:0:
135,308,56125,1,10,0:0:0:0:
208,256,56342,1,4,3:0:0:0:
208,256,56560,2,0,P|223:220|208:184,1,80,10|4,0:0|3:0,0:0:0:0:
135,132,56995,1,0,1:0:0:0:
135,132,57103,1,2,1:3:0:0:
135,132,57212,1,0,1:0:0:0:
208,80,57429,6,0,L|151:23,2,80,4|2|6,1:0|1:3|1:3,0:0:0:0:
281,132,58081,1,6,1:3:0:0:
281,132,58190,1,6,1:3:0:0:
354,80,58407,1,6,1:3:0:0:
354,80,58516,1,6,1:3:0:0:
427,132,58734,2,0,L|427:171,3,40,6|4|2|0,1:3|1:3|1:2|0:0,0:0:0:0:
427,215,59168,6,0,B|351:215|351:215|371:255|351:295,1,160,4|10,1:0|1:3,0:0:0:0:
262,295,59821,2,0,L|222:295,3,40,14|14|14|14,1:3|1:3|1:3|1:3,0:0:0:0:
178,295,60255,6,0,L|178:348,2,53.3333333333333,6|6|6,3:0|3:0|3:0,0:0:0:0:
178,295,60690,1,8,1:3:0:0:
112,236,60908,5,10,1:3:0:0:
112,236,61016,1,14,1:3:0:0:
112,236,61125,2,0,P|96:192|112:148,1,95.9999970703126,4|2,1:0|0:0,0:0:0:0:
208,148,61560,2,0,L|304:148,1,95.9999970703126,8|2,1:2|0:0,0:0:0:0:
400,148,61995,1,4,3:0:0:0:
352,64,62212,1,2,0:0:0:0:
304,148,62429,1,8,1:2:0:0:
352,232,62647,5,2,0:0:0:0:
352,232,62755,1,0,0:0:0:0:
352,232,62864,2,0,B|352:276|352:276|375:292|375:292|352:308|352:308|352:352,1,143.999995605469,4|0,3:0|0:0,0:0:0:0:
303,351,63299,1,8,1:2:0:0:
256,268,63516,1,2,0:0:0:0:
209,351,63734,1,2,1:2:0:0:
209,351,63842,1,10,1:2:0:0:
209,351,63951,2,0,P|165:367|121:351,1,95.9999970703126,2|10,0:0|1:2,0:0:0:0:
74,268,64386,5,2,0:0:0:0:
74,268,64495,1,0,0:0:0:0:
74,268,64603,2,0,B|101:268|121:246|121:221|121:221|121:198,1,95.9999970703126,4|2,3:0|0:0,0:0:0:0:
121,102,65038,1,8,1:2:0:0:
202,150,65255,2,0,B|244:124|256:74|256:74|268:124|310:150,1,191.999994140625,2|2,0:0|0:0,0:0:0:0:
391,102,65908,1,8,1:2:0:0:
391,198,66125,5,2,0:0:0:0:
391,198,66234,1,0,0:0:0:0:
391,198,66342,2,0,B|391:221|391:221|391:246|411:268|438:268,1,95.9999970703126,4|8,3:0|1:2,0:0:0:0:
395,355,66777,1,8,1:2:0:0:
299,355,66995,1,2,0:0:0:0:
256,268,67212,1,4,3:0:0:0:
256,268,67321,1,8,1:2:0:0:
256,268,67429,2,0,L|256:208,2,47.9999985351563,2|2|8,0:0|0:0|1:2,0:0:0:0:
213,355,67864,5,2,0:0:0:0:
213,355,67973,1,0,0:0:0:0:
213,355,68081,2,0,B|177:355|177:355|169:364|169:364|161:355|161:355|125:355,1,95.9999970703126,4|2,1:0|0:0,0:0:0:0:
82,268,68516,2,0,P|125:250|168:268,1,95.9999970703126,8|2,1:2|0:0,0:0:0:0:
213,181,68951,2,0,L|212:37,1,143.999995605469,4|0,3:0|0:0,0:0:0:0:
256,16,69386,1,8,1:2:0:0:
323,83,69603,5,2,0:0:0:0:
323,83,69712,1,0,0:0:0:0:
323,83,69821,2,0,B|370:74|370:74|417:83,1,95.9999970703126,4|2,3:0|0:0,0:0:0:0:
489,145,70255,2,0,B|498:192|498:192|489:239,1,95.9999970703126,8|2,1:2|0:0,0:0:0:0:
417,300,70690,1,2,1:2:0:0:
417,300,70799,1,8,1:2:0:0:
417,300,70908,1,2,0:0:0:0:
345,238,71125,1,8,1:2:0:0:
273,300,71342,6,0,B|192:300|192:300|128:300|109:239,1,191.999994140625,4|4,1:0|1:0,0:0:0:0:
12,144,71995,2,0,L|12:240,1,95.9999970703126,4|0,1:0|0:0,0:0:0:0:
109,144,72429,2,0,B|128:84|192:84|192:84|273:84,1,191.999994140625,4|4,1:0|1:0,0:0:0:0:
345,146,73081,1,4,1:0:0:0:
345,238,73299,6,0,L|345:286,3,47.9999985351563,4|4|4|4,1:3|1:3|1:3|1:3,0:0:0:0:
345,334,73734,2,0,L|297:334,3,47.9999985351563,6|6|6|6,1:3|1:3|1:3|1:3,0:0:0:0:
249,334,74168,2,0,L|249:286,3,47.9999985351563,8|8|0|8,1:2|1:2|1:0|1:2,0:0:0:0:
249,238,74603,2,0,L|201:238,3,47.9999985351563,8|0|8|8,1:2|1:0|1:2|1:2,0:0:0:0:
153,238,75038,6,0,P|109:222|65:238,1,95.9999970703126,4|2,1:0|0:0,0:0:0:0:
21,142,75473,2,0,P|65:158|109:142,1,95.9999970703126,8|2,1:2|0:0,0:0:0:0:
156,56,75908,1,4,3:0:0:0:
202,141,76125,1,2,0:0:0:0:
202,141,76234,1,0,0:0:0:0:
202,141,76342,2,0,B|250:141|250:141|283:107,1,95.9999970703126,8|2,1:2|0:0,0:0:0:0:
332,192,76777,6,0,P|396:164|460:192,1,143.999995605469,4|0,3:0|0:0,0:0:0:0:
492,152,77212,2,0,P|470:192|492:232,1,95.9999970703126,8|2,1:2|0:0,0:0:0:0:
396,344,77647,1,2,1:2:0:0:
396,344,77755,1,10,1:2:0:0:
396,344,77864,2,0,P|418:304|396:264,1,95.9999970703126,2|10,0:0|1:2,0:0:0:0:
308,304,78299,5,2,0:0:0:0:
308,304,78408,1,0,0:0:0:0:
308,304,78516,1,4,3:0:0:0:
204,304,78734,2,0,B|204:256|204:256|179:214,1,95.9999970703126,2|8,0:0|1:2,0:0:0:0:
256,160,79168,1,2,0:0:0:0:
332,214,79386,2,0,B|372:146|332:78,1,143.999995605469,4|0,3:0|0:0,0:0:0:0:
352,32,79821,1,8,1:2:0:0:
256,32,80038,1,2,0:0:0:0:
160,32,80255,5,4,3:0:0:0:
208,116,80473,2,0,L|208:164,2,47.9999985351563,8|0|8,1:2|0:0|1:2,0:0:0:0:
304,116,80908,2,0,L|304:164,2,47.9999985351563,2|0|4,0:0|0:0|3:0,0:0:0:0:
352,32,81342,1,2,0:0:0:0:
352,32,81451,1,2,0:0:0:0:
352,32,81560,1,8,1:2:0:0:
400,116,81777,1,8,1:2:0:0:
448,200,81995,6,0,P|464:244|448:288,1,95.9999970703126,4|2,1:0|0:0,0:0:0:0:
351,288,82429,1,8,1:2:0:0:
296,368,82647,2,0,B|272:368|256:356|256:348|256:348|256:356|240:368|216:368,1,95.9999970703126,2|4,0:0|3:0,0:0:0:0:
81,288,83081,1,2,0:0:0:0:
81,288,83190,1,0,0:0:0:0:
81,288,83299,2,0,B|105:288|121:300|121:308|121:308|121:300|137:288|161:288,1,95.9999970703126,8|2,1:2|0:0,0:0:0:0:
121,200,83734,6,0,B|112:160|136:120|176:120|176:120|208:120,1,143.999995605469,4|0,3:0|0:0,0:0:0:0:
256,120,84168,1,8,1:2:0:0:
304,204,84386,1,2,0:0:0:0:
304,204,84495,1,0,0:0:0:0:
304,204,84603,1,2,1:2:0:0:
256,288,84821,1,2,0:0:0:0:
256,288,84929,1,0,0:0:0:0:
256,288,85038,1,8,1:2:0:0:
208,202,85255,6,0,L|303:74,1,160,4|4,1:0|1:0,0:0:0:0:
208,74,85908,2,0,L|303:202,1,160,4|4,1:0|1:0,0:0:0:0:
256,288,86560,1,0,0:0:0:0:
208,202,86777,1,4,1:0:0:0:
256,288,86995,1,4,1:0:0:0:
304,203,87212,6,0,L|344:203,3,40,4|4|4|0,1:3|1:3|1:3|1:0,0:0:0:0:
384,203,87647,2,0,L|424:203,3,40,4|4|4|0,1:3|1:3|1:3|1:0,0:0:0:0:
464,203,88081,5,6,1:3:0:0:
464,243,88190,1,8,1:3:0:0:
464,283,88299,1,6,1:3:0:0:
464,323,88408,1,8,1:3:0:0:
464,363,88516,5,2,1:2:0:0:
360,319,88734,1,2,0:0:0:0:
256,276,88951,6,0,P|241:312|256:348,1,80,4|2,1:0|0:0,0:0:0:0:
165,276,89386,2,0,P|180:240|165:204,1,80,8|2,0:0|0:0,0:0:0:0:
103,142,89821,1,4,3:0:0:0:
164,80,90038,1,2,0:0:0:0:
164,80,90147,2,0,P|210:47|256:80,1,120,8|2,0:0|0:0,0:0:0:0:
317,142,90690,5,4,3:0:0:0:
378,80,90908,1,2,0:0:0:0:
439,142,91125,2,0,B|448:181|448:181|439:220,1,80,8|2,0:0|0:0,0:0:0:0:
378,282,91560,1,4,3:0:0:0:
378,282,91668,1,8,0:0:0:0:
378,282,91777,1,2,0:0:0:0:
317,220,91995,2,0,B|308:181|308:181|317:142,1,80,8|10,0:0|0:0,0:0:0:0:
195,220,92429,6,0,B|204:181|204:181|195:142,1,80,4|2,3:0|0:0,0:0:0:0:
103,220,92864,2,0,B|94:259|94:259|103:298,1,80,8|2,0:0|0:0,0:0:0:0:
56,372,93299,1,4,3:0:0:0:
10,298,93516,1,2,0:0:0:0:
10,298,93625,2,0,B|10:250|10:250|19:242|19:242|10:234|10:234|10:186,1,120,8|2,0:0|3:2,0:0:0:0:
10,99,94168,6,0,B|50:99|50:99|82:75|82:75|122:75,1,120,4|4,1:0|1:0,0:0:0:0:
196,184,94821,2,0,B|240:168|256:134|256:134|272:168|316:184,1,160,4|10,1:0|3:2,0:0:0:0:
316,184,95364,1,8,0:0:0:0:
316,184,95473,1,8,3:2:0:0:
442,184,95690,5,10,3:2:0:0:
442,184,95799,1,8,3:2:0:0:
442,184,95908,2,0,P|457:148|442:112,1,80,4|2,0:0|0:0,0:0:0:0:
379,247,96342,2,0,P|364:283|379:319,1,80,8|2,0:0|0:0,0:0:0:0:
316,184,96777,2,0,P|331:148|316:112,1,80,0|2,0:0|0:0,0:0:0:0:
347,80,97103,2,0,B|295:80|295:80|283:88|283:88|229:88,1,120,2|2,0:0|0:0,0:0:0:0:
154,36,97647,6,0,B|120:36|120:36|76:36|49:77,1,120,2|2,3:0|3:0,0:0:0:0:
84,106,98081,2,0,L|156:140,1,80,8|2,0:0|0:0,0:0:0:0:
84,192,98516,1,2,0:0:0:0:
84,192,98625,1,8,0:0:0:0:
84,192,98734,1,2,0:0:0:0:
156,244,98951,1,8,0:0:0:0:
84,296,99168,6,0,B|75:335|75:335|84:374,1,80,4|8,1:0|0:0,0:0:0:0:
176,373,99603,1,4,1:0:0:0:
256,336,99821,1,4,1:0:0:0:
256,336,99929,1,8,0:0:0:0:
336,373,100147,1,8,0:0:0:0:
336,373,100255,1,4,1:0:0:0:
428,374,100473,5,8,0:0:0:0:
428,374,100581,1,8,0:0:0:0:
428,374,100690,2,0,L|428:334,1,40,4|0,1:0|0:0,0:0:0:0:
428,293,100908,6,0,B|352:293|352:293|372:253|352:213,1,160,4|0,1:0|1:0,0:0:0:0:
304,134,101560,1,0,1:0:0:0:
304,134,101777,1,0,1:0:0:0:
256,212,101995,6,0,L|256:265,2,53.3333333333333,2|2|2,1:2|1:2|1:2,0:0:0:0:
256,212,102429,1,4,1:0:0:0:
208,134,102647,1,4,1:0:0:0:
208,134,103299,5,2,0:0:0:0:
256,192,103408,12,0,108081,0:0:0:0:
