osu file format v14

[General]
AudioFilename: audio.mp3
AudioLeadIn: 0
PreviewTime: 70483
Countdown: 0
SampleSet: Soft
StackLeniency: 0.7
Mode: 0
LetterboxInBreaks: 0
WidescreenStoryboard: 1

[Editor]
Bookmarks: 1927,8687,15448,28969,42490,56011,71222,84743,98264,115165
DistanceSpacing: 0.6
BeatDivisor: 4
GridSize: 8
TimelineZoom: 0.7

[Metadata]
Title:SHINY*STAR!! (feat. rerone)
TitleUnicode:SHINY☆STAR!! (feat. rerone)
Artist:P4koo
ArtistUnicode:P4koo
Creator:Hinsvar
Version:Normal
Source:
Tags:Pakoo れろね 레로네 p4koochan Featured Artist FA Mappers' Guild MPG Idol Pop Electronic electropop Korean K-Pop KPop PArty Be-music ArT! PABAT! PABAT 2017
BeatmapID:2679313
BeatmapSetID:1287121

[Difficulty]
HPDrainRate:4
CircleSize:3
OverallDifficulty:4
ApproachRate:5
SliderMultiplier:1.2
SliderTickRate:1

[Events]
//Background and Video events
0,0,"73770501_p0.jpg",0,0
//Break Periods
2,56211,60938
2,68042,69388
//Storyboard Layer 0 (Background)
//Storyboard Layer 1 (Fail)
//Storyboard Layer 2 (Pass)
//Storyboard Layer 3 (Foreground)
//Storyboard Layer 4 (Overlay)
//Storyboard Sound Samples

[TimingPoints]
1927,422.535211267606,4,2,1,60,1,0
12912,-100,4,2,1,65,0,0
13757,-111.111111111111,4,2,1,50,0,0
15025,-111.111111111111,4,2,1,60,0,0
15448,-100,4,2,1,70,0,0
21786,-100,4,2,1,60,0,0
22208,-100,4,2,1,70,0,0
28546,-100,4,2,1,50,0,0
28969,-100,4,2,2,50,0,0
42490,-100,4,2,1,60,0,0
54321,-100,4,2,1,50,0,0
54955,-100,4,2,1,60,0,0
55588,-100,4,2,1,50,0,0
56011,-100,4,2,1,50,0,0
62772,-100,4,2,1,60,0,0
65096,-100,4,2,1,55,0,0
66152,-100,4,2,1,60,0,0
66997,-100,4,2,1,55,0,0
67419,-100,4,2,1,60,0,0
67842,-100,4,2,1,65,0,0
70588,-100,4,2,1,70,0,0
71222,422.535211267606,4,2,1,80,1,1
71222,-90.9090909090909,4,2,1,80,0,1
84320,-100,4,2,1,80,0,0
84743,-90.9090909090909,4,2,1,80,0,1
97841,-100,4,2,1,60,0,0
98264,-100,4,2,1,70,0,1
98369,-100,4,2,1,70,0,0
105024,-100,4,2,1,70,0,0
110517,-100,4,2,1,60,0,0
110729,-100,4,2,1,70,0,0
111362,-100,4,2,1,60,0,0
111996,-100,4,2,1,30,0,0
113898,-100,4,2,1,40,0,0
114320,-100,4,2,1,50,0,0
114743,-100,4,2,1,60,0,0
115165,-100,4,2,1,40,0,0

[Colours]
Combo1 : 172,155,210
Combo2 : 215,182,128
Combo3 : 251,136,136
Combo4 : 253,173,102
Combo5 : 250,176,5

[HitObjects]
118,50,8687,6,0,P|142:99|167:173,1,120,4|0,3:2|3:0,0:0:0:0:
135,215,9321,1,2,0:0:0:0:
135,215,9532,2,0,P|219:260|318:256,1,180,2|2,3:2|0:0,0:0:0:0:
338,212,10377,1,2,3:2:0:0:
443,269,10800,2,0,P|457:238|466:209,1,60,0|2,3:0|0:0,0:0:0:0:
503,167,11222,2,0,P|488:123|442:57,1,120,2|2,3:2|3:2,0:0:0:0:
337,111,12067,6,0,P|326:145|321:182,2,60,0|0|0,3:0|3:0|3:0,0:0:0:0:
301,69,12701,1,2,3:2:0:0:
301,69,12912,2,0,P|255:60|211:21,2,90,4|2|2,3:2|3:2|3:2,0:0:0:0:
348,28,13757,6,0,B|424:92|493:102|493:102|422:132|400:234,1,323.999990112305,4|8,0:0|0:1,0:0:0:0:
349,333,15448,6,0,P|303:356|219:351,1,120,4|10,3:2|0:0,0:0:0:0:
211,307,16081,1,0,0:0:0:0:
211,307,16293,1,2,3:2:0:0:
293,220,16715,1,10,0:0:0:0:
293,220,16927,2,0,P|312:157|296:90,1,120,2|2,0:0|0:0,0:0:0:0:
196,49,17772,2,0,P|138:80|101:138,1,120,2|0,0:0|0:0,0:0:0:0:
54,152,18405,2,0,P|74:170|97:208,1,60,10|10,0:0|0:0,0:0:0:0:
70,253,18828,5,2,3:2:0:0:
155,339,19250,2,0,B|190:331|190:331|216:312,1,60,10|0,0:0|0:0,0:0:0:0:
198,257,19673,2,0,P|205:201|232:131,1,120,2|10,3:2|0:0,0:0:0:0:
276,106,20307,1,0,0:0:0:0:
276,106,20518,6,0,P|274:74|262:38,2,60,4|10|10,3:2|0:0|0:0,0:0:0:0:
329,133,21152,1,6,3:2:0:0:
442,87,21574,1,2,3:2:0:0:
442,87,21786,1,12,0:0:0:0:
487,197,22208,6,0,P|442:223|375:243,2,120,2|10|2,3:2|0:0|3:2,0:0:0:0:
421,103,23476,1,10,0:0:0:0:
421,103,23687,2,0,B|368:79|368:79|300:93,1,120,2|2,0:0|0:0,0:0:0:0:
225,179,24532,2,0,P|178:146|184:78,1,120,2|2,0:0|0:0,0:0:0:0:
128,53,25166,2,0,P|97:59|65:83,1,60,10|10,0:0|0:0,0:0:0:0:
43,126,25588,5,2,3:2:0:0:
130,208,26011,2,0,P|158:203|187:180,1,60,10|0,0:0|0:0,0:0:0:0:
232,150,26434,2,0,B|289:167|289:167|309:242,1,120,2|10,3:2|0:0,0:0:0:0:
280,282,27067,1,2,1:2:0:0:
280,282,27279,6,0,P|283:313|299:349,2,60,4|0|10,3:2|1:0|0:0,0:0:0:0:
222,263,27912,1,6,3:2:0:0:
127,335,28335,1,2,3:2:0:0:
127,335,28546,1,14,0:0:0:0:
75,226,28969,6,0,P|46:210|14:201,2,60,4|0|10,3:2|0:0|0:0,0:0:0:0:
223,94,30025,2,0,P|222:56|213:26,1,60,0|8,0:0|0:0,0:0:0:0:
271,11,30448,2,0,P|320:44|359:106,1,120,2|0,0:0|0:0,0:0:0:0:
287,193,31293,2,0,P|263:248|261:326,1,120,2|2,0:0|0:0,0:0:0:0:
298,353,31927,2,0,P|323:338|360:333,1,60,8|0,0:0|3:0,0:0:0:0:
407,357,32349,5,2,3:2:0:0:
494,274,32772,1,10,0:0:0:0:
494,274,32983,2,0,P|472:223|461:153,1,120
349,115,33828,2,0,P|339:174|316:229,1,120,2|0,0:0|0:0,0:0:0:0:
280,278,34462,1,8,0:0:0:0:
280,278,34673,1,2,0:0:0:0:
178,214,35096,1,2,3:2:0:0:
178,214,35307,2,0,P|142:223|114:237,1,60,8|0,0:0|3:0,0:0:0:0:
69,201,35729,6,0,P|62:168|46:137,2,60,2|0|10,3:2|0:0|0:0,0:0:0:0:
219,330,36786,2,0,P|251:310|268:274,1,60,0|8,0:0|0:0,0:0:0:0:
242,235,37208,2,0,P|218:180|220:113,1,120,2|0,0:0|0:0,0:0:0:0:
334,92,38053,2,0,P|358:147|356:214,1,120,2|2,0:0|0:0,0:0:0:0:
402,246,38687,2,0,P|429:238|461:232,1,60,10|0,0:0|3:0,0:0:0:0:
490,179,39110,5,2,3:2:0:0:
430,81,39532,1,8,0:0:0:0:
430,81,39743,2,0,P|377:115|345:169,1,120,2|2,3:2|3:2,0:0:0:0:
267,252,40588,1,0,0:0:0:0:
267,252,40800,2,0,P|240:241|198:232,1,60,2|0,3:2|3:0,0:0:0:0:
173,186,41222,1,8,0:0:0:0:
173,186,41434,2,0,P|225:159|259:105,1,120,2|0,3:2|3:0,0:0:0:0:
224,58,42067,1,10,0:0:0:0:
104,73,42490,6,0,P|90:102|80:143,1,60,4|0,3:2|0:0,0:0:0:0:
50,179,42912,2,0,P|90:216|124:283,1,120,2|0,3:2|3:0,0:0:0:0:
98,328,43546,1,2,0:0:0:0:
216,367,43969,1,2,0:0:0:0:
216,367,44180,2,0,P|244:356|277:351,2,60,2|0|0,3:2|0:0|3:0,0:0:0:0:
227,307,44814,2,0,P|230:249|223:170,1,120,2|2,0:0|0:0,0:0:0:0:
180,147,45448,1,0,3:0:0:0:
268,66,45870,6,0,P|290:56|346:51,1,60,2|0,3:2|0:0,0:0:0:0:
369,99,46293,1,2,3:2:0:0:
369,99,46504,2,0,P|421:128|487:133,1,120,2|2,0:0|0:0,0:0:0:0:
428,244,47349,1,2,0:0:0:0:
428,244,47560,2,0,P|420:270|412:312,2,60,2|0|0,3:2|0:0|3:0,0:0:0:0:
394,194,48194,1,2,0:0:0:0:
381,79,48617,1,0,0:0:0:0:
381,79,48828,2,0,P|351:85|324:98,1,60,0|0,3:0|3:0,0:0:0:0:
269,75,49250,6,0,P|258:53|248:-4,2,60,4|0|2,3:2|0:0|3:2,0:0:0:0:
196,170,50096,1,0,3:0:0:0:
196,170,50307,2,0,P|173:219|163:303,1,120,2|2,0:0|0:0,0:0:0:0:
112,317,50941,2,0,P|101:288|77:269,2,60,2|0|0,3:2|0:0|3:0,0:0:0:0:
98,375,51574,1,2,0:0:0:0:
216,358,51997,2,0,P|253:363|278:375,2,60,2|0|2,0:0|3:0|3:2,0:0:0:0:
195,295,52631,5,4,3:2:0:0:
301,240,53053,2,0,P|300:209|287:165,1,60,2|2,3:2|3:2,0:0:0:0:
336,139,53476,2,0,P|317:114|281:85,1,60,0|2,3:0|3:2,0:0:0:0:
307,36,53898,2,0,P|277:26|231:23,1,60,0|0,3:0|3:0,0:0:0:0:
200,59,54321,2,0,B|116:70|116:70|90:38,1,120,6|2,1:2|3:2,0:0:0:0:
52,86,54955,2,0,B|63:170|63:170|31:196,1,120,6|0,3:2|1:0,0:0:0:0:
65,243,55588,1,6,1:2:0:0:
166,178,56011,5,4,3:1:0:0:
177,99,62138,6,0,P|177:67|191:30,2,60,2|0|0,1:2|1:0|1:0,0:0:0:0:
213,146,62772,6,0,P|228:199|240:279,1,120,6|0,3:2|0:0,0:0:0:0:
275,310,63405,1,6,3:2:0:0:
365,230,63828,1,0,1:0:0:0:
365,230,64039,2,0,P|392:218|435:215,1,60,4|0,3:2|3:0,0:0:0:0:
466,254,64462,2,0,P|468:155|494:67,1,180,2|2,3:2|3:2,0:0:0:0:
382,36,65518,1,0,1:0:0:0:
382,36,65729,2,0,P|361:52|313:58,1,60,2|2,3:2|1:2,0:0:0:0:
274,33,66152,6,0,P|218:13|155:29,1,120,6|0,3:2|3:0,0:0:0:0:
136,81,66786,2,0,P|146:111|152:159,1,60,0|2,3:0|3:2,0:0:0:0:
103,175,67208,2,0,P|91:202|84:251,2,60,0|2|0,1:0|3:2|1:0,0:0:0:0:
57,135,67842,5,2,0:0:0:0:
330,115,70588,6,0,P|360:102|387:72,2,60,2|2|0,0:0|0:0|0:0,0:0:0:0:
285,163,71222,6,0,P|348:196|392:264,1,132.00000402832,6|8,3:2|0:0,0:0:0:0:
398,312,71855,1,0,1:0:0:0:
398,312,72067,2,0,P|460:324|509:269,1,132.00000402832,2|8,3:2|0:0,0:0:0:0:
481,218,72700,2,0,P|484:146|527:77,1,132.00000402832,2|0,0:0|0:0,0:0:0:0:
397,28,73545,2,0,B|340:63|340:63|273:27,1,132.00000402832,2|0,1:2|0:0,0:0:0:0:
229,72,74179,2,0,P|221:107|222:147,1,66.0000020141602,8|0,0:0|0:0,0:0:0:0:
249,196,74602,5,2,3:2:0:0:
157,294,75024,2,0,P|128:293|85:274,1,66.0000020141602,8|0,0:0|1:0,0:0:0:0:
44,234,75447,2,0,P|88:208|133:124,1,132.00000402832,2|8,3:2|0:0,0:0:0:0:
102,79,76081,1,2,0:0:0:0:
217,13,76503,2,0,P|248:14|281:27,2,66.0000020141602,2|8|2,0:0|0:0|1:2,0:0:0:0:
258,138,77348,1,2,0:0:0:0:
262,142,77560,2,0,P|272:176|271:212,1,66.0000020141602,10|0,0:0|3:0,0:0:0:0:
318,252,77982,6,0,P|385:267|441:220,1,132.00000402832,2|8,3:2|0:0,0:0:0:0:
465,177,78616,1,0,1:0:0:0:
465,177,78827,2,0,B|414:129|414:129|455:70,1,132.00000402832,2|8,3:2|0:0,0:0:0:0:
508,57,79461,1,2,0:0:0:0:
386,5,79883,2,0,P|356:9|314:24,1,66.0000020141602,2|8,0:0|0:0,0:0:0:0:
293,79,80306,1,2,1:2:0:0:
168,35,80729,1,2,0:0:0:0:
168,35,80940,2,0,P|152:63|144:99,1,66.0000020141602,10|0,0:0|3:0,0:0:0:0:
95,140,81362,6,0,P|132:183|172:259,1,132.00000402832,2|8,3:2|0:0,0:0:0:0:
159,314,81996,1,0,1:0:0:0:
159,314,82207,1,2,3:2:0:0:
284,356,82630,2,0,P|311:338|344:312,1,66.0000020141602,10|2,0:0|0:0,0:0:0:0:
377,266,83052,1,4,3:2:0:0:
377,266,83264,2,0,P|415:266|445:285,1,66.0000020141602,0|10,1:0|1:2,0:0:0:0:
478,333,83686,1,4,3:2:0:0:
509,207,84109,1,2,3:2:0:0:
509,207,84320,2,0,P|503:173|494:144,1,60,12|2,0:0|0:0,0:0:0:0:
489,82,84743,6,0,P|432:115|364:134,1,132.00000402832,6|8,3:2|0:0,0:0:0:0:
270,44,85588,2,0,P|240:25|203:19,1,66.0000020141602,2|0,3:2|0:0,0:0:0:0:
175,77,86010,1,8,0:0:0:0:
175,77,86222,2,0,P|181:148|164:217,1,132.00000402832,2|0,0:0|0:0,0:0:0:0:
130,261,86855,1,8,0:0:0:0:
130,261,87067,1,2,1:2:0:0:
24,191,87489,1,2,0:0:0:0:
24,191,87700,2,0,P|8:157|10:123,1,66.0000020141602,8|0,0:0|0:0,0:0:0:0:
39,70,88123,5,2,3:2:0:0:
158,15,88545,2,0,B|188:34|188:34|208:65,1,66.0000020141602,8|0,0:0|1:0,0:0:0:0:
270,65,88968,2,0,P|246:131|228:211,1,132.00000402832,2|8,3:2|0:0,0:0:0:0:
221,256,89602,1,2,0:0:0:0:
282,372,90024,2,0,P|315:373|355:357,1,66.0000020141602,2|8,0:0|0:0,0:0:0:0:
359,297,90447,2,0,P|422:305|491:324,1,132.00000402832,2|10,0:0|0:0,0:0:0:0:
510,259,91081,2,0,B|513:219|513:219|497:189,1,66.0000020141602,8|0,0:0|3:0,0:0:0:0:
452,151,91503,5,4,3:2:0:0:
339,220,91926,2,0,P|309:226|266:227,2,66.0000020141602,8|0|2,0:0|1:0|3:2,0:0:0:0:
362,95,92771,1,10,0:0:0:0:
362,95,92982,2,0,P|308:67|231:55,1,132.00000402832,0|0,0:0|1:0,0:0:0:0:
185,94,93616,2,0,B|188:127|188:127|176:163,1,66.0000020141602,10|2,0:0|0:0,0:0:0:0:
135,208,94038,2,0,P|142:240|169:284,2,66.0000020141602,2|0|10,3:2|1:0|0:0,0:0:0:0:
26,133,94883,6,0,P|27:101|43:67,1,66.0000020141602,2|0,3:2|3:0,0:0:0:0:
84,20,95306,1,8,0:0:0:0:
84,20,95517,2,0,P|141:54|227:59,1,132.00000402832,2|2,1:2|3:2,0:0:0:0:
260,25,96151,1,8,0:0:0:0:
260,25,96362,1,2,3:2:0:0:
260,25,97841,1,8,0:1:0:0:
348,105,98264,6,0,P|370:166|362:227,1,120,4|10,3:2|0:0,0:0:0:0:
283,308,99109,1,2,3:2:0:0:
178,262,99531,1,10,0:0:0:0:
178,262,99743,2,0,P|152:209|157:135,1,120,2|2,0:0|0:0,0:0:0:0:
180,95,100376,2,0,P|151:75|104:52,2,60,8|2|0,0:0|1:2|3:0,0:0:0:0:
273,171,101222,2,0,P|300:164|334:137,1,60,10|0,0:0|3:0,0:0:0:0:
358,95,101644,6,0,P|398:109|457:172,1,120,2|10,3:2|0:0,0:0:0:0:
422,218,102278,1,2,0:0:0:0:
422,218,102489,2,0,P|414:251|412:293,2,60,2|0|10,3:2|0:0|0:0,0:0:0:0:
306,252,103334,6,0,P|290:232|251:214,1,60,4|2,3:2|0:0,0:0:0:0:
238,165,103757,1,8,0:0:0:0:
238,165,103968,2,0,P|188:199|124:214,1,120,4|0,3:2|3:0,0:0:0:0:
85,173,104602,1,12,0:0:0:0:
45,59,105024,6,0,P|84:55|175:91,1,120,2|8,3:2|0:0,0:0:0:0:
184,27,105658,1,0,1:0:0:0:
184,27,105869,2,0,P|214:73|297:96,1,120,2|10,3:2|0:0,0:0:0:0:
328,75,106503,1,2,1:2:0:0:
438,22,106926,1,2,0:0:0:0:
438,22,107137,2,0,B|462:67|462:67|438:140,1,120,10|0,0:0|3:0,0:0:0:0:
356,218,107982,2,0,P|358:246|382:285,1,60,10|0,0:0|3:0,0:0:0:0:
379,334,108405,6,0,P|440:331|512:286,1,120,2|8,3:2|0:0,0:0:0:0:
475,252,109038,1,2,0:0:0:0:
475,252,109250,1,2,3:2:0:0:
389,167,109672,2,0,P|395:130|403:100,1,60,10|2,0:0|1:2,0:0:0:0:
362,61,110095,6,0,P|377:43|418:22,2,60,4|0|12,3:2|1:0|0:0,3:2:0:0:
312,95,110729,2,0,B|257:114|257:114|197:78,1,120,6|2,3:2|3:2,0:0:0:0:
177,29,111362,1,12,0:0:0:0:
82,103,111785,5,4,0:0:0:0:
256,192,111996,12,2,115165,0:0:0:0:
