osu file format v14

[General]
AudioFilename: audio.mp3
AudioLeadIn: 0
PreviewTime: 70483
Countdown: 0
SampleSet: Soft
StackLeniency: 0.7
Mode: 0
LetterboxInBreaks: 0
WidescreenStoryboard: 1

[Editor]
Bookmarks: 1927,8687,15448,28969,42490,56011,71222,84743,98264,115165
DistanceSpacing: 0.6
BeatDivisor: 4
GridSize: 8
TimelineZoom: 2.399999

[Metadata]
Title:SHINY*STAR!! (feat. rerone)
TitleUnicode:SHINY☆STAR!! (feat. rerone)
Artist:P4koo
ArtistUnicode:P4koo
Creator:Hinsvar
Version:Hard
Source:
Tags:Pakoo れろね 레로네 p4koochan Featured Artist FA Mappers' Guild MPG Idol Pop Electronic electropop Korean K-Pop KPop PArty Be-music ArT! PABAT! PABAT 2017
BeatmapID:2672301
BeatmapSetID:1287121

[Difficulty]
HPDrainRate:4.7
CircleSize:3.3
OverallDifficulty:6
ApproachRate:7.5
SliderMultiplier:1.44
SliderTickRate:1

[Events]
//Background and Video events
0,0,"73770501_p0.jpg",0,0
//Break Periods
2,56211,61313
2,68042,69763
//Storyboard Layer 0 (Background)
//Storyboard Layer 1 (Fail)
//Storyboard Layer 2 (Pass)
//Storyboard Layer 3 (Foreground)
//Storyboard Layer 4 (Overlay)
//Storyboard Sound Samples

[TimingPoints]
1927,422.535211267606,4,2,1,60,1,0
8687,-111.111111111111,4,2,1,60,0,0
12912,-100,4,2,1,65,0,0
13757,-100,4,2,1,50,0,0
15025,-100,4,2,1,60,0,0
15448,-100,4,2,1,70,0,0
21574,-100,4,2,1,60,0,0
22103,-100,4,2,1,5,0,0
22208,-100,4,2,1,70,0,0
28546,-100,4,2,1,50,0,0
28969,-111.111111111111,4,2,2,50,0,0
42490,-100,4,2,1,60,0,0
54321,-100,4,2,1,50,0,0
54955,-100,4,2,1,60,0,0
55588,-100,4,2,1,50,0,0
56011,-100,4,2,1,50,0,0
62138,-125,4,2,1,50,0,0
62772,-100,4,2,1,60,0,0
65096,-100,4,2,1,55,0,0
66152,-100,4,2,1,60,0,0
66997,-100,4,2,1,55,0,0
67419,-100,4,2,1,60,0,0
70588,-125,4,2,1,70,0,0
71222,422.535211267606,4,2,1,80,1,1
71222,-90.9090909090909,4,2,1,80,0,1
84320,-90.9090909090909,4,2,1,80,0,0
84743,-90.9090909090909,4,2,1,80,0,1
97841,-100,4,2,1,60,0,0
98264,-100,4,2,1,70,0,1
98369,-100,4,2,1,70,0,0
105024,-100,4,2,1,70,0,0
110517,-100,4,2,1,60,0,0
110729,-100,4,2,1,70,0,0
111362,-100,4,2,1,60,0,0
111996,-100,4,2,1,30,0,0
113898,-100,4,2,1,40,0,0
114320,-100,4,2,1,50,0,0
114743,-100,4,2,1,60,0,0
115165,-100,4,2,1,40,0,0

[Colours]
Combo1 : 172,155,210
Combo2 : 215,182,128
Combo3 : 251,136,136
Combo4 : 253,173,102
Combo5 : 250,176,5

[HitObjects]
379,40,8687,6,0,P|404:90|425:168,1,129.599996044922,4|0,3:2|3:0,0:0:0:0:
375,237,9321,1,2,0:0:0:0:
439,324,9532,2,0,P|384:323|306:345,1,129.599996044922,2|0,3:2|3:0,0:0:0:0:
250,274,10166,1,2,0:0:0:0:
222,155,10377,6,0,P|273:188|349:198,1,129.599996044922,2|0,3:2|3:0,0:0:0:0:
399,130,11011,1,2,0:0:0:0:
323,68,11222,2,0,P|362:27|409:21,1,97.1999970336915,2|2,3:2|0:0,0:0:0:0:
428,36,11645,2,0,P|460:51|504:56,1,64.799998022461,2|2,3:2|0:0,0:0:0:0:
435,141,12067,5,0,3:0:0:0:
478,220,12279,2,0,P|489:263|494:292,2,64.799998022461,0|0|2,3:0|3:0|3:2,0:0:0:0:
360,182,12912,6,0,P|345:211|328:265,1,72,4|0,3:2|3:0,0:0:0:0:
301,267,13229,2,0,P|265:223|250:162,1,108,2|2,3:2|3:2,0:0:0:0:
256,192,13757,12,8,15025,0:1:0:0:
41,56,15448,6,0,P|108:65|182:95,1,144,4|10,3:2|0:0,0:0:0:0:
246,175,16081,1,2,0:0:0:0:
246,175,16187,1,2,0:0:0:0:
246,175,16293,2,0,P|281:162|311:131,1,72,2|0,3:2|0:0,0:0:0:0:
373,45,16715,1,10,0:0:0:0:
449,99,16927,6,0,P|465:157|477:254,1,144,2|2,0:0|0:0,0:0:0:0:
306,320,17772,2,0,P|298:334|289:370,2,36,2|2|0,0:0|0:0|3:0,0:0:0:0:
274,232,18194,1,0,0:0:0:0:
197,285,18405,1,10,0:0:0:0:
197,285,18617,1,10,0:0:0:0:
113,205,18828,6,0,P|92:126|100:60,2,144,2|10|2,3:2|0:0|3:2,0:0:0:0:
40,264,19884,1,0,0:0:0:0:
113,352,20096,2,0,P|143:327|187:316,1,72,10|0,0:0|0:0,0:0:0:0:
264,341,20518,5,4,3:2:0:0:
239,228,20729,1,10,0:0:0:0:
351,203,20941,1,10,0:0:0:0:
376,316,21152,1,6,3:2:0:0:
376,316,21574,1,2,3:2:0:0:
455,366,21786,2,0,B|470:316|470:316|452:253,1,108,12|0,0:0|0:0,0:0:0:0:
438,230,22208,6,0,P|444:138|465:87,1,144,2|10,3:2|0:0,0:0:0:0:
395,25,22842,1,2,0:0:0:0:
395,25,22948,1,2,0:0:0:0:
395,25,23053,2,0,P|352:32|304:36,1,72,2|0,3:2|0:0,0:0:0:0:
217,95,23476,1,10,0:0:0:0:
217,95,23687,6,0,P|280:123|348:181,1,144,2|2,0:0|0:0,0:0:0:0:
230,323,24532,2,0,P|221:343|216:377,2,36,2|2|0,0:0|0:0|3:0,0:0:0:0:
203,232,24955,1,2,0:0:0:0:
90,280,25166,1,10,0:0:0:0:
90,280,25377,1,10,0:0:0:0:
120,161,25588,6,0,P|129:81|122:13,2,144,2|10|2,3:2|0:0|3:2,0:0:0:0:
53,227,26645,1,0,1:0:0:0:
44,242,26750,1,0,1:0:0:0:
40,259,26856,1,10,0:0:0:0:
98,332,27067,1,2,1:2:0:0:
197,260,27279,5,4,3:2:0:0:
277,320,27490,2,0,P|283:343|284:364,2,36,0|0|10,1:0|1:0|0:0,0:0:0:0:
379,372,27912,2,0,P|415:337|406:272,1,108,6|0,3:2|1:0,0:0:0:0:
379,266,28335,1,2,3:2:0:0:
474,216,28546,1,14,0:0:0:0:
474,216,28757,1,0,3:0:0:0:
385,138,28969,6,0,P|375:106|386:66,1,64.799998022461,4|0,3:2|0:0,0:0:0:0:
306,23,29391,2,0,P|264:67|238:142,1,129.599996044922,10|0,0:0|0:0,0:0:0:0:
281,211,30025,1,0,0:0:0:0:
231,286,30236,2,0,P|201:280|160:280,1,64.799998022461,8|2,0:0|0:0,0:0:0:0:
67,229,30659,2,0,P|123:201|141:122,1,129.599996044922,2|8,0:0|0:0,0:0:0:0:
210,78,31293,2,0,P|266:106|287:166,1,129.599996044922,2|2,0:0|0:0,0:0:0:0:
234,240,31927,1,8,0:0:0:0:
282,316,32138,1,0,3:0:0:0:
371,244,32349,6,0,P|403:236|445:233,1,64.799998022461,2|0,3:2|0:0,0:0:0:0:
503,150,32772,1,10,0:0:0:0:
503,150,32983,2,0,P|432:137|388:100,1,129.599996044922,2|0,0:0|0:0,0:0:0:0:
333,29,33617,2,0,B|301:18|301:18|268:37,1,64.799998022461,8|2,0:0|0:0,0:0:0:0:
163,29,34039,1,2,0:0:0:0:
163,29,34250,2,0,P|179:51|183:93,2,64.799998022461,0|8|2,0:0|0:0|0:0,0:0:0:0:
14,134,35096,1,2,3:2:0:0:
46,218,35307,2,0,P|79:229|118:228,1,64.799998022461,8|0,0:0|3:0,0:0:0:0:
176,325,35729,6,0,P|184:296|205:258,1,64.799998022461,2|0,3:2|0:0,0:0:0:0:
163,152,36152,2,0,P|221:128|299:127,1,129.599996044922,10|0,0:0|0:0,0:0:0:0:
351,61,36786,1,0,0:0:0:0:
351,61,36997,2,0,B|373:82|373:82|409:71,1,64.799998022461,8|2,0:0|0:0,0:0:0:0:
489,35,37419,1,2,0:0:0:0:
489,35,37631,2,0,P|507:92|514:167,2,129.599996044922,0|2|2,0:0|0:0|0:0,0:0:0:0:
415,88,38687,1,10,0:0:0:0:
318,36,38898,1,0,3:0:0:0:
211,77,39110,6,0,B|193:143|193:143|259:167,1,129.599996044922,2|8,3:2|0:0,0:0:0:0:
321,219,39743,2,0,B|254:204|254:204|195:261,1,129.599996044922,2|2,3:2|3:2,0:0:0:0:
181,332,40377,1,8,0:0:0:0:
181,332,40800,1,2,3:2:0:0:
104,283,41011,2,0,L|66:299,2,32.3999990112305,0|0|8,3:0|3:0|0:0,0:0:0:0:
154,206,41434,2,0,P|215:230|300:226,1,129.599996044922,2|0,3:2|3:0,0:0:0:0:
308,210,41962,1,2,3:0:0:0:
308,210,42067,2,0,P|310:168|323:129,1,64.799998022461,10|0,0:0|3:0,0:0:0:0:
242,27,42490,6,0,P|213:45|170:54,1,72,4|0,3:2|0:0,0:0:0:0:
185,168,42912,2,0,P|128:124|46:111,1,144,2|0,3:2|3:0,0:0:0:0:
14,193,43546,2,0,P|16:226|37:268,1,72,2|0,0:0|3:0,0:0:0:0:
118,345,43969,1,2,0:0:0:0:
205,311,44180,5,2,3:2:0:0:
205,311,44391,2,0,P|213:272|213:229,1,72,0|0,0:0|3:0,0:0:0:0:
329,238,44814,2,0,P|285:186|249:105,1,144,2|2,0:0|0:0,0:0:0:0:
344,99,45448,2,0,P|346:63|370:14,1,72,0|2,3:0|0:0,0:0:0:0:
478,79,45870,6,0,P|491:108|497:154,1,72,2|0,3:2|0:0,0:0:0:0:
474,175,46187,1,0,3:0:0:0:
474,175,46293,1,2,3:2:0:0:
499,285,46504,2,0,P|433:255|352:231,1,144,2|2,0:0|0:0,0:0:0:0:
300,313,47138,2,0,P|281:280|270:243,1,72,0|2,3:0|0:0,0:0:0:0:
342,143,47560,5,2,3:2:0:0:
386,60,47772,2,0,P|392:38|390:17,2,36,0|0|0,0:0|0:0|3:0,0:0:0:0:
264,88,48194,2,0,P|200:73|117:45,1,144,2|0,0:0|0:0,0:0:0:0:
56,111,48828,2,0,P|51:127|49:160,3,36,0|2|0|2,3:0|0:0|3:0|0:0,0:0:0:0:
68,175,49250,6,0,P|83:208|93:247,1,72,4|0,3:2|0:0,0:0:0:0:
183,324,49673,2,0,P|193:252|215:172,1,144,2|0,3:2|3:0,0:0:0:0:
162,71,50307,2,0,P|198:81|243:81,1,72,2|0,0:0|3:0,0:0:0:0:
338,22,50729,1,2,0:0:0:0:
408,83,50941,6,0,P|403:119|388:154,1,72,2|0,3:2|0:0,0:0:0:0:
359,172,51257,1,0,3:0:0:0:
359,172,51363,1,0,3:0:0:0:
321,282,51574,2,0,P|388:256|468:234,1,144,2|2,0:0|0:0,0:0:0:0:
498,152,52208,2,0,P|470:129|424:115,1,72,0|2,3:0|3:2,0:0:0:0:
334,184,52631,5,4,3:2:0:0:
280,107,52842,1,0,3:0:0:0:
324,24,53053,2,0,P|341:18|373:13,3,36,2|2|2|2,3:2|0:0|3:2|0:0,0:0:0:0:
390,31,53476,2,0,P|431:45|474:46,1,72,0|2,3:0|3:2,0:0:0:0:
482,137,53898,2,0,P|473:171|452:213,1,72,0|0,3:0|3:0,0:0:0:0:
387,312,54321,6,0,P|371:250|341:206,1,108,6|0,1:2|1:0,0:0:0:0:
320,188,54743,1,2,3:2:0:0:
354,71,54955,2,0,P|309:93|241:108,1,108,6|0,3:2|1:0,0:0:0:0:
228,79,55377,1,0,1:0:0:0:
173,187,55588,1,6,1:2:0:0:
38,34,56011,5,4,3:1:0:0:
65,75,62138,6,0,P|98:77|125:95,1,57.6,2|0,1:2|1:0,0:0:0:0:
162,168,62560,1,0,1:0:0:0:
261,245,62772,6,0,P|308:186|311:104,1,144,6|0,3:2|0:0,0:0:0:0:
398,41,63405,2,0,P|450:88|469:156,1,144,6|0,3:2|1:0,0:0:0:0:
393,244,64039,1,4,3:2:0:0:
453,315,64250,1,0,3:0:0:0:
376,369,64462,6,0,P|331:321|256:350,1,144,2|0,3:2|0:0,0:0:0:0:
285,233,65096,2,0,B|260:263|246:297|246:297|220:272|176:261,1,144,2|0,3:2|1:0,0:0:0:0:
163,291,65624,1,0,1:0:0:0:
163,291,65729,1,2,3:2:0:0:
85,237,65941,1,2,1:2:0:0:
168,146,66152,6,0,P|176:118|181:68,2,72,6|0|0,3:2|3:0|3:0,0:0:0:0:
196,235,66786,1,0,3:0:0:0:
292,168,66997,2,0,P|329:156|378:154,1,72,2|0,3:2|1:0,0:0:0:0:
440,238,67419,1,2,3:2:0:0:
497,136,67631,1,0,1:0:0:0:
421,50,67842,5,2,0:0:0:0:
334,105,70588,6,0,P|300:87|276:80,2,57.6,2|2|0,0:0|0:0|0:0,0:0:0:0:
439,179,71222,6,0,P|357:196|278:227,1,158.400004833985,6|8,3:2|0:0,0:0:0:0:
217,322,71855,1,0,1:0:0:0:
217,322,71961,1,0,1:0:0:0:
217,322,72067,2,0,P|202:277|181:248,1,79.2000024169923,2|0,3:2|0:0,0:0:0:0:
76,196,72489,1,8,0:0:0:0:
134,111,72700,6,0,P|206:132|314:109,1,158.400004833985,2|0,0:0|0:0,0:0:0:0:
320,23,73334,1,8,0:0:0:0:
396,91,73545,2,0,P|407:109|417:133,2,39.6000012084961,0|0|2,1:0|1:0|3:2,0:0:0:0:
317,198,73968,1,0,0:0:0:0:
238,131,74179,2,0,B|206:117|206:117|152:105,1,79.2000024169923,8|0,0:0|0:0,0:0:0:0:
78,199,74602,6,0,P|98:253|129:374,1,158.400004833985,2|8,3:2|0:0,0:0:0:0:
214,270,75236,1,0,1:0:0:0:
214,270,75341,1,0,1:0:0:0:
214,270,75447,2,0,P|227:184|281:134,1,158.400004833985,2|8,3:2|0:0,0:0:0:0:
260,16,76081,6,0,P|330:62|414:69,1,158.400004833985,2|0,0:0|0:0,0:0:0:0:
475,142,76714,1,8,0:0:0:0:
377,209,76926,1,2,1:2:0:0:
377,209,77031,1,0,1:0:0:0:
377,209,77137,2,0,P|363:246|362:294,1,79.2000024169923,0|2,3:0|0:0,0:0:0:0:
440,373,77560,1,10,0:0:0:0:
509,276,77771,1,0,3:0:0:0:
460,167,77982,6,0,P|439:95|427:5,1,158.400004833985,2|8,3:2|0:0,0:0:0:0:
338,84,78616,1,0,1:0:0:0:
338,84,78722,1,0,1:0:0:0:
338,84,78827,2,0,P|301:61|255:46,1,79.2000024169923,2|0,3:2|0:0,0:0:0:0:
161,103,79250,1,8,0:0:0:0:
72,54,79461,6,0,P|42:119|36:214,1,158.400004833985,2|0,0:0|0:0,0:0:0:0:
95,288,80095,1,8,0:0:0:0:
182,212,80306,2,0,P|181:186|170:161,2,39.6000012084961,2|0|0,1:2|1:0|3:0,0:0:0:0:
284,167,80729,1,0,0:0:0:0:
362,245,80940,1,10,0:0:0:0:
308,341,81151,1,0,3:0:0:0:
201,312,81362,6,0,P|118:334|46:363,1,158.400004833985,2|8,3:2|0:0,0:0:0:0:
80,248,81996,1,0,1:0:0:0:
80,248,82102,1,0,1:0:0:0:
80,248,82207,2,0,P|80:204|75:165,1,79.2000024169923,2|0,3:2|0:0,0:0:0:0:
199,105,82630,2,0,P|170:123|186:169,1,79.2000024169923,10|2,0:0|0:0,0:0:0:0:
294,235,83052,5,4,3:2:0:0:
383,184,83264,1,0,1:0:0:0:
383,184,83369,1,0,1:0:0:0:
383,184,83475,1,10,1:2:0:0:
332,66,83686,2,0,P|394:88|450:97,1,118.800003625488,4|0,3:2|1:0,0:0:0:0:
478,73,84109,1,2,3:2:0:0:
477,187,84320,2,0,P|481:226|493:268,1,79.2000024169923,12|2,0:0|0:0,0:0:0:0:
395,357,84743,6,0,P|369:301|276:272,1,158.400004833985,6|8,3:2|0:0,0:0:0:0:
204,336,85376,1,0,1:0:0:0:
204,336,85482,1,0,1:0:0:0:
204,336,85588,2,0,P|157:321|121:290,1,79.2000024169923,2|0,3:2|0:0,0:0:0:0:
186,215,86010,1,8,0:0:0:0:
74,160,86222,6,0,P|53:75|109:35,1,158.400004833985,2|0,0:0|0:0,0:0:0:0:
186,96,86855,1,8,0:0:0:0:
282,50,87067,1,2,1:2:0:0:
282,50,87172,1,0,1:0:0:0:
282,50,87278,2,0,P|322:39|366:36,1,79.2000024169923,0|0,3:0|0:0,0:0:0:0:
302,147,87700,1,8,0:0:0:0:
390,198,87912,1,0,0:0:0:0:
478,104,88123,6,0,P|479:160|512:265,1,158.400004833985,2|8,3:2|0:0,0:0:0:0:
448,341,88757,1,0,1:0:0:0:
448,341,88862,1,0,1:0:0:0:
448,341,88968,2,0,P|366:298|299:284,1,158.400004833985,2|8,3:2|0:0,0:0:0:0:
216,169,89602,6,0,P|300:184|311:107,1,158.400004833985,2|0,0:0|0:0,0:0:0:0:
256,28,90236,1,10,0:0:0:0:
169,80,90447,1,0,1:0:0:0:
169,80,90552,1,0,1:0:0:0:
169,80,90658,2,0,P|136:64|89:55,1,79.2000024169923,0|10,3:0|0:0,0:0:0:0:
8,138,91081,1,8,0:0:0:0:
103,209,91292,1,0,3:0:0:0:
46,313,91503,5,4,3:2:0:0:
133,367,91714,2,0,P|157:360|178:349,2,39.6000012084961,0|0|8,1:0|1:0|0:0,0:0:0:0:
192,271,92137,1,0,1:0:0:0:
192,271,92243,1,0,1:0:0:0:
192,271,92348,2,0,P|209:230|209:180,1,79.2000024169923,2|2,3:2|0:0,0:0:0:0:
115,110,92771,2,0,P|98:151|98:201,1,79.2000024169923,8|0,0:0|0:0,0:0:0:0:
18,253,93193,5,2,3:2:0:0:
97,336,93405,1,0,1:0:0:0:
97,336,93510,1,0,1:0:0:0:
97,336,93616,2,0,P|116:329|148:321,3,39.6000012084961,10|2|2|2,0:0|0:0|0:0|0:0,0:0:0:0:
153,288,94038,2,0,P|191:298|234:318,1,79.2000024169923,2|0,3:2|1:0,0:0:0:0:
299,236,94461,2,0,B|311:271|311:271|345:302,1,79.2000024169923,10|0,0:0|0:0,0:0:0:0:
456,369,94883,6,0,P|461:328|474:282,1,79.2000024169923,2|0,3:2|3:0,0:0:0:0:
387,204,95306,1,8,0:0:0:0:
485,147,95517,1,0,1:0:0:0:
485,147,95623,1,0,1:0:0:0:
485,147,95729,1,2,3:2:0:0:
419,57,95940,2,0,P|384:39|338:42,1,79.2000024169923,2|8,3:2|0:0,0:0:0:0:
219,67,96362,1,2,3:2:0:0:
219,67,97841,1,8,0:1:0:0:
106,285,98264,6,0,P|91:219|56:138,1,144,4|10,3:2|0:0,0:0:0:0:
52,44,98898,1,0,1:0:0:0:
52,44,99003,1,0,1:0:0:0:
52,44,99109,2,0,P|83:61|137:69,1,72,2|0,3:2|0:0,0:0:0:0:
197,18,99531,1,10,0:0:0:0:
288,100,99743,6,0,P|278:174|254:255,1,144,2|2,0:0|0:0,0:0:0:0:
185,298,100376,1,8,0:0:0:0:
289,360,100588,1,2,1:2:0:0:
289,360,100693,1,0,1:0:0:0:
289,360,100799,2,0,P|324:345|373:336,1,72,0|2,3:0|0:0,0:0:0:0:
406,257,101222,1,10,0:0:0:0:
339,181,101433,1,0,3:0:0:0:
333,197,101538,6,0,P|323:145|345:76,1,108,2|2,3:2|1:2,0:0:0:0:
439,50,102067,2,0,P|437:30|430:8,2,36,10|2|2,0:0|0:0|0:0,0:0:0:0:
433,85,102383,2,0,P|464:105|505:114,2,72,2|2|2,0:0|0:0|0:0,0:0:0:0:
406,109,102912,1,10,0:0:0:0:
340,42,103123,1,0,0:0:0:0:
279,148,103334,5,4,3:2:0:0:
199,96,103545,1,2,0:0:0:0:
199,96,103651,1,2,0:0:0:0:
199,96,103757,1,8,0:0:0:0:
107,176,103968,2,0,P|98:101|71:24,1,144,4|0,3:2|3:0,0:0:0:0:
172,11,104602,1,12,0:0:0:0:
172,11,105024,6,0,P|228:43|317:39,1,144,2|8,3:2|0:0,0:0:0:0:
279,171,105658,1,0,1:0:0:0:
279,171,105764,1,0,1:0:0:0:
279,171,105869,2,0,P|313:149|353:128,1,72,2|0,3:2|0:0,0:0:0:0:
421,179,106292,1,10,0:0:0:0:
366,270,106503,1,0,1:0:0:0:
353,259,106609,6,0,P|334:315|327:365,1,108,2|2,0:0|0:0,0:0:0:0:
241,295,107137,2,0,P|238:269|228:244,2,36,10|2|2,0:0|0:0|0:0,0:0:0:0:
225,327,107454,2,0,P|179:310|108:298,1,108,2|2,0:0|0:0,0:0:0:0:
42,224,107982,1,10,0:0:0:0:
42,224,108193,1,0,3:0:0:0:
62,92,108405,6,0,P|70:53|99:18,1,72,2|2,3:2|0:0,0:0:0:0:
122,21,108722,1,2,0:0:0:0:
213,78,108933,1,2,0:0:0:0:
226,90,109038,2,0,P|249:80|267:67,2,36,2|2|0,0:0|0:0|3:0,0:0:0:0:
267,185,109461,1,0,1:0:0:0:
267,185,109567,1,0,1:0:0:0:
267,185,109672,2,0,P|300:203|340:196,1,72,10|2,0:0|1:2,0:0:0:0:
451,165,110095,6,0,P|441:203|441:243,1,72,4|0,3:2|1:0,0:0:0:0:
443,253,110412,1,0,1:0:0:0:
452,268,110517,1,12,0:0:0:0:
364,354,110729,1,6,3:2:0:0:
307,279,110940,2,0,P|309:258|322:238,2,36,0|0|2,1:0|1:0|3:2,0:0:0:0:
192,328,111362,2,0,P|147:319|78:295,1,108,12|0,0:0|0:0,0:0:0:0:
84,263,111785,5,4,0:0:0:0:
256,192,111996,12,2,115165,0:0:0:0:
