osu file format v14

[General]
AudioFilename: audio.mp3
AudioLeadIn: 0
PreviewTime: 90182
Countdown: 0
SampleSet: Soft
StackLeniency: 0.7
Mode: 0
LetterboxInBreaks: 0
WidescreenStoryboard: 1

[Editor]
Bookmarks: 1767,23710,45653,56625,68968,90910,112853,123825,134796
DistanceSpacing: 0.95
BeatDivisor: 4
GridSize: 8
TimelineZoom: 1

[Metadata]
Title:Nick of Time
TitleUnicode:Nick of Time
Artist:P4koo
ArtistUnicode:P4koo
Creator:Sonnyc
Version:Normal
Source:osu!
Tags:featured artist mappers' guild OverRapid dynamix electronic english instumental hardcore Pakoo p4koochan
BeatmapID:2653710
BeatmapSetID:1262594

[Difficulty]
HPDrainRate:4
CircleSize:3.3
OverallDifficulty:5
ApproachRate:6
SliderMultiplier:1.4
SliderTickRate:1

[Events]
//Background and Video events
0,0,"bg.jpg",0,0
//Break Periods
2,45853,55575
//Storyboard Layer 0 (Background)
//Storyboard Layer 1 (Fail)
//Storyboard Layer 2 (Pass)
//Storyboard Layer 3 (Foreground)
//Storyboard Layer 4 (Overlay)
//Storyboard Sound Samples

[TimingPoints]
1768,342.857142857143,4,2,1,70,1,0
23710,-133.333333333333,4,2,1,50,0,0
34682,-111.111111111111,4,2,1,60,0,0
56625,-100,4,2,1,60,0,0
68968,-100,4,2,1,70,0,0
90910,-100,4,2,1,80,0,0
112853,-100,4,2,1,70,0,0
123825,-125,4,2,1,50,0,0

[Colours]
Combo1 : 202,134,242
Combo2 : 255,191,217
Combo3 : 253,251,202
Combo4 : 148,217,254
Combo5 : 232,170,102
Combo6 : 234,66,129
Combo7 : 112,245,196

[HitObjects]
36,125,1767,37,4,0:1:0:0:
36,125,1940,2,0,B|39:89|73:66|73:66|209:50,1,210,2|2,0:1|0:1,0:0:0:0:
324,125,2796,1,10,0:1:0:0:
324,125,2968,2,0,B|321:161|287:184|287:184|150:199,1,210,2|10,0:1|0:1,0:0:0:0:
64,309,3825,2,0,B|228:327,1,140,4|8,0:3|0:1,0:0:0:0:
326,257,4510,21,4,0:3:0:0:
423,357,4853,1,8,0:1:0:0:
423,357,5025,1,2,0:0:0:0:
463,223,5367,1,2,0:0:0:0:
463,223,5539,1,8,0:1:0:0:
326,257,5882,1,4,0:3:0:0:
423,357,6225,1,8,0:1:0:0:
423,357,6397,1,2,0:0:0:0:
463,223,6739,1,2,0:0:0:0:
463,223,6911,1,8,0:1:0:0:
268,301,7425,22,0,B|304:298|327:264|327:264|343:128,1,210,2|2,0:1|0:1,0:0:0:0:
226,63,8281,1,10,0:1:0:0:
226,63,8453,2,0,B|190:66|167:100|167:100|152:237,1,210,2|10,0:1|0:1,0:0:0:0:
268,301,9310,2,0,B|286:137,1,140,4|8,0:3|0:1,0:0:0:0:
348,36,9996,69,4,0:3:0:0:
445,136,10340,1,8,0:1:0:0:
445,136,10511,1,2,0:0:0:0:
485,3,10854,1,2,0:0:0:0:
485,3,11025,1,8,0:1:0:0:
348,36,11368,1,4,0:3:0:0:
445,136,11711,1,8,0:1:0:0:
445,136,11882,1,2,0:0:0:0:
445,136,12054,2,0,B|429:275,1,140,4|8,0:3|0:1,0:0:0:0:
395,345,12568,69,8,0:1:0:0:
395,345,12739,2,0,B|385:372|353:383|353:383|244:367,1,140,12|8,0:1|0:1,0:0:0:0:
220,315,13253,1,2,0:0:0:0:
220,315,13425,2,0,B|230:288|262:277|262:277|371:293,1,140,10|10,0:1|0:1,0:0:0:0:
472,239,14110,2,0,B|499:229|510:197|510:197|494:88,1,140,8|8,0:1|0:1,0:0:0:0:
385,49,14796,2,0,B|358:59|347:91|347:91|363:200,1,140,8|8,0:1|0:1,0:0:0:0:
382,312,15482,21,8,0:1:0:0:
258,273,15825,1,8,0:1:0:0:
258,273,15996,1,2,0:0:0:0:
175,375,16339,1,2,0:0:0:0:
175,375,16510,1,8,0:1:0:0:
51,336,16853,1,8,0:1:0:0:
175,375,17196,1,8,0:1:0:0:
175,375,17367,1,2,0:0:0:0:
258,273,17710,1,2,0:0:0:0:
258,273,17881,1,8,0:1:0:0:
186,145,18225,22,0,B|196:118|228:107|228:107|337:123,1,140,8|8,0:1|0:1,0:0:0:0:
362,181,18739,1,2,0:0:0:0:
362,181,18910,2,0,B|352:208|320:219|320:219|211:203,1,140,10|10,0:1|0:1,0:0:0:0:
106,188,19596,2,0,B|79:198|68:230|68:230|84:339,1,140,8|8,0:1|0:1,0:0:0:0:
193,378,20282,2,0,B|220:368|231:336|231:336|215:227,1,140,8|8,0:1|0:1,0:0:0:0:
195,128,20968,69,8,0:1:0:0:
308,65,21311,1,8,0:1:0:0:
326,141,21482,1,4,0:3:0:0:
404,152,21654,1,8,0:1:0:0:
349,271,21996,1,8,0:1:0:0:
219,255,22338,1,4,0:1:0:0:
376,199,23710,6,0,L|366:94,1,105.000004005432,4|2,0:3|0:0,0:0:0:0:
347,51,24225,2,0,L|452:61,2,105.000004005432,0|2|0,0:3|0:0|0:0,0:0:0:0:
253,43,25253,1,2,0:1:0:0:
253,43,26453,54,0,L|263:148,1,105.000004005432,0|2,0:3|0:0,0:0:0:0:
222,172,26968,2,0,L|232:277,1,105.000004005432,0|2,0:3|0:0,0:0:0:0:
320,242,27653,2,0,L|330:347,1,105.000004005432,0|2,0:3|0:1,0:0:0:0:
209,286,29196,38,0,L|104:276,1,105.000004005432,0|2,0:3|0:0,0:0:0:0:
61,257,29710,2,0,L|71:362,2,105.000004005432,0|2|0,0:3|0:0|0:0,0:0:0:0:
53,163,30738,1,2,0:1:0:0:
53,163,31939,54,0,L|158:153,1,105.000004005432,0|2,0:3|0:0,0:0:0:0:
182,194,32454,2,0,L|287:184,1,105.000004005432,0|2,0:3|0:0,0:0:0:0:
337,104,33139,2,0,L|442:94,1,105.000004005432,0|2,0:3|0:1,0:0:0:0:
368,296,34682,38,0,P|398:302|423:322,2,62.9999980773926,0|2|0,0:3|0:0|0:0,0:0:0:0:
319,267,35196,2,0,P|283:306|208:307,1,125.999996154785,2|2,0:0|0:0,0:0:0:0:
129,256,35882,1,2,0:0:0:0:
129,256,36225,1,2,0:1:0:0:
261,136,37425,54,0,P|291:142|316:162,2,62.9999980773926,0|2|0,0:3|0:0|0:0,0:0:0:0:
212,107,37939,2,0,P|176:146|101:147,2,125.999996154785,2|2|0,0:0|0:0|0:0,0:0:0:0:
240,12,38968,1,2,0:1:0:0:
42,110,40168,38,0,P|48:79|68:54,2,62.9999980773926,0|2|0,0:3|0:0|0:0,0:0:0:0:
13,159,40682,2,0,P|52:195|53:270,1,125.999996154785,2|2,0:0|0:0,0:0:0:0:
2,349,41368,1,2,0:0:0:0:
2,349,41711,1,2,0:1:0:0:
208,198,42910,54,0,P|214:167|234:142,2,62.9999980773926,0|2|0,0:3|0:0|0:0,0:0:0:0:
179,247,43425,2,0,P|218:283|219:358,2,125.999996154785,2|2|0,0:0|0:0|0:0,0:0:0:0:
84,219,44453,1,2,0:1:0:0:
218,38,45482,53,4,0:3:0:0:
218,38,45653,1,4,0:1:0:0:
419,381,56625,53,4,0:3:0:0:
290,350,56968,1,4,0:3:0:0:
161,319,57310,2,0,P|67:340|19:250,1,210,2|2,0:1|0:1,0:1:0:0:
100,264,57996,69,4,0:3:0:0:
229,233,58340,1,4,0:3:0:0:
358,202,58682,2,0,P|452:223|500:133,1,210,2|2,0:1|0:1,0:1:0:0:
419,147,59368,21,4,0:3:0:0:
290,116,59711,1,4,0:3:0:0:
161,85,60053,2,0,P|67:106|19:16,2,210,2|2|2,0:1|0:1|0:1,0:1:0:0:
290,116,61425,1,4,0:3:0:0:
419,147,61768,1,4,0:3:0:0:
460,272,62110,6,0,L|389:280,1,70,8|4,0:1|0:3,0:0:0:0:
322,322,62453,2,0,P|298:299|253:289,1,70,4|4,0:3|0:3,0:0:0:0:
193,328,62796,2,0,L|122:336,2,70,8|4|4,0:1|0:3|0:3,0:0:0:0:
98,217,63482,38,0,L|169:209,1,70,8|4,0:1|0:3,0:0:0:0:
236,167,63825,2,0,P|260:190|305:200,1,70,4|4,0:3|0:3,0:0:0:0:
365,161,64168,2,0,L|436:153,2,70,8|4|4,0:1|0:3|0:3,0:0:0:0:
417,35,64853,53,12,0:1:0:0:
286,10,65196,1,12,0:1:0:0:
224,61,65368,1,4,0:3:0:0:
197,136,65539,1,12,0:1:0:0:
66,111,65882,1,12,0:1:0:0:
66,111,66053,1,4,0:3:0:0:
121,232,66396,38,0,L|263:216,1,140,4|4,0:3|0:3,0:0:0:0:
344,319,67082,2,0,L|486:303,1,140,4|4,0:3|0:3,0:0:0:0:
498,80,68968,37,4,0:1:0:0:
368,109,69310,1,8,0:1:0:0:
238,138,69653,2,0,L|231:249,2,105,2|2|2,0:1|0:1|0:1,0:0:0:0:
271,65,70339,37,4,0:3:0:0:
141,94,70681,1,8,0:1:0:0:
11,123,71025,2,0,P|-5:198|90:277,1,210,2|2,0:1|0:1,0:0:0:0:
168,288,71710,53,4,0:3:0:0:
298,259,72052,1,8,0:1:0:0:
428,230,72395,2,0,L|435:119,2,105,2|2|2,0:1|0:1|0:1,0:0:0:0:
493,342,73253,54,0,P|364:370|196:245,1,350,2|10,0:1|0:1,0:0:0:0:
168,118,74453,37,4,0:3:0:0:
298,147,74795,1,8,0:1:0:0:
428,176,75138,2,0,L|435:287,2,105,2|2|2,0:1|0:1|0:1,0:0:0:0:
349,214,75825,37,4,0:3:0:0:
219,185,76167,1,8,0:1:0:0:
89,156,76511,2,0,P|73:81|168:2,1,210,2|2,0:1|0:1,0:0:0:0:
246,8,77196,53,4,0:3:0:0:
376,37,77538,1,8,0:1:0:0:
506,66,77881,2,0,L|513:177,2,105,2|2|2,0:1|0:1|0:1,0:0:0:0:
393,137,78739,54,0,P|307:74|273:242,1,350,2|10,0:1|0:1,0:0:0:0:
147,289,79939,37,4,0:3:0:0:
135,156,80281,1,8,0:1:0:0:
122,23,80624,2,0,L|13:31,2,105,2|2|2,0:1|0:1|0:1,0:0:0:0:
203,17,81310,37,4,0:3:0:0:
215,150,81652,1,8,0:1:0:0:
228,283,81997,2,0,P|282:367|381:359,1,210,2|2,0:1|0:1,0:0:0:0:
440,306,82682,53,4,0:3:0:0:
428,173,83024,1,8,0:1:0:0:
415,40,83367,2,0,L|306:48,2,105,2|2|2,0:1|0:1|0:1,0:0:0:0:
504,139,84225,54,0,P|377:252|208:232,1,350,2|10,0:1|0:1,0:0:0:0:
100,306,85425,37,4,0:3:0:0:
112,173,85767,1,8,0:1:0:0:
125,40,86110,2,0,L|234:48,2,105,2|2|2,0:1|0:1|0:1,0:0:0:0:
45,36,86796,37,4,0:3:0:0:
33,169,87138,1,8,0:1:0:0:
19,302,87481,2,0,P|118:293|172:377,1,210,2|2,0:1|0:1,0:0:0:0:
249,321,88168,69,8,0:1:0:0:
362,384,88511,1,8,0:1:0:0:
380,308,88682,1,4,0:3:0:0:
458,297,88854,1,8,0:1:0:0:
403,178,89196,1,8,0:1:0:0:
273,194,89539,1,8,0:1:0:0:
56,39,90225,6,0,P|5:93|21:156,1,140,2|2,0:1|0:1,0:0:0:0:
91,192,90739,1,4,0:3:0:0:
91,192,90910,2,0,L|232:182,1,140,4|8,0:1|0:1,0:0:0:0:
301,69,91596,2,0,B|377:84|377:84|393:55|426:49,1,140,2|8,0:1|0:1,0:0:0:0:
492,95,92110,2,0,B|484:141|440:165|440:165|463:282,1,210,2|8,0:1|0:1,0:0:0:0:
277,357,93139,5,2,0:1:0:0:
277,357,93310,1,8,0:1:0:0:
155,303,93653,2,0,P|142:230|201:173,1,140,2|10,0:1|0:1,0:0:0:0:
311,202,94339,2,0,P|302:102|214:52,1,210,2|2,0:1|0:1,0:0:0:0:
73,218,95710,86,0,B|218:227,1,140,2|8,0:1|0:1,0:0:0:0:
263,291,96225,2,0,B|417:300|417:300|450:251,1,210,2|8,0:1|0:1,0:0:0:0:
421,123,97082,2,0,B|276:114,1,140,2|8,0:1|0:1,0:0:0:0:
231,50,97597,2,0,B|77:41|77:41|44:90,1,210,2|8,0:1|0:1,0:0:0:0:
156,252,98625,5,2,0:1:0:0:
156,252,98796,1,8,0:1:0:0:
279,203,99139,2,0,P|318:258|304:324,2,140,2|10|2,0:1|0:1|0:1,0:0:0:0:
156,252,100168,1,8,0:1:0:0:
156,252,100339,1,2,0:1:0:0:
431,104,101196,86,0,P|482:158|466:221,1,140,2|8,0:1|0:1,0:0:0:0:
398,257,101710,2,0,L|177:241,1,210,2|8,0:1|0:1,0:0:0:0:
227,114,102567,2,0,B|151:129|151:129|135:100|102:94,1,140,2|8,0:1|0:1,0:0:0:0:
37,140,103081,2,0,B|45:186|89:210|89:210|66:327,1,210,2|8,0:1|0:1,0:0:0:0:
244,237,104110,5,2,0:1:0:0:
244,237,104281,1,8,0:1:0:0:
298,359,104625,2,0,P|371:372|428:313,1,140,2|10,0:1|0:1,0:0:0:0:
454,205,105310,2,0,P|396:122|294:123,1,210,2|2,0:1|0:1,0:0:0:0:
162,351,106682,86,0,B|115:319|115:319|124:165,1,210,2|2,0:1|0:1,0:0:0:0:
79,91,107368,86,0,L|150:83,1,70,12|4,0:1|0:3,0:0:0:0:
217,41,107711,2,0,P|241:64|286:74,1,70,4|4,0:3|0:3,0:0:0:0:
346,35,108054,2,0,L|417:27,2,70,8|4|4,0:1|0:3|0:3,0:0:0:0:
441,146,108740,38,0,L|370:154,1,70,8|4,0:1|0:3,0:0:0:0:
303,196,109083,2,0,P|279:173|234:163,1,70,4|4,0:3|0:3,0:0:0:0:
174,202,109426,2,0,L|103:210,2,70,8|4|4,0:1|0:3|0:3,0:0:0:0:
122,328,110111,53,12,0:1:0:0:
253,353,110454,1,12,0:1:0:0:
315,302,110626,1,4,0:3:0:0:
342,227,110797,1,12,0:1:0:0:
473,252,111140,1,12,0:1:0:0:
473,252,111311,1,4,0:3:0:0:
256,192,111482,12,4,112853,0:1:0:0:
256,270,113539,70,0,B|259:306|293:329|293:329|429:345,2,210,2|2|10,0:1|0:1|0:1,0:0:0:0:
358,185,114910,2,0,B|340:35,1,140,4|10,0:3|0:1,0:0:0:0:
219,101,115596,38,0,P|179:58|96:57,1,140,4|8,0:3|0:1,0:0:0:0:
26,30,116110,2,0,P|73:76|114:295,1,280,2|0,0:1|0:1,0:0:0:0:
229,352,117139,69,2,0:1:0:0:
229,352,117310,1,10,0:1:0:0:
357,318,117653,2,0,P|451:339|499:249,1,210,2|2,0:1|0:1,0:1:0:0:
431,137,118510,37,2,0:1:0:0:
249,220,119025,2,0,B|285:217|308:183|308:183|324:47,2,210,2|2|10,0:1|0:1|0:1,0:0:0:0:
168,113,120396,2,0,B|18:131,1,140,4|10,0:3|0:1,0:0:0:0:
115,231,121082,86,0,P|72:271|71:354,1,140,4|8,0:3|0:1,0:0:0:0:
142,380,121596,2,0,P|188:333|407:292,1,280,2|2,0:1|0:1,0:0:0:0:
487,112,122796,1,8,0:1:0:0:
354,141,123139,2,0,L|361:36,2,105,4|4|4,0:3|0:3|0:3,0:0:0:0:
216,96,123996,54,0,B|247:98|267:128|267:128|281:240,3,168,2|2|2|2,0:1|0:1|0:1|0:1,0:0:0:0:
100,345,126568,38,0,P|133:311|201:301,1,112,0|2,0:0|0:0,0:0:0:0:
230,325,127082,2,2,L|220:101,3,224,2|2|2|2,0:1|0:0|0:0|0:0,0:0:0:0:
333,41,129482,6,0,B|335:72|365:92|365:92|477:106,3,168,2|2|2|2,0:1|0:1|0:1|0:1,0:0:0:0:
177,178,132054,86,0,P|211:211|221:279,1,112,0|2,0:0|0:0,0:0:0:0:
197,308,132567,2,2,L|440:296,1,224,2|2,0:1|0:1,0:0:0:0:
464,293,133425,1,4,0:1:0:0:
374,121,134110,1,2,0:0:0:0:
275,112,134453,1,8,0:1:0:0:
176,103,134796,1,4,0:1:0:0:
