osu file format v14

[General]
AudioFilename: audio.mp3
AudioLeadIn: 0
PreviewTime: 90182
Countdown: 0
SampleSet: None
StackLeniency: 0.4
Mode: 0
LetterboxInBreaks: 0
WidescreenStoryboard: 0

[Editor]
Bookmarks: 1767,23710,45653,56625,68968,90910,112853,123825,134796
DistanceSpacing: 0.9
BeatDivisor: 4
GridSize: 8
TimelineZoom: 1.3

[Metadata]
Title:Nick of Time
TitleUnicode:Nick of Time
Artist:P4koo
ArtistUnicode:P4koo
Creator:Sonnyc
Version:Expert
Source:osu!
Tags:featured artist mappers' guild OverRapid dynamix electronic english instumental hardcore Pakoo p4koochan
BeatmapID:2624340
BeatmapSetID:1262594

[Difficulty]
HPDrainRate:6
CircleSize:4
OverallDifficulty:9
ApproachRate:9.3
SliderMultiplier:2.9
SliderTickRate:1

[Events]
//Background and Video events
0,0,"bg.jpg",0,0
//Break Periods
2,45853,56071
//Storyboard Layer 0 (Background)
//Storyboard Layer 1 (Fail)
//Storyboard Layer 2 (Pass)
//Storyboard Layer 3 (Foreground)
//Storyboard Layer 4 (Overlay)
//Storyboard Sound Samples

[TimingPoints]
1768,342.857142857143,4,2,1,70,1,0
1939,-133.333333333333,4,2,1,70,0,0
2196,-133.333333333333,4,2,1,5,0,0
2282,-133.333333333333,4,2,1,70,0,0
2368,-133.333333333333,4,2,1,5,0,0
2453,-66.6666666666667,4,2,1,70,0,0
2710,-133.333333333333,4,2,1,5,0,0
2796,-66.6666666666667,4,2,1,70,0,0
2882,-133.333333333333,4,2,1,5,0,0
2968,-100,4,2,1,70,0,0
3225,-100,4,2,1,5,0,0
3310,-100,4,2,1,70,0,0
3396,-100,4,2,1,5,0,0
3482,-100,4,2,1,70,0,0
7425,-133.333333333333,4,2,1,70,0,0
7682,-133.333333333333,4,2,1,5,0,0
7768,-133.333333333333,4,2,1,70,0,0
7854,-133.333333333333,4,2,1,5,0,0
7939,-66.6666666666667,4,2,1,70,0,0
8196,-133.333333333333,4,2,1,5,0,0
8282,-66.6666666666667,4,2,1,70,0,0
8368,-133.333333333333,4,2,1,5,0,0
8453,-100,4,2,1,70,0,0
8711,-100,4,2,1,5,0,0
8796,-100,4,2,1,70,0,0
8882,-100,4,2,1,5,0,0
8968,-100,4,2,1,70,0,0
20968,-133.333333333333,4,2,1,70,0,0
21225,-133.333333333333,4,2,1,5,0,0
21310,-133.333333333333,4,2,1,70,0,0
21568,-133.333333333333,4,2,1,5,0,0
21653,-66.6666666666667,4,2,1,70,0,0
21910,-66.6666666666667,4,2,1,5,0,0
21996,-66.6666666666667,4,2,1,70,0,0
22253,-66.6666666666667,4,2,1,5,0,0
22339,-66.6666666666667,4,2,1,70,0,0
23710,-500,4,2,1,50,0,0
34682,-1000,4,2,1,60,0,0
56625,-125,4,2,1,60,0,0
57396,-125,4,2,1,5,0,0
57568,-125,4,2,1,60,0,0
57653,-125,4,2,1,5,0,0
57825,-125,4,2,1,60,0,0
57910,-125,4,2,1,5,0,0
57996,-125,4,2,1,60,0,0
58768,-125,4,2,1,5,0,0
58940,-125,4,2,1,60,0,0
59025,-125,4,2,1,5,0,0
59197,-125,4,2,1,60,0,0
60139,-125,4,2,1,5,0,0
60311,-125,4,2,1,60,0,0
60396,-125,4,2,1,5,0,0
60568,-125,4,2,1,60,0,0
60653,-125,4,2,1,5,0,0
60910,-83.3333333333333,4,2,1,60,0,0
60996,-83.3333333333333,4,2,1,5,0,0
61168,-83.3333333333333,4,2,1,60,0,0
61253,-83.3333333333333,4,2,1,5,0,0
61425,-83.3333333333333,4,2,1,60,0,0
61510,-83.3333333333333,4,2,1,5,0,0
61596,-166.666666666667,4,2,1,60,0,0
62110,-83.3333333333333,4,2,1,60,0,0
68968,-76.9230769230769,4,2,1,70,0,0
69653,-45.4545454545455,4,2,1,70,0,0
70339,-76.9230769230769,4,2,1,70,0,0
71025,-52.6315789473684,4,2,1,70,0,0
71539,-66.6666666666667,4,2,1,70,0,0
71710,-76.9230769230769,4,2,1,70,0,0
72396,-52.6315789473684,4,2,1,70,0,0
72910,-66.6666666666667,4,2,1,70,0,0
73253,-50,4,2,1,70,0,0
74453,-76.9230769230769,4,2,1,70,0,0
75139,-45.4545454545455,4,2,1,70,0,0
75825,-76.9230769230769,4,2,1,70,0,0
76510,-52.6315789473684,4,2,1,70,0,0
77025,-66.6666666666667,4,2,1,70,0,0
77196,-76.9230769230769,4,2,1,70,0,0
77882,-52.6315789473684,4,2,1,70,0,0
78396,-66.6666666666667,4,2,1,70,0,0
78739,-50,4,2,1,70,0,0
79939,-76.9230769230769,4,2,1,70,0,0
80625,-45.4545454545455,4,2,1,70,0,0
81310,-76.9230769230769,4,2,1,70,0,0
81995,-52.6315789473684,4,2,1,70,0,0
82510,-66.6666666666667,4,2,1,70,0,0
82681,-76.9230769230769,4,2,1,70,0,0
83367,-52.6315789473684,4,2,1,70,0,0
84224,-50,4,2,1,70,0,0
85424,-76.9230769230769,4,2,1,70,0,0
86110,-45.4545454545455,4,2,1,70,0,0
86796,-76.9230769230769,4,2,1,70,0,0
87481,-52.6315789473684,4,2,1,70,0,0
88167,-76.9230769230769,4,2,1,70,0,0
88425,-76.9230769230769,4,2,1,5,0,0
88510,-76.9230769230769,4,2,1,70,0,0
88768,-76.9230769230769,4,2,1,5,0,0
88853,-50,4,2,1,70,0,0
89110,-50,4,2,1,5,0,0
89196,-50,4,2,1,70,0,0
89453,-50,4,2,1,5,0,0
89539,-50,4,2,1,70,0,0
90910,-76.9230769230769,4,2,1,70,0,0
91082,-38.4615384615385,4,2,1,70,0,0
91168,-38.4615384615385,4,2,1,5,0,0
91253,-34.2465753424658,4,2,1,70,0,0
91339,-34.4827586206897,4,2,1,5,0,0
91596,-76.9230769230769,4,2,1,80,0,0
92453,-38.4615384615385,4,2,1,70,0,0
92539,-38.4615384615385,4,2,1,5,0,0
92624,-34.2465753424658,4,2,1,70,0,0
92710,-34.4827586206897,4,2,1,5,0,0
92967,-76.9230769230769,4,2,1,80,0,0
95196,-38.4615384615385,4,2,1,70,0,0
95282,-38.4615384615385,4,2,1,5,0,0
95367,-34.2465753424658,4,2,1,70,0,0
95453,-34.4827586206897,4,2,1,5,0,0
95710,-76.9230769230769,4,2,1,80,0,0
96568,-38.4615384615385,4,2,1,70,0,0
96654,-38.4615384615385,4,2,1,5,0,0
96739,-34.2465753424658,4,2,1,70,0,0
96825,-34.4827586206897,4,2,1,5,0,0
96910,-76.9230769230769,4,2,1,80,0,0
97939,-38.4615384615385,4,2,1,70,0,0
98025,-38.4615384615385,4,2,1,5,0,0
98110,-34.2465753424658,4,2,1,70,0,0
98196,-34.4827586206897,4,2,1,5,0,0
98453,-76.9230769230769,4,2,1,80,0,0
100682,-38.4615384615385,4,2,1,70,0,0
100768,-38.4615384615385,4,2,1,5,0,0
100853,-34.2465753424658,4,2,1,70,0,0
100939,-34.4827586206897,4,2,1,5,0,0
101196,-76.9230769230769,4,2,1,80,0,0
102053,-38.4615384615385,4,2,1,70,0,0
102139,-38.4615384615385,4,2,1,5,0,0
102224,-34.2465753424658,4,2,1,70,0,0
102310,-34.4827586206897,4,2,1,5,0,0
102567,-76.9230769230769,4,2,1,80,0,0
103425,-38.4615384615385,4,2,1,70,0,0
103511,-38.4615384615385,4,2,1,5,0,0
103596,-34.2465753424658,4,2,1,70,0,0
103682,-34.4827586206897,4,2,1,5,0,0
103939,-76.9230769230769,4,2,1,80,0,0
106168,-38.4615384615385,4,2,1,70,0,0
106254,-38.4615384615385,4,2,1,5,0,0
106339,-34.2465753424658,4,2,1,70,0,0
106425,-34.4827586206897,4,2,1,5,0,0
106682,-76.9230769230769,4,2,1,80,0,0
113025,-111.111111111111,4,2,1,70,0,0
113282,-111.111111111111,4,2,1,5,0,0
113368,-111.111111111111,4,2,1,70,0,0
113796,-111.111111111111,4,2,1,5,0,0
113882,-111.111111111111,4,2,1,70,0,0
114053,-100,4,2,1,70,0,0
114310,-100,4,2,1,5,0,0
114396,-100,4,2,1,70,0,0
115082,-55.2486187845304,4,2,1,5,0,0
115168,-100,4,2,1,70,0,0
115339,-55.2486187845304,4,2,1,5,0,0
115425,-100,4,2,1,70,0,0
116453,-55.2486187845304,4,2,1,5,0,0
116539,-100,4,2,1,70,0,0
116710,-55.2486187845304,4,2,1,5,0,0
116796,-100,4,2,1,70,0,0
117653,-100,4,2,1,70,0,0
117825,-100,4,2,1,5,0,0
117910,-100,4,2,1,70,0,0
118082,-100,4,2,1,5,0,0
118168,-43.2900432900433,4,2,1,70,0,0
118510,-111.111111111111,4,2,1,70,0,0
118768,-111.111111111111,4,2,1,5,0,0
118853,-111.111111111111,4,2,1,70,0,0
119282,-111.111111111111,4,2,1,5,0,0
119368,-100,4,2,1,70,0,0
119796,-100,4,2,1,5,0,0
119882,-100,4,2,1,70,0,0
120568,-55.2486187845304,4,2,1,5,0,0
120653,-100,4,2,1,70,0,0
120825,-55.2486187845304,4,2,1,5,0,0
120910,-100,4,2,1,70,0,0
121939,-55.2486187845304,4,2,1,5,0,0
122025,-100,4,2,1,70,0,0
122196,-55.2486187845304,4,2,1,5,0,0
122282,-100,4,2,1,70,0,0
123996,-133.333333333333,4,2,1,50,0,0
129482,-133.333333333333,4,2,1,50,0,0
133253,-100,4,2,1,60,0,0
133596,-100,4,2,1,70,0,0
133939,-100,4,2,1,80,0,0
134282,-100,4,2,1,90,0,0
134625,-100,4,2,1,100,0,0

[Colours]
Combo1 : 202,134,242
Combo2 : 255,191,217
Combo3 : 253,251,202
Combo4 : 148,217,254
Combo5 : 232,170,102
Combo6 : 234,66,129
Combo7 : 112,245,196

[HitObjects]
207,7,1767,69,4,0:1:0:0:
69,101,1939,70,0,L|253:87,1,163.125006222725,2|0,0:1|0:0,0:0:0:0:
154,103,2282,2,0,L|245:95,1,54.3750020742417,2|0,0:1|0:0,0:0:0:0:
382,26,2453,54,0,B|414:42|422:82|422:82|374:258|374:258|382:298|414:314,1,326.25001244545,2|0,0:1|0:0,0:0:0:0:
488,139,2796,2,0,B|459:243,1,108.750004148483,10|0,0:1|0:0,0:0:0:0:
281,359,2968,38,0,B|278:323|244:300|244:300|62:279,1,217.5,2|0,0:1|0:0,0:0:0:0:
89,290,3310,2,0,B|161:298,1,72.5,2|0,0:1|0:0,0:0:0:0:
381,319,3482,1,10,0:1:0:0:
295,161,3653,69,2,0:0:0:0:
429,125,3825,2,0,P|389:70|322:86,1,145,4|2,0:3|0:0,0:0:0:0:
402,201,4168,2,0,P|336:216|295:161,1,145,8|2,0:1|0:0,0:0:0:0:
14,34,4510,53,4,0:3:0:0:
114,70,4682,1,2,0:0:0:0:
69,169,4853,1,8,0:1:0:0:
176,150,5025,1,2,0:0:0:0:
220,252,5196,1,4,0:3:0:0:
288,164,5368,1,2,0:0:0:0:
387,208,5539,1,8,0:1:0:0:
368,101,5710,1,2,0:0:0:0:
474,90,5882,1,4,0:3:0:0:
368,101,6053,1,2,0:0:0:0:
387,208,6225,1,8,0:1:0:0:
288,164,6396,1,2,0:0:0:0:
220,252,6568,1,4,0:3:0:0:
176,150,6739,1,2,0:0:0:0:
69,169,6910,1,8,0:1:0:0:
114,70,7082,1,2,0:0:0:0:
14,34,7253,1,4,0:3:0:0:
236,51,7425,70,0,L|420:65,1,163.125006222725,2|0,0:1|0:0,0:0:0:0:
408,52,7768,2,0,L|412:106,1,54.3750020742417,2|0,0:1|0:0,0:0:0:0:
480,235,7939,54,0,B|464:267|424:275|424:275|248:227|248:227|208:235|192:267,1,326.25001244545,2|0,0:1|0:0,0:0:0:0:
367,341,8282,2,0,B|263:312,1,108.750004148483,10|0,0:1|0:0,0:0:0:0:
98,375,8453,38,0,B|63:363|49:324|49:324|73:143,1,217.5,2|0,0:1|0:0,0:0:0:0:
57,172,8796,2,0,B|129:164,1,72.5,2|0,0:1|0:0,0:0:0:0:
349,143,8968,1,10,0:1:0:0:
262,340,9139,69,2,0:0:0:0:
227,205,9310,2,0,P|195:216|201:322,1,145,4|2,0:3|0:0,0:0:0:0:
262,340,9653,2,0,P|317:299|302:233,1,145,8|2,0:1|0:0,0:0:0:0:
75,37,9996,53,4,0:3:0:0:
181,64,10168,1,2,0:0:0:0:
273,7,10339,1,8,0:1:0:0:
303,113,10510,1,2,0:0:0:0:
398,164,10682,1,4,0:3:0:0:
322,243,10853,1,2,0:0:0:0:
325,353,11025,1,8,0:1:0:0:
219,326,11196,1,2,0:0:0:0:
127,381,11368,1,4,0:3:0:0:
96,276,11539,1,2,0:0:0:0:
0,224,11710,1,8,0:1:0:0:
77,145,11882,1,2,0:0:0:0:
0,375,12053,37,4,0:3:0:0:
50,372,12139,1,4,0:3:0:0:
101,370,12225,1,4,0:3:0:0:
152,368,12310,1,4,0:3:0:0:
202,365,12396,1,8,0:1:0:0:
428,309,12568,2,0,L|420:384,1,72.5,8|0,0:1|0:0,0:0:0:0:
508,359,12739,53,4,0:1:0:0:
328,221,12910,70,2,L|476:206,1,145,2|8,0:1|0:1,0:0:0:0:
299,134,13253,1,2,0:1:0:0:
459,99,13425,2,0,L|314:113,1,145,10|0,0:1|0:0,0:0:0:0:
164,220,13768,53,10,0:1:0:0:
83,84,13939,2,0,B|112:86|131:114|131:114|140:199,1,145,2|8,0:1|0:1,0:0:0:0:
22,144,14282,1,2,0:1:0:0:
103,280,14453,2,0,B|73:277|54:249|54:249|45:164,1,145,10|0,0:1|0:0,0:0:0:0:
332,287,14796,6,0,P|291:342|224:326,1,145,8|2,0:1|0:0,0:0:0:0:
303,211,15139,2,0,P|237:196|196:251,1,145,8|2,0:1|0:0,0:0:0:0:
453,377,15482,53,8,0:1:0:0:
512,274,15653,1,2,0:0:0:0:
389,273,15825,1,8,0:1:0:0:
374,153,15996,1,2,0:0:0:0:
261,207,16168,1,8,0:1:0:0:
173,118,16339,1,2,0:0:0:0:
117,226,16510,1,8,0:1:0:0:
2,185,16682,1,2,0:0:0:0:
23,300,16853,1,8,0:1:0:0:
2,185,17025,1,2,0:0:0:0:
117,226,17196,1,8,0:1:0:0:
173,118,17368,1,2,0:0:0:0:
261,207,17539,1,8,0:1:0:0:
374,153,17710,1,2,0:0:0:0:
389,273,17882,1,8,0:1:0:0:
512,274,18053,1,2,0:0:0:0:
453,377,18225,1,8,0:1:0:0:
240,304,18396,70,2,L|255:156,1,145,2|8,0:1|0:1,0:0:0:0:
327,333,18739,1,2,0:1:0:0:
362,173,18910,2,0,L|347:317,1,145,10|0,0:1|0:0,0:0:0:0:
106,179,19253,53,10,0:1:0:0:
242,260,19425,2,0,B|239:230|211:211|211:211|126:202,1,145,2|8,0:1|0:1,0:0:0:0:
182,321,19768,1,2,0:1:0:0:
46,240,19939,2,0,B|48:269|76:288|76:288|161:297,1,145,10|0,0:1|0:0,0:0:0:0:
357,214,20282,6,0,P|412:254|396:321,1,145,8|2,0:1|0:0,0:0:0:0:
321,350,20625,2,0,P|266:309|281:243,1,145,8|2,0:1|0:0,0:0:0:0:
499,103,20968,53,4,0:3:0:0:
466,264,21139,2,0,L|455:190,1,54.3750020742417,4|0,0:3|0:0,0:0:0:0:
415,66,21310,37,4,0:3:0:0:
382,227,21482,2,0,L|371:153,1,54.3750020742417,4|0,0:3|0:0,0:0:0:0:
54,29,21653,53,8,0:1:0:0:
307,76,21825,2,0,L|199:92,1,108.750004148483,8|0,0:1|0:0,0:0:0:0:
1,136,21996,37,8,0:1:0:0:
254,183,22168,2,0,L|130:202,1,108.750004148483,8|0,0:1|0:0,0:0:0:0:
39,273,22339,53,4,0:1:0:0:
154,371,22510,37,2,0:0:0:0:
179,369,22596,1,2,0:0:0:0:
204,368,22682,1,2,0:0:0:0:
229,367,22768,1,2,0:0:0:0:
255,366,22853,1,2,0:0:0:0:
378,248,23025,53,2,0:3:0:0:
384,196,23110,1,2,0:3:0:0:
353,155,23196,1,2,0:3:0:0:
302,146,23282,1,2,0:3:0:0:
259,175,23368,1,2,0:3:0:0:
249,226,23453,1,2,0:3:0:0:
276,270,23539,1,2,0:3:0:0:
486,145,23710,5,4,0:1:0:0:
470,143,23882,1,2,0:0:0:0:
454,141,24053,1,0,0:0:0:0:
438,139,24225,1,2,0:0:0:0:
310,126,24568,1,2,0:0:0:0:
183,113,24910,1,0,0:0:0:0:
55,99,25253,1,2,0:1:0:0:
181,253,26453,53,0,0:0:0:0:
179,237,26625,1,2,0:0:0:0:
177,221,26796,1,0,0:0:0:0:
175,205,26968,1,2,0:0:0:0:
177,221,27310,1,2,0:0:0:0:
179,237,27653,1,0,0:0:0:0:
181,253,27996,1,2,0:1:0:0:
471,363,29196,37,0,0:1:0:0:
455,361,29368,1,2,0:0:0:0:
439,359,29539,1,0,0:0:0:0:
423,357,29710,1,2,0:0:0:0:
295,344,30053,1,2,0:0:0:0:
168,331,30396,1,0,0:0:0:0:
40,317,30739,1,2,0:1:0:0:
296,223,31939,53,0,0:0:0:0:
294,207,32110,1,2,0:0:0:0:
292,191,32282,1,0,0:0:0:0:
290,175,32453,1,2,0:0:0:0:
292,191,32796,1,2,0:0:0:0:
294,207,33139,1,0,0:0:0:0:
296,223,33482,1,2,0:1:0:0:
32,91,34682,37,0,0:0:0:0:
107,33,34853,2,0,L|112:52,1,14.5,2|0,0:0|0:0,0:0:0:0:
198,54,35196,2,0,L|186:70,1,14.5,2|0,0:0|0:0,0:0:0:0:
240,137,35539,2,0,L|219:138,1,14.5,2|0,0:0|0:0,0:0:0:0:
204,223,35882,2,0,L|189:208,1,14.5,2|0,0:0|0:0,0:0:0:0:
114,250,36225,1,2,0:1:0:0:
97,247,36568,1,0,0:0:0:0:
80,244,36910,1,0,0:0:0:0:
62,241,37253,1,0,0:0:0:0:
230,331,37425,53,0,0:0:0:0:
316,291,37596,2,0,L|331:292,1,14.5,2|0,0:0|0:0,0:0:0:0:
238,237,37939,2,0,L|231:222,1,14.5,2|0,0:0|0:0,0:0:0:0:
230,331,38282,2,0,L|221:343,1,14.5,2|0,0:0|0:0,0:0:0:0:
316,291,38625,2,0,L|331:292,1,14.5,2|0,0:0|0:0,0:0:0:0:
238,237,38968,1,2,0:1:0:0:
165,247,39310,1,0,0:0:0:0:
92,257,39653,1,0,0:0:0:0:
87,268,39996,1,0,0:0:0:0:
274,208,40168,37,0,0:0:0:0:
216,133,40339,2,0,L|235:127,1,14.5,2|0,0:0|0:0,0:0:0:0:
237,42,40682,2,0,L|253:53,1,14.5,2|0,0:0|0:0,0:0:0:0:
320,0,41025,2,0,L|321:20,1,14.5,2|0,0:0|0:0,0:0:0:0:
406,36,41368,2,0,L|391:50,1,14.5,2|0,0:0|0:0,0:0:0:0:
433,126,41710,1,2,0:1:0:0:
430,143,42053,1,0,0:0:0:0:
427,160,42396,1,0,0:0:0:0:
424,178,42739,1,0,0:0:0:0:
489,350,42910,53,0,0:0:0:0:
407,301,43082,2,0,L|392:302,1,14.5,2|0,0:0|0:0,0:0:0:0:
296,274,43425,2,0,L|304:286,1,14.5,2|0,0:0|0:0,0:0:0:0:
329,384,43768,2,0,L|335:370,1,14.5,2|0,0:0|0:0,0:0:0:0:
407,301,44110,2,0,L|392:302,1,14.5,2|0,0:0|0:0,0:0:0:0:
296,274,44453,1,2,0:1:0:0:
223,284,44796,1,0,0:0:0:0:
150,294,45139,1,0,0:0:0:0:
23,57,45482,53,4,0:3:0:0:
243,82,45653,1,4,0:1:0:0:
43,98,56625,21,4,0:3:0:0:
134,127,56796,1,2,0:1:0:0:
205,61,56968,1,4,0:3:0:0:
205,61,57053,1,0,0:0:0:0:
440,225,57310,22,0,P|435:196|421:172,1,58,2|0,0:1|0:0,0:0:0:0:
363,287,57568,2,0,P|341:305|328:331,1,58,2|0,0:1|0:0,0:0:0:0:
455,321,57825,2,0,P|483:331|512:332,1,58,2|0,0:1|0:0,0:0:0:0:
310,199,57996,69,4,0:3:0:0:
205,224,58168,1,2,0:1:0:0:
314,203,58339,1,4,0:3:0:0:
314,203,58425,1,0,0:0:0:0:
119,74,58682,22,0,P|124:45|138:21,1,58,2|0,0:1|0:0,0:0:0:0:
196,136,58939,2,0,P|218:154|231:180,1,58,2|0,0:1|0:0,0:0:0:0:
104,170,59196,1,2,0:1:0:0:
77,183,59282,1,0,0:0:0:0:
47,181,59368,69,4,0:3:0:0:
139,245,59539,1,2,0:1:0:0:
247,217,59710,1,4,0:3:0:0:
247,217,59796,1,0,0:0:0:0:
3,358,60053,22,0,P|30:366|52:384,1,58,2|0,0:1|0:0,0:0:0:0:
125,278,60310,2,0,L|136:341,1,58,2|0,0:1|0:0,0:0:0:0:
266,311,60568,2,0,P|242:328|228:353,1,58,2|0,0:1|0:0,0:0:0:0:
460,123,60910,70,0,P|431:152|380:151,1,86.9999973449708,2|0,0:1|0:0,0:0:0:0:
282,28,61168,2,0,L|298:122,1,86.9999973449708,2|0,0:1|0:0,0:0:0:0:
148,177,61425,2,0,P|184:194|232:176,1,86.9999973449708,2|0,0:1|0:0,0:0:0:0:
335,326,61682,22,0,L|319:240,2,86.9999973449708,2|2|2,0:1|0:1|0:1,0:0:0:0:
394,369,62110,5,8,0:1:0:0:
203,351,62282,1,4,0:3:0:0:
422,206,62453,37,4,0:3:0:0:
380,384,62625,1,4,0:3:0:0:
144,295,62796,53,8,0:1:0:0:
186,117,62968,1,4,0:3:0:0:
363,150,63139,37,4,0:3:0:0:
172,132,63310,1,4,0:3:0:0:
46,369,63482,53,8,0:1:0:0:
306,345,63653,1,4,0:3:0:0:
97,231,63825,37,8,0:1:0:0:
354,275,63996,1,4,0:3:0:0:
179,108,64168,53,8,0:1:0:0:
416,217,64339,1,4,0:3:0:0:
292,13,64510,37,8,0:1:0:0:
492,180,64682,1,4,0:3:0:0:
153,382,64853,53,12,0:1:0:0:
202,0,65025,1,8,0:1:0:0:
298,250,65196,37,12,0:1:0:0:
28,356,65368,1,8,0:1:0:0:
384,2,65539,53,12,0:1:0:0:
335,384,65710,1,8,0:1:0:0:
239,134,65882,37,12,0:1:0:0:
509,28,66053,1,8,0:1:0:0:
509,28,66396,1,4,0:3:0:0:
504,41,66739,1,4,0:3:0:0:
499,54,67082,1,4,0:3:0:0:
494,67,67425,1,4,0:3:0:0:
256,192,67596,12,2,68625,0:0:0:0:
342,206,68968,37,4,0:1:0:0:
342,206,69053,1,0,0:0:0:0:
342,206,69139,2,0,P|309:173|263:171,1,94.2499956855776,2|0,0:1|0:0,0:0:0:0:
209,118,69310,1,8,0:1:0:0:
209,118,69396,2,0,P|163:121|132:155,2,94.2499956855776,0|0|0,0:1|0:0|0:0,0:0:0:0:
45,253,69653,38,0,B|26:224|26:224|13:169|61:165|46:105|46:105|61:165|105:146|119:201|119:201|117:236,1,319.000009735108,2|0,0:1|0:0,0:0:0:0:
285,303,69910,2,0,B|314:284|314:284|349:239|308:215|346:167|346:167|308:215|276:180|240:224|240:224|227:256,1,319.000009735108,2|0,0:1|0:0,0:0:0:0:
160,301,70168,1,2,0:1:0:0:
265,89,70339,53,4,0:3:0:0:
265,89,70425,1,0,0:0:0:0:
265,89,70510,2,0,L|172:96,1,94.2499956855776,2|0,0:1|0:0,0:0:0:0:
118,154,70682,1,8,0:1:0:0:
118,154,70768,2,0,L|25:161,2,94.2499956855776,0|0|0,0:1|0:0|0:0,0:0:0:0:
261,304,71025,38,0,B|306:309|306:309|357:297|369:249|369:249|380:201|430:189|430:189|477:194,1,275.499992643357,2|0,0:1|0:0,0:0:0:0:
472,274,71282,2,0,B|425:268|425:268|378:247|376:197|376:197|375:148|329:126|329:126|282:120,1,275.499992643357,2|0,0:1|0:0,0:0:0:0:
207,146,71539,2,0,B|193:266,1,108.750004148483,2|0,0:1|0:1,0:0:0:0:
9,333,71710,53,4,0:3:0:0:
9,333,71796,1,0,0:0:0:0:
9,333,71882,2,0,P|12:286|45:254,1,94.2499956855776,2|0,0:1|0:0,0:0:0:0:
116,290,72053,1,8,0:1:0:0:
116,290,72139,2,0,P|114:336|81:368,2,94.2499956855776,0|0|0,0:1|0:0|0:0,0:0:0:0:
17,149,72396,38,0,B|-13:194|5:252|35:272|35:272|70:274|122:240|126:186,1,275.499992643357,2|0,0:1|0:0,0:0:0:0:
225,122,72653,2,0,B|266:156|263:218|240:245|240:245|206:257|147:239|127:185,1,275.499992643357,2|0,0:1|0:0,0:0:0:0:
118,109,72910,2,0,L|153:373,1,217.500008296967,2|4,0:1|0:3,0:0:0:0:
412,153,73253,6,0,B|426:112|491:109|512:172|478:208|443:203|443:203|290:184,1,290,2|0,0:1|0:0,0:0:0:0:
250,132,73510,2,0,B|207:139|172:85|216:35|264:47|278:79|278:79|338:221,1,290,2|0,0:1|0:0,0:0:0:0:
312,282,73768,2,0,B|339:314|310:372|244:359|231:311|252:283|252:283|345:161,1,290,2|0,0:1|0:0,0:0:0:0:
412,153,74025,5,2,0:1:0:0:
250,132,74196,1,2,0:1:0:0:
312,282,74368,1,2,0:1:0:0:
281,275,74453,21,4,0:3:0:0:
281,275,74539,1,0,0:0:0:0:
281,275,74625,2,0,P|248:308|202:310,1,94.2499956855776,2|0,0:1|0:0,0:0:0:0:
145,359,74796,1,8,0:1:0:0:
145,359,74882,2,0,P|99:356|68:322,2,94.2499956855776,0|0|0,0:1|0:0|0:0,0:0:0:0:
0,181,75139,38,0,B|-19:210|-19:210|-32:265|16:269|1:329|1:329|16:269|60:288|74:233|74:233|72:198,1,319.000009735108,2|0,0:1|0:0,0:0:0:0:
130,143,75396,2,0,B|111:172|111:172|98:227|146:231|131:291|131:291|146:231|190:250|204:195|204:195|202:160,1,319.000009735108,2|0,0:1|0:0,0:0:0:0:
264,110,75653,1,2,0:1:0:0:
431,297,75825,53,4,0:3:0:0:
431,297,75910,1,0,0:0:0:0:
431,297,75996,2,0,L|437:203,1,94.2499956855776,2|0,0:1|0:0,0:0:0:0:
387,146,76168,1,8,0:1:0:0:
387,146,76253,2,0,L|393:52,2,94.2499956855776,0|0|0,0:1|0:0|0:0,0:0:0:0:
227,276,76510,38,0,B|182:281|182:281|131:269|119:221|119:221|108:173|58:161|58:161|11:166,1,275.499992643357,2|0,0:1|0:0,0:0:0:0:
201,197,76768,2,0,B|248:192|248:192|298:204|309:252|309:252|321:300|372:312|372:312|417:307,1,275.499992643357,2|0,0:1|0:0,0:0:0:0:
227,276,77025,1,2,0:1:0:0:
329,50,77196,53,4,0:3:0:0:
329,50,77282,1,0,0:0:0:0:
329,50,77368,2,0,P|282:53|250:86,1,94.2499956855776,2|0,0:1|0:0,0:0:0:0:
286,157,77539,1,8,0:1:0:0:
286,157,77625,2,0,P|332:155|364:122,2,94.2499956855776,0|0|0,0:1|0:0|0:0,0:0:0:0:
48,59,77882,38,0,B|93:29|151:48|171:77|171:77|173:112|139:164|85:168,1,275.499992643357,2|0,0:1|0:0,0:0:0:0:
18,265,78139,2,0,B|52:306|114:303|141:280|141:280|153:246|135:187|83:168,1,275.499992643357,2|0,0:1|0:0,0:0:0:0:
5,158,78396,2,0,L|269:193,1,217.500008296967,2|4,0:1|0:3,0:0:0:0:
464,130,78739,6,0,B|505:116|508:51|445:30|409:64|414:99|414:99|433:252,1,290,2|0,0:1|0:0,0:0:0:0:
310,204,78996,2,0,B|351:190|354:125|291:104|255:138|260:173|260:173|279:326,1,290,2|0,0:1|0:0,0:0:0:0:
156,278,79253,2,0,B|197:264|200:199|137:178|101:212|106:247|106:247|125:400,1,290,2|0,0:1|0:0,0:0:0:0:
2,352,79510,5,2,0:1:0:0:
274,291,79682,1,2,0:1:0:0:
250,286,79768,1,0,0:1:0:0:
226,281,79853,1,2,0:1:0:0:
196,298,79939,21,4,0:3:0:0:
196,298,80025,1,0,0:0:0:0:
196,298,80110,2,0,P|183:252|205:212,1,94.2499956855776,2|0,0:1|0:0,0:0:0:0:
176,144,80282,1,8,0:1:0:0:
176,144,80368,2,0,P|201:105|246:95,2,94.2499956855776,0|0|0,0:1|0:0|0:0,0:0:0:0:
382,71,80625,38,2,B|374:52|357:33|357:33|306:13|268:38|254:57|254:57|261:81|287:118|341:117|341:117|365:105|379:91,1,319.000009735108,2|0,0:1|0:0,0:1:0:0:
473,241,80882,2,2,B|482:258|486:284|486:284|468:336|424:348|401:347|401:347|387:326|375:282|411:241|411:241|435:231|456:229,1,319.000009735108,2|0,0:1|0:0,0:1:0:0:
443,151,81139,1,2,0:1:0:0:
234,308,81310,53,4,0:3:0:0:
234,308,81396,1,0,0:0:0:0:
234,308,81482,2,0,L|141:301,1,94.2499956855776,2|0,0:1|0:0,0:0:0:0:
120,229,81653,1,8,0:1:0:0:
120,229,81739,2,0,L|213:236,2,94.2499956855776,0|0|0,0:1|0:0|0:0,0:0:0:0:
248,69,81996,38,0,B|291:109|291:109|445:87|445:87|479:98|489:126,1,275.499992643357,2|0,0:1|0:0,0:0:0:0:
501,206,82253,2,0,B|498:236|470:256|470:256|317:279|317:279|287:329,1,275.499992643357,2|0,0:1|0:0,0:0:0:0:
419,179,82510,2,0,B|311:194,1,108.750004148483,2|0,0:1|0:0,0:0:0:0:
118,112,82682,53,4,0:3:0:0:
118,112,82768,1,0,0:0:0:0:
118,112,82853,2,0,P|121:65|154:33,1,94.2499956855776,2|0,0:1|0:0,0:0:0:0:
225,69,83025,1,8,0:1:0:0:
225,69,83110,2,0,P|223:115|190:147,2,94.2499956855776,0|0|0,0:1|0:0|0:0,0:0:0:0:
371,165,83368,38,0,B|389:215|356:267|323:279|323:279|184:267,1,275.499992643357,2|0,0:1|0:0,0:0:0:0:
19,134,83625,2,0,B|-7:180|15:237|45:255|45:255|184:267,1,275.499992643357,2|0,0:1|0:0,0:0:0:0:
216,341,83882,2,0,P|175:240|145:338,1,275.499992643357,2|4,0:1|0:3,0:0:0:0:
470,86,84225,6,0,B|485:109|477:149|447:166|447:166|345:179|345:179|311:170|294:133|304:104,1,290,2|0,0:1|0:0,0:0:0:0:
336,333,84482,2,0,B|320:309|328:269|358:252|358:252|460:240|460:240|494:249|511:285|502:313,1,290,2|0,0:1|0:0,0:0:0:0:
470,86,84739,2,0,B|485:109|477:149|447:166|447:166|345:179|345:179|311:170|294:133|304:104,1,290,2|0,0:1|0:0,0:0:0:0:
386,82,84996,5,2,0:1:0:0:
421,338,85168,1,2,0:1:0:0:
386,82,85339,1,2,0:1:0:0:
414,61,85425,21,4,0:3:0:0:
414,61,85510,1,0,0:0:0:0:
414,61,85596,2,0,P|447:94|449:140,1,94.2499956855776,2|0,0:1|0:0,0:0:0:0:
503,199,85768,1,8,0:1:0:0:
503,199,85853,2,0,P|500:245|466:276,2,94.2499956855776,0|0|0,0:1|0:0|0:0,0:0:0:0:
402,375,86110,38,2,B|383:367|364:350|364:350|344:299|369:261|388:247|388:247|412:254|449:280|448:334|448:334|436:358|422:372,1,319.000009735108,2|0,0:1|0:0,0:1:0:0:
228,350,86368,2,2,B|209:342|190:325|190:325|170:274|195:236|214:222|214:222|238:229|275:255|274:309|274:309|262:333|248:347,1,319.000009735108,2|0,0:1|0:0,0:1:0:0:
105,331,86625,1,2,0:1:0:0:
308,171,86796,53,4,0:3:0:0:
308,171,86882,1,0,0:0:0:0:
308,171,86968,2,0,L|301:78,1,94.2499956855776,2|0,0:1|0:0,0:0:0:0:
376,49,87139,1,8,0:1:0:0:
376,49,87225,2,0,L|383:142,2,94.2499956855776,0|0|0,0:1|0:0|0:0,0:0:0:0:
253,244,87482,38,0,B|266:216|300:210|300:210|448:250|448:250|482:244|496:216,1,275.499992643357,2|0,0:1|0:0,0:0:0:0:
318,299,87739,2,0,B|304:326|270:332|270:332|122:292|122:292|88:299|74:326,1,275.499992643357,2|0,0:1|0:0,0:0:0:0:
253,243,87996,1,2,0:1:0:0:
28,19,88168,69,4,0:3:0:0:
222,59,88339,2,0,B|150:66|150:66|142:87,1,94.2499956855776,4|0,0:3|0:0,0:0:0:0:
8,113,88510,37,4,0:3:0:0:
202,151,88682,2,0,B|273:143|273:143|281:122,1,94.2499956855776,4|0,0:3|0:0,0:0:0:0:
473,220,88853,53,8,0:1:0:0:
151,261,89025,2,0,B|260:272|260:272|272:304,1,145,8|0,0:1|0:0,0:0:0:0:
497,332,89196,37,8,0:1:0:0:
175,373,89368,2,0,B|65:361|65:361|53:329,1,145,8|0,0:1|0:0,0:0:0:0:
28,19,89539,53,4,0:3:0:0:
168,83,89710,37,4,0:3:0:0:
171,124,89796,1,2,0:0:0:0:
175,165,89882,1,4,0:3:0:0:
177,205,89968,1,2,0:0:0:0:
180,246,90053,1,4,0:3:0:0:
184,287,90139,1,2,0:0:0:0:
172,299,90225,53,2,0:1:0:0:
146,223,90310,1,2,0:0:0:0:
186,155,90396,1,2,0:0:0:0:
264,136,90482,1,2,0:0:0:0:
329,181,90568,1,2,0:0:0:0:
340,259,90653,1,2,0:0:0:0:
291,320,90739,1,2,0:1:0:0:
168,83,90910,21,4,0:1:0:0:
500,43,91082,2,0,P|479:126|396:108,1,188.499991371155,14|0,0:1|0:0,0:0:0:0:
396,27,91253,2,0,P|392:116|514:86,1,211.700005814514,14|0,0:1|0:0,0:0:0:0:
131,222,91596,86,0,B|233:241|233:241|254:202|299:195,1,188.499991371155,2|0,0:1|0:0,0:0:0:0:
230,330,91939,1,2,0:1:0:0:
481,258,92110,2,0,B|379:239|379:239|358:278|312:286,1,188.499991371155,2|0,0:1|0:0,0:0:0:0:
500,43,92453,6,0,P|478:126|396:108,1,188.499991371155,14|0,0:1|0:0,0:0:0:0:
396,27,92625,2,0,P|392:116|514:86,1,211.700005814514,14|0,0:1|0:0,0:0:0:0:
500,43,92968,1,4,0:3:0:0:
255,237,93139,37,2,0:1:0:0:
384,222,93310,1,0,0:0:0:0:
333,342,93482,1,2,0:1:0:0:
178,297,93653,2,0,P|158:236|248:139,1,188.499991371155,2|0,0:1|0:0,0:0:0:0:
412,202,93996,2,0,P|369:249|240:220,1,188.499991371155,2|0,0:1|0:0,0:0:0:0:
213,47,94339,2,0,P|275:60|314:186,1,188.499991371155,2|0,0:1|0:0,0:0:0:0:
178,297,94682,1,2,0:1:0:0:
178,297,94853,2,0,P|158:236|248:139,1,188.499991371155,2|0,0:1|0:0,0:0:0:0:
500,43,95196,54,0,P|478:126|396:108,1,188.499991371155,14|0,0:1|0:0,0:0:0:0:
396,27,95368,2,0,P|392:116|514:86,1,211.700005814514,14|0,0:1|0:0,0:0:0:0:
207,360,95710,86,0,B|161:329|161:329|173:153,1,188.499991371155,2|0,0:1|0:0,0:0:0:0:
335,238,96053,1,2,0:1:0:0:
248,284,96225,2,0,B|260:95,1,188.499991371155,2|0,0:1|0:0,0:0:0:0:
500,43,96568,6,0,P|478:126|396:108,1,188.499991371155,14|0,0:1|0:0,0:0:0:0:
396,27,96739,2,0,P|392:116|514:86,1,211.700005814514,14|0,0:1|0:0,0:0:0:0:
480,222,96910,85,0,0:0:0:0:
245,120,97082,2,0,B|291:151|291:151|279:327,1,188.499991371155,2|0,0:1|0:0,0:0:0:0:
96,240,97425,1,2,0:1:0:0:
229,363,97596,2,0,B|183:332|183:332|195:156,1,188.499991371155,2|0,0:1|0:0,0:0:0:0:
500,43,97939,6,0,P|478:126|396:108,1,188.499991371155,14|0,0:1|0:0,0:0:0:0:
396,27,98110,2,0,P|392:116|514:86,1,211.700005814514,14|0,0:1|0:0,0:0:0:0:
500,43,98453,1,4,0:3:0:0:
290,305,98625,37,2,0:1:0:0:
376,295,98796,1,0,0:0:0:0:
462,285,98968,1,2,0:1:0:0:
192,208,99139,2,0,P|172:147|262:50,1,188.499991371155,2|0,0:1|0:0,0:0:0:0:
179,300,99482,2,0,P|136:347|8:317,1,188.499991371155,2|0,0:1|0:0,0:0:0:0:
265,265,99825,2,0,P|327:278|366:404,1,188.499991371155,2|0,0:1|0:0,0:0:0:0:
192,208,100168,1,2,0:1:0:0:
192,208,100339,2,0,P|172:147|262:50,1,188.499991371155,2|0,0:1|0:0,0:0:0:0:
500,43,100682,54,0,P|478:126|396:108,1,188.499991371155,14|0,0:1|0:0,0:0:0:0:
396,27,100853,2,0,P|392:116|514:86,1,211.700005814514,14|0,0:1|0:0,0:0:0:0:
273,334,101196,86,0,B|283:252|283:252|270:233|270:233|279:150,1,188.499991371155,2|0,0:1|0:0,0:0:0:0:
106,308,101539,1,2,0:1:0:0:
191,176,101710,2,0,B|181:258|181:258|194:277|194:277|185:360,1,188.499991371155,2|0,0:1|0:0,0:0:0:0:
12,43,102053,6,0,P|34:126|116:108,1,188.499991371155,14|0,0:1|0:0,0:0:0:0:
116,27,102225,2,0,P|120:116|-2:86,1,211.700005814514,14|0,0:1|0:0,0:0:0:0:
381,222,102568,86,0,B|279:241|279:241|258:202|213:195,1,188.499991371155,2|0,0:1|0:0,0:0:0:0:
282,330,102910,1,2,0:1:0:0:
31,258,103082,2,0,B|133:239|133:239|154:278|200:286,1,188.499991371155,2|0,0:1|0:0,0:0:0:0:
12,43,103425,6,0,P|34:126|116:108,1,188.499991371155,14|0,0:1|0:0,0:0:0:0:
116,27,103596,2,0,P|120:116|-2:86,1,211.700005814514,14|0,0:1|0:0,0:0:0:0:
12,43,103939,1,4,0:3:0:0:
146,325,104110,37,2,0:1:0:0:
184,168,104282,1,0,0:1:0:0:
341,206,104453,1,2,0:1:0:0:
303,363,104625,2,0,P|243:387|140:304,1,188.499991371155,2|0,0:1|0:0,0:0:0:0:
192,136,104968,2,0,P|241:175|221:306,1,188.499991371155,2|0,0:1|0:0,0:0:0:0:
51,346,105310,2,0,P|59:283|182:235,1,188.499991371155,2|0,0:1|0:0,0:0:0:0:
303,363,105653,1,2,0:1:0:0:
303,363,105825,2,0,P|243:387|140:304,1,188.499991371155,2|0,0:1|0:0,0:0:0:0:
12,43,106168,54,0,P|34:126|116:108,1,188.499991371155,14|0,0:1|0:0,0:0:0:0:
116,27,106339,2,0,P|120:116|-2:86,1,211.700005814514,14|0,0:1|0:0,0:0:0:0:
305,360,106682,86,0,B|351:329|351:329|339:153,1,188.499991371155,2|0,0:1|0:0,0:0:0:0:
285,115,107025,2,0,B|239:146|239:146|251:322,1,188.499991371155,2|0,0:1|0:0,0:0:0:0:
394,15,107368,85,12,0:1:0:0:
203,33,107539,1,4,0:3:0:0:
422,178,107710,37,4,0:3:0:0:
380,0,107882,1,4,0:3:0:0:
144,89,108053,53,8,0:1:0:0:
186,267,108225,1,4,0:3:0:0:
363,234,108396,37,4,0:3:0:0:
172,252,108568,1,4,0:3:0:0:
46,15,108739,53,8,0:1:0:0:
306,39,108910,1,4,0:3:0:0:
97,153,109082,37,8,0:1:0:0:
354,109,109253,1,4,0:3:0:0:
179,276,109425,53,8,0:1:0:0:
416,167,109596,1,4,0:3:0:0:
292,371,109768,37,8,0:1:0:0:
492,204,109939,1,4,0:3:0:0:
153,2,110110,53,12,0:1:0:0:
202,384,110282,1,8,0:1:0:0:
298,134,110453,37,12,0:1:0:0:
28,28,110625,1,8,0:1:0:0:
384,382,110796,53,12,0:1:0:0:
335,0,110968,1,8,0:1:0:0:
239,250,111139,37,12,0:1:0:0:
509,356,111310,1,8,0:1:0:0:
256,192,111396,12,2,112510,0:1:0:0:
197,63,112682,53,4,0:3:0:0:
197,63,112853,1,4,0:1:0:0:
388,129,113025,70,0,P|422:220|428:318,1,195.749994026184,2|0,0:1|0:0,0:0:0:0:
381,143,113368,1,2,0:1:0:0:
310,357,113539,2,0,P|274:264|268:166,1,195.749994026184,2|0,0:1|0:0,0:0:0:0:
316,343,113882,1,10,0:1:0:0:
72,134,114053,54,0,B|75:98|109:75|109:75|291:54,1,217.5,2|0,0:1|0:0,0:0:0:0:
84,142,114396,1,2,0:1:0:0:
269,56,114568,1,10,0:1:0:0:
84,142,114739,1,0,0:0:0:0:
329,277,114910,54,0,P|339:210|280:164,1,145,2|0,0:1|0:0,0:0:0:0:
285,164,115168,2,0,P|221:188|211:262,1,145,2|0,0:1|0:0,0:0:0:0:
261,317,115425,1,2,0:1:0:0:
56,361,115596,21,0,0:0:0:0:
68,263,115768,1,2,0:1:0:0:
80,165,115939,1,8,0:1:0:0:
92,67,116110,1,2,0:1:0:0:
270,220,116282,70,0,P|337:230|383:171,1,145,2|0,0:1|0:0,0:0:0:0:
383,176,116539,2,0,P|358:113|284:103,1,145,2|0,0:1|0:0,0:0:0:0:
289,102,116796,2,0,P|246:156|274:225,1,145,2|0,0:1|0:0,0:0:0:0:
493,315,117139,37,2,0:1:0:0:
334,345,117310,2,0,L|482:334,1,145,10|0,0:1|0:0,0:0:0:0:
240,144,117653,54,0,P|211:202|261:253,1,145,2|0,0:1|0:0,0:0:0:0:
261,253,117910,2,0,P|323:225|318:157,1,145,2|0,0:1|0:0,0:0:0:0:
318,157,118168,2,0,P|257:268|240:143,1,334.950003194332,2|0,0:1|0:0,0:0:0:0:
486,90,118510,86,0,P|394:55|296:49,1,195.749994026184,2|0,0:1|0:0,0:0:0:0:
472,97,118853,1,2,0:1:0:0:
258,168,119024,2,0,P|350:203|448:209,1,195.749994026184,2|0,0:1|0:0,0:0:0:0:
272,162,119367,1,10,0:1:0:0:
432,372,119539,54,0,B|429:336|395:313|395:313|213:292,1,217.5,2|0,0:1|0:0,0:0:0:0:
420,380,119882,1,2,0:1:0:0:
235,294,120054,1,10,0:1:0:0:
420,380,120225,1,0,0:0:0:0:
148,332,120396,54,0,P|138:263|192:219,1,145,2|0,0:1|0:0,0:0:0:0:
191,218,120653,2,0,P|256:243|267:311,1,145,2|0,0:1|0:0,0:0:0:0:
216,371,120911,1,2,0:1:0:0:
434,319,121082,21,0,0:0:0:0:
422,221,121254,1,2,0:1:0:0:
410,123,121425,1,8,0:1:0:0:
398,25,121596,1,2,0:1:0:0:
286,168,121768,70,0,P|219:178|173:119,1,145,2|0,0:1|0:0,0:0:0:0:
173,124,122025,2,0,P|197:60|271:50,1,145,2|0,0:1|0:0,0:0:0:0:
326,100,122283,1,2,0:1:0:0:
140,271,122453,5,4,0:1:0:0:
255,369,122624,37,2,0:0:0:0:
280,367,122710,1,2,0:0:0:0:
305,366,122796,1,2,0:0:0:0:
330,365,122882,1,2,0:0:0:0:
356,364,122967,1,2,0:0:0:0:
456,226,123139,53,6,0:3:0:0:
411,235,123224,1,2,0:3:0:0:
373,207,123310,1,2,0:3:0:0:
328,216,123395,1,6,0:3:0:0:
290,188,123482,1,6,0:3:0:0:
290,188,123653,1,4,0:3:0:0:
290,188,123996,70,0,P|176:214|123:133,1,217.500008296967,2|0,0:1|0:0,0:0:0:0:
20,126,124510,2,0,B|161:88|161:88|201:96|217:128,1,217.500008296967,2|0,0:1|0:0,0:0:0:0:
149,193,125025,2,0,B|165:225|205:233|205:233|346:195,1,217.500008296967,2|0,0:1|0:0,0:0:0:0:
432,168,125539,1,2,0:1:0:0:
185,107,126568,37,0,0:1:0:0:
187,91,126740,1,2,0:0:0:0:
189,75,126910,1,0,0:0:0:0:
191,59,127082,1,2,0:1:0:0:
189,75,127425,1,2,0:0:0:0:
187,91,127768,1,2,0:0:0:0:
185,107,128110,1,2,0:0:0:0:
187,91,128453,1,2,0:0:0:0:
189,75,128796,1,2,0:0:0:0:
191,59,129139,1,2,0:0:0:0:
418,122,129482,6,0,B|450:138|458:178|458:178|419:318,1,217.500008296967,2|0,0:1|0:0,0:0:0:0:
512,304,129996,2,0,P|443:227|345:259,1,217.500008296967,2|0,0:1|0:0,0:0:0:0:
255,217,130510,2,0,P|186:294|88:262,1,217.500008296967,2|0,0:1|0:0,0:0:0:0:
37,188,131025,1,2,0:1:0:0:
163,33,132053,85,0,0:1:0:0:
184,30,132225,1,2,0:0:0:0:
206,27,132395,1,0,0:0:0:0:
227,24,132567,1,2,0:1:0:0:
377,66,132910,1,2,0:1:0:0:
438,210,133253,1,2,0:1:0:0:
364,349,133596,1,2,0:1:0:0:
208,376,133939,1,2,0:1:0:0:
91,272,134281,1,2,0:1:0:0:
99,115,134624,1,2,0:1:0:0:
256,192,134796,85,4,0:1:0:0:
