osu file format v14

[General]
AudioFilename: audio.mp3
AudioLeadIn: 0
PreviewTime: 90182
Countdown: 0
SampleSet: Soft
StackLeniency: 0.7
Mode: 0
LetterboxInBreaks: 0
WidescreenStoryboard: 1

[Editor]
Bookmarks: 1767,23710,45653,56625,68968,90910,112853,123825,134796
DistanceSpacing: 0.95
BeatDivisor: 4
GridSize: 16
TimelineZoom: 1

[Metadata]
Title:Nick of Time
TitleUnicode:Nick of Time
Artist:P4koo
ArtistUnicode:P4koo
Creator:Sonnyc
Version:Easy
Source:osu!
Tags:featured artist mappers' guild OverRapid dynamix electronic english instumental hardcore Pakoo p4koochan
BeatmapID:2631939
BeatmapSetID:1262594

[Difficulty]
HPDrainRate:3
CircleSize:3
OverallDifficulty:2
ApproachRate:3
SliderMultiplier:1
SliderTickRate:1

[Events]
//Background and Video events
0,0,"bg.jpg",0,0
//Break Periods
2,45853,55185
//Storyboard Layer 0 (Background)
//Storyboard Layer 1 (Fail)
//Storyboard Layer 2 (Pass)
//Storyboard Layer 3 (Foreground)
//Storyboard Layer 4 (Overlay)
//Storyboard Sound Samples

[TimingPoints]
1768,342.857142857143,4,2,1,70,1,0
23710,-111.111111111111,4,2,1,50,0,0
34682,-100,4,2,1,60,0,0
68968,-100,4,2,1,70,0,0
90910,-100,4,2,1,80,0,0
112853,-100,4,2,1,70,0,0
123825,-100,4,2,1,50,0,0

[Colours]
Combo1 : 202,134,242
Combo2 : 255,191,217
Combo3 : 253,251,202
Combo4 : 148,217,254
Combo5 : 232,170,102
Combo6 : 234,66,129
Combo7 : 112,245,196

[HitObjects]
123,86,1767,38,0,B|87:89|64:123|64:123|49:250,2,200,4|2|4,0:1|0:1|0:3,0:0:0:0:
192,150,3482,1,8,0:1:0:0:
274,104,3825,2,0,L|373:114,1,100,4|8,0:3|0:1,0:0:0:0:
415,197,4510,1,4,0:3:0:0:
345,346,5196,1,4,0:3:0:0:
181,336,5882,1,4,0:3:0:0:
252,189,6568,1,4,0:3:0:0:
367,345,7253,54,0,B|403:342|426:308|426:308|441:181,2,200,4|2|4,0:3|0:1|0:3,0:0:0:0:
294,284,8968,1,8,0:1:0:0:
205,316,9310,2,0,L|198:215,1,100,4|8,0:3|0:1,0:0:0:0:
246,135,9996,1,4,0:3:0:0:
74,145,10682,1,4,0:3:0:0:
169,289,11368,1,4,0:3:0:0:
415,84,12739,38,0,B|412:120|378:143|378:143|251:158,1,200,8|10,0:1|0:1,0:0:0:0:
157,167,13768,1,10,0:1:0:0:
100,93,14110,2,0,B|103:57|137:34|137:34|264:19,1,200,8|8,0:1|0:1,0:0:0:0:
420,67,15482,1,8,0:1:0:0:
428,228,16168,1,8,0:1:0:0:
275,171,16854,1,8,0:1:0:0:
285,333,17540,1,8,0:1:0:0:
106,325,18225,54,0,B|70:322|47:288|47:288|32:161,1,200,8|10,0:1|0:1,0:0:0:0:
22,67,19253,1,10,0:1:0:0:
108,28,19596,2,0,B|144:31|167:65|167:65|182:192,1,200,8|8,0:1|0:1,0:0:0:0:
106,325,20968,1,8,0:1:0:0:
269,334,21654,1,8,0:1:0:0:
433,344,22339,1,4,0:1:0:0:
355,60,23710,86,0,P|452:171|315:345,1,404.999987640381,4|2,0:3|0:1,0:0:0:0:
156,323,26453,2,0,P|59:212|196:38,1,404.999987640381,0|2,0:0|0:1,0:0:0:0:
480,144,29196,2,0,L|65:107,1,404.999987640381,0|2,0:0|0:1,0:0:0:0:
62,268,31939,2,0,L|465:303,1,404.999987640381,0|2,0:0|0:1,0:0:0:0:
409,114,34682,53,2,0:0:0:0:
314,122,35368,1,2,0:0:0:0:
305,27,36053,1,2,0:0:0:0:
178,38,37425,1,2,0:0:0:0:
186,133,38110,1,2,0:0:0:0:
91,142,38796,1,2,0:0:0:0:
102,269,40168,1,2,0:0:0:0:
197,261,40854,1,2,0:0:0:0:
206,356,41539,1,2,0:0:0:0:
333,345,42911,1,2,0:0:0:0:
325,250,43596,1,2,0:0:0:0:
420,241,44282,1,2,0:0:0:0:
256,192,45653,53,4,0:1:0:0:
166,262,56625,54,0,P|137:292|137:365,2,100,4|4|4,0:3|0:3|0:3,0:0:0:0:
255,287,57654,1,4,0:3:0:0:
329,232,57996,2,0,P|365:250|391:319,2,100,4|4|4,0:3|0:3|0:3,0:0:0:0:
166,262,59368,70,0,L|65:250,2,100,4|4|4,0:3|0:3|0:3,0:0:0:0:
229,195,60396,1,4,0:3:0:0:
184,113,60739,2,0,L|84:101,2,100,4|4|4,0:3|0:3|0:3,0:0:0:0:
338,38,62110,38,0,P|388:99|383:135,1,100,8|4,0:1|0:3,0:0:0:0:
436,196,62796,2,0,P|375:246|339:241,1,100,8|4,0:1|0:3,0:0:0:0:
278,294,63482,2,0,P|228:233|233:197,1,100,8|4,0:1|0:3,0:0:0:0:
180,136,64168,2,0,P|241:86|277:91,1,100,8|4,0:1|0:3,0:0:0:0:
338,38,64853,37,12,0:1:0:0:
432,64,65196,1,12,0:1:0:0:
442,157,65539,1,12,0:1:0:0:
452,250,65882,1,12,0:1:0:0:
295,246,68968,38,0,P|340:258|369:328,2,100,4|8|4,0:1|0:1|0:3,0:0:0:0:
211,287,69996,1,10,0:1:0:0:
133,234,70339,2,0,P|85:239|47:305,2,100,4|8|4,0:3|0:1|0:3,0:0:0:0:
218,191,71368,1,10,0:1:0:0:
295,246,71710,2,0,P|340:258|369:328,2,100,4|8|4,0:3|0:1|0:3,0:0:0:0:
211,287,72739,1,10,0:1:0:0:
224,99,73425,2,0,L|233:-34,2,100,8|4|8,0:1|0:3|0:1,0:0:0:0:
263,183,74453,38,0,L|162:195,2,100,4|8|4,0:3|0:1|0:3,0:0:0:0:
234,273,75482,1,10,0:1:0:0:
285,353,75825,2,0,L|185:365,2,100,4|8|4,0:3|0:1|0:3,0:0:0:0:
315,262,76853,1,10,0:1:0:0:
263,183,77196,2,0,L|162:195,2,100,4|8|4,0:3|0:1|0:3,0:0:0:0:
234,273,78225,1,10,0:1:0:0:
410,194,78910,2,0,P|368:220|355:267,2,100,8|4|8,0:1|0:3|0:1,0:0:0:0:
451,278,79939,54,0,P|439:323|369:352,2,100,4|8|4,0:3|0:1|0:3,0:0:0:0:
410,194,80967,1,10,0:1:0:0:
463,116,81310,2,0,P|458:68|392:30,2,100,4|8|4,0:3|0:1|0:3,0:0:0:0:
506,200,82339,1,10,0:1:0:0:
451,278,82682,2,0,P|439:323|369:352,2,100,4|8|4,0:3|0:1|0:3,0:0:0:0:
410,194,83710,1,10,0:1:0:0:
219,180,84396,2,0,L|86:171,2,100,8|4|8,0:1|0:3|0:1,0:0:0:0:
302,134,85425,38,0,L|314:235,2,100,4|8|4,0:3|0:1|0:3,0:0:0:0:
392,163,86454,1,10,0:1:0:0:
472,112,86797,2,0,L|484:212,2,100,4|8|4,0:3|0:1|0:3,0:0:0:0:
382,80,87825,1,10,0:1:0:0:
302,134,88168,70,0,P|255:149|229:190,1,100,8|4,0:1|0:3,0:0:0:0:
175,268,88853,2,0,P|212:300|261:301,1,100,8|4,0:1|0:3,0:0:0:0:
355,311,89539,2,0,P|364:262|341:219,2,100,8|4|4,0:1|0:3|0:3,0:0:0:0:
177,348,90910,6,0,B|186:232|186:232|144:217|130:173,1,200,4|4,0:1|0:3,0:0:0:0:
198,106,91939,1,10,0:1:0:0:
198,106,92282,2,0,B|242:120|257:162|257:162|372:152,1,200,4|4,0:3|0:3,0:0:0:0:
457,192,93310,5,8,0:1:0:0:
412,276,93653,2,0,B|312:283,1,100,4|8,0:3|0:1,0:0:0:0:
282,373,94339,2,0,B|182:365,2,100,4|8|4,0:3|0:1|0:3,0:0:0:0:
410,210,95710,86,0,B|265:219|265:219|234:173,1,200,4|4,0:3|0:3,0:0:0:0:
175,247,96739,1,10,0:1:0:0:
175,247,97082,2,0,B|144:201|144:201|0:210,2,200,4|4|4,0:3|0:3|0:3,0:0:0:0:
117,320,98796,5,8,0:1:0:0:
196,368,99139,2,0,B|296:361,1,100,4|8,0:3|0:1,0:0:0:0:
350,285,99825,2,0,B|450:277,2,100,4|8|4,0:3|0:1|0:3,0:0:0:0:
439,99,101196,86,0,B|323:108|323:108|308:66|264:52,1,200,4|4,0:3|0:3,0:0:0:0:
203,122,102225,1,10,0:1:0:0:
203,122,102568,2,0,B|159:108|144:66|144:66|29:76,2,200,4|4|4,0:3|0:3|0:3,0:0:0:0:
264,52,104282,5,8,0:1:0:0:
348,91,104625,2,0,B|355:191,1,100,4|8,0:3|0:1,0:0:0:0:
278,244,105311,2,0,B|270:344,2,100,4|8|4,0:3|0:1|0:3,0:0:0:0:
366,63,106682,86,0,B|346:83|346:83|273:76,1,100,4|8,0:3|0:1,0:0:0:0:
196,29,107368,86,0,P|146:90|151:126,1,100,12|4,0:1|0:3,0:0:0:0:
98,187,108054,2,0,P|159:237|195:232,1,100,8|4,0:1|0:3,0:0:0:0:
256,285,108740,2,0,P|306:224|301:188,1,100,8|4,0:1|0:3,0:0:0:0:
354,127,109426,2,0,P|293:77|257:82,1,100,8|4,0:1|0:3,0:0:0:0:
196,29,110111,37,12,0:1:0:0:
102,55,110454,1,12,0:1:0:0:
92,148,110797,1,12,0:1:0:0:
82,241,111140,1,12,0:1:0:0:
410,136,112853,22,0,B|446:139|469:173|469:173|484:300,2,200,4|2|4,0:1|0:1|0:3,0:0:0:0:
351,208,114568,1,8,0:1:0:0:
268,165,114910,2,0,P|241:189|229:253,1,100,4|8,0:3|0:1,0:0:0:0:
296,316,115596,38,0,P|214:342|43:237,1,300,4|8,0:3|0:1,0:0:0:0:
187,116,117310,2,0,L|388:137,1,200,8|8,0:1|0:1,0:0:0:0:
465,188,118339,6,0,B|462:224|428:247|428:247|301:262,2,200,4|2|4,0:3|0:1|0:3,0:0:0:0:
387,136,120053,1,8,0:1:0:0:
445,62,120396,2,0,P|421:35|357:23,1,100,4|8,0:3|0:1,0:0:0:0:
289,84,121082,86,0,P|386:192|368:336,1,300,4|8,0:3|0:1,0:0:0:0:
282,299,122453,2,0,L|81:320,1,200,2|4,0:0|0:3,0:0:0:0:
6,266,123482,1,8,0:1:0:0:
71,141,123996,54,0,B|87:192|144:214|144:214|335:193,1,300,2|2,0:1|0:1,0:0:0:0:
450,275,125539,1,2,0:1:0:0:
220,338,126568,38,0,P|194:256|299:85,1,300,2|2,0:0|0:0,0:0:0:0:
457,185,128282,2,0,P|474:240|404:353,1,200,2|2,0:0|0:0,0:0:0:0:
268,311,129482,6,0,B|319:294|341:237|341:237|320:46,1,300,2|2,0:1|0:1,0:0:0:0:
187,2,131025,1,2,0:1:0:0:
32,194,132053,86,0,P|114:168|285:273,1,300,2|2,0:0|0:0,0:0:0:0:
227,347,133425,1,4,0:1:0:0:
412,305,134110,2,0,L|416:206,1,100,2|8,0:0|0:1,0:1:0:0:
419,109,134796,1,4,0:1:0:0:
