osu file format v14

[General]
AudioFilename: audio.mp3
AudioLeadIn: 0
PreviewTime: 1416
Countdown: 0
SampleSet: Soft
StackLeniency: 0.7
Mode: 2
LetterboxInBreaks: 0
WidescreenStoryboard: 1

[Editor]
Bookmarks: 14541,27173,33488,46120,58752,71383,84015,96646,109278,121909
DistanceSpacing: 1.2
BeatDivisor: 4
GridSize: 32
TimelineZoom: 1.6

[Metadata]
Title:Hyperlight. (feat. Tsuyuri Karin)
TitleUnicode:Hyperlight。(feat. つゆり花鈴)
Artist:P4koo
ArtistUnicode:P4koo
Creator:Jemzuu
Version:Salad.
Source:OverRapid
Tags:ajamez pakoo spec spectator jbh jbhyperion electronic instrumental future bass drum n and hardcore dubstep trap core video game
BeatmapID:2609227
BeatmapSetID:1255500

[Difficulty]
HPDrainRate:4
CircleSize:3
OverallDifficulty:7
ApproachRate:7
SliderMultiplier:1.6
SliderTickRate:1

[Events]
//Background and Video events
0,0,"77274021_p0.jpg",0,0
//Break Periods
//Storyboard Layer 0 (Background)
//Storyboard Layer 1 (Fail)
//Storyboard Layer 2 (Pass)
//Storyboard Layer 3 (Foreground)
//Storyboard Layer 4 (Overlay)
//Storyboard Sound Samples

[TimingPoints]
1910,394.736842105263,4,2,1,90,1,0
24113,-100,4,2,1,70,0,0
27173,-100,4,2,2,90,0,0
27271,-100,4,2,2,70,0,0
27962,-100,4,2,2,75,0,0
28752,-100,4,2,2,80,0,0
29541,-100,4,2,2,85,0,0
30331,-100,4,2,2,90,0,0
31120,-100,4,2,2,95,0,0
31515,-100,4,2,3,90,0,0
31909,-100,4,2,1,90,0,0
32008,-100,4,2,1,30,0,0
32699,-83.3333333333333,4,2,1,90,0,0
33094,-100,4,2,1,75,0,0
33488,-100,4,2,1,100,0,0
33587,-100,4,2,2,90,0,0
36054,-100,4,2,1,100,0,0
36252,-100,4,2,1,90,0,0
36646,-100,4,2,3,90,0,0
36696,-100,4,2,1,90,0,0
37436,-100,4,2,2,90,0,0
38028,-100,4,2,1,90,0,0
38225,-100,4,2,3,90,0,0
38423,-100,4,2,1,90,0,0
38620,-100,4,2,3,90,0,0
39015,-100,4,2,2,90,0,0
39804,-100,4,2,1,90,0,0
41383,-100,4,2,2,90,0,0
42173,-100,4,2,1,100,0,0
42370,-100,4,2,2,90,0,0
42617,-100,4,2,1,90,0,0
42765,-100,4,2,2,90,0,0
46120,-100,4,2,1,100,0,0
46219,-100,4,2,2,90,0,0
46515,-100,4,2,3,60,0,0
46712,-100,4,2,2,90,0,0
46778,-100,4,2,3,60,0,0
46909,-100,4,2,2,90,0,0
47502,-100,4,2,1,90,0,0
47699,-100,4,2,2,90,0,0
49081,-100,4,2,1,90,0,0
49278,-100,4,2,1,100,0,0
49377,-100,4,2,2,90,0,0
49475,-100,4,2,3,90,0,0
49574,-100,4,2,2,90,0,0
49771,-100,4,2,3,90,0,0
49870,-100,4,2,2,90,0,0
50067,-100,4,2,1,100,0,0
50265,-100,4,2,3,90,0,0
50363,-100,4,2,2,90,0,0
50561,-100,4,2,3,90,0,0
50659,-100,4,2,2,90,0,0
51252,-100,4,2,3,75,0,0
51646,-100,4,2,2,90,0,0
52436,-100,4,2,1,100,0,0
52534,-100,4,2,2,90,0,0
53028,-100,4,2,3,75,0,0
53225,-100,4,2,2,90,0,0
53817,-100,4,2,1,90,0,0
54212,-100,4,2,2,90,0,0
55791,-100,4,2,3,90,0,0
55988,-100,4,2,2,90,0,0
56383,-100,4,2,1,100,0,0
56778,-100,4,2,2,90,0,0
57173,-100,4,2,1,90,0,0
57567,-100,4,2,2,90,0,0
58752,-100,4,2,1,100,0,0
58949,-100,4,2,2,90,0,0
64673,-100,4,2,1,100,0,0
64870,-100,4,2,2,90,0,0
65067,-100,4,2,1,100,0,0
65265,-100,4,2,2,90,0,0
67831,-100,4,2,3,90,0,0
68028,-100,4,2,2,90,0,0
68225,-100,4,2,3,90,0,0
69804,-100,4,2,1,100,0,0
71038,-100,4,2,1,80,0,0
71383,-100,4,2,2,90,0,1
74541,-100,4,2,1,100,0,1
74640,-100,4,2,2,90,0,1
77699,-100,4,2,1,100,0,1
77798,-100,4,2,2,90,0,1
80857,-100,4,2,1,100,0,0
80956,-100,4,2,1,90,0,0
81449,-100,4,2,2,90,0,0
81844,-100,4,2,1,90,0,0
81942,-100,4,2,2,90,0,0
82633,-100,4,2,1,90,0,0
82929,-100,4,2,2,90,0,0
84015,-100,4,2,2,90,0,1
87173,-100,4,2,1,90,0,1
87271,-100,4,2,2,90,0,1
90331,-100,4,2,1,90,0,1
90429,-100,4,2,2,90,0,1
93488,-100,4,2,1,90,0,0
93784,-100,4,2,2,90,0,0
95857,-100,4,2,1,100,0,0
96219,-100,4,2,1,80,0,0
96646,-100,4,2,1,100,0,0
97041,-100,4,2,2,90,0,0
97238,-100,4,2,3,90,0,0
97633,-100,4,2,2,90,0,0
99015,-100,4,2,3,90,0,0
99212,-100,4,2,1,100,0,0
99409,-100,4,2,2,90,0,0
99804,-100,4,2,3,90,0,0
99854,-100,4,2,3,70,0,0
100100,-100,4,2,2,90,0,0
100150,-100,4,2,3,70,0,0
100396,-100,4,2,2,90,0,0
100594,-100,4,2,1,90,0,0
100643,-100,4,2,3,70,0,0
100890,-100,4,2,3,90,0,0
100940,-100,4,2,3,70,0,0
101186,-100,4,2,3,90,0,0
101383,-100,4,2,2,90,0,0
101679,-100,4,2,1,90,0,0
101975,-100,4,2,2,90,0,0
102370,-100,4,2,3,90,0,0
102567,-100,4,2,2,90,0,0
102962,-100,4,2,1,100,0,0
103159,-100,4,2,2,90,0,0
103752,-100,4,2,3,90,0,0
104146,-100,4,2,2,90,0,0
105331,-100,4,2,1,90,0,0
105528,-100,4,2,2,90,0,0
107699,-100,4,2,1,90,0,0
107896,-100,4,2,2,90,0,0
108488,-100,4,2,1,90,0,0
108686,-100,4,2,2,90,0,0
109278,-100,4,2,1,90,0,0
109377,-100,4,2,2,90,0,0
112633,-100,4,2,3,90,0,0
112683,-100,4,2,3,70,0,0
112929,-100,4,2,3,90,0,0
112979,-100,4,2,3,70,0,0
113127,-100,4,2,2,90,0,0
113423,-100,4,2,3,90,0,0
113473,-100,4,2,3,70,0,0
113719,-100,4,2,3,90,0,0
113769,-100,4,2,3,70,0,0
113916,-100,4,2,2,90,0,0
114706,-100,4,2,3,90,0,0
114804,-100,4,2,2,90,0,0
115594,-100,4,2,1,100,0,0
115791,-100,4,2,2,90,0,0
116186,-100,4,2,3,90,0,0
116581,-100,4,2,2,90,0,0
116975,-100,4,2,1,90,0,0
117173,-100,4,2,2,90,0,0
117962,-100,4,2,1,90,0,0
118159,-100,4,2,2,90,0,0
118949,-100,4,2,1,90,0,0
119344,-100,4,2,2,90,0,0
119936,-100,4,2,1,90,0,0
120133,-100,4,2,2,90,0,0
120331,-100,4,2,1,90,0,0
120528,-100,4,2,2,90,0,0
121515,-100,4,2,3,90,0,0
121712,-100,4,2,3,75,0,0
121909,-100,4,2,3,60,0,0

[Colours]
Combo1 : 4,255,255
Combo2 : 0,94,138
Combo3 : 36,146,255

[HitObjects]
406,181,1910,5,4,0:0:0:0:
126,106,2896,2,0,L|221:92,1,80,8|2,0:0|0:3,0:0:0:0:
387,91,3291,1,4,0:0:0:0:
53,26,4278,2,0,P|30:73|121:140,1,160,4|2,0:0|0:3,0:0:0:0:
177,151,4870,1,8,0:0:0:0:
362,178,5067,6,0,P|388:227|314:305,1,160,6|2,0:0|0:0,0:0:0:0:
252,317,5659,1,2,0:0:0:0:
334,329,5857,1,2,0:3:0:0:
418,337,6054,1,8,0:0:0:0:
101,369,6449,6,0,L|89:182,1,160,4|0,0:0|0:0,0:0:0:0:
255,154,7238,1,2,0:3:0:0:
342,104,7436,2,0,L|164:89,1,160,4|2,0:0|0:3,0:0:0:0:
267,51,8028,1,8,0:0:0:0:
453,38,8225,6,0,P|482:101|354:191,1,240,6|2,0:0|0:0,0:0:0:0:
286,220,9015,1,2,0:3:0:0:
373,204,9212,1,2,0:0:0:0:
61,338,9607,6,0,P|32:286|113:211,1,160,6|2,0:0|0:0,0:0:0:0:
261,159,10396,1,8,0:0:0:0:
170,119,10594,2,0,L|3:88,1,160,6|8,0:0|0:0,0:0:0:0:
100,57,11186,1,2,0:3:0:0:
286,48,11383,6,0,P|310:86|230:178,1,160,6|2,0:0|0:0,0:0:0:0:
218,185,11877,1,2,0:0:0:0:
177,187,11975,1,2,0:3:0:0:
262,211,12173,2,0,L|164:229,1,80,8|8,0:0|0:0,0:0:0:0:
97,227,12567,1,2,0:3:0:0:
403,126,12962,5,6,0:0:0:0:
483,108,13159,2,0,P|490:206|426:256,1,160,2|2,0:3|0:3,0:0:0:0:
363,262,13752,2,0,L|257:273,1,80,8|2,0:0|0:0,0:0:0:0:
369,346,14146,2,0,L|479:343,1,80,8|2,0:0|0:3,0:0:0:0:
262,360,14541,6,0,P|206:352|203:246,1,160,4|2,0:0|0:3,0:0:0:0:
275,226,15133,2,0,L|446:180,1,160,0|0,0:0|0:0,0:0:0:0:
344,142,15725,1,2,0:3:0:0:
45,291,16120,6,0,P|24:231|101:153,1,160,8|2,0:0|0:3,0:0:0:0:
159,137,16712,1,8,0:0:0:0:
248,90,16909,2,0,L|140:78,1,80,8|8,0:0|0:0,0:0:0:0:
77,79,17304,1,2,0:3:0:0:
383,33,17699,6,0,P|404:81|316:169,1,160,8|2,0:0|0:3,0:0:0:0:
257,175,18291,2,0,P|236:248|296:324,1,160,0|8,0:0|0:0,0:0:0:0:
371,329,18883,2,0,L|277:348,1,80,2|2,0:3|0:0,0:0:0:0:
106,320,19278,6,0,L|8:300,2,80,8|2|2,0:0|0:0|0:3,0:0:0:0:
200,284,19870,2,0,L|317:223,2,120,0|2|2,0:0|0:3|0:3,0:0:0:0:
109,252,20659,1,2,0:3:0:0:
294,130,20857,6,0,L|463:91,1,160,8|2,0:0|0:3,0:0:0:0:
357,63,21449,2,0,L|184:46,1,160,0|8,0:0|0:0,0:0:0:0:
281,14,22041,1,2,0:3:0:0:
365,15,22238,1,2,0:0:0:0:
179,52,22436,6,0,P|128:62|105:164,1,160,8|2,0:0|0:3,0:0:0:0:
186,187,23028,2,0,L|327:187,2,120,8|2|2,0:0|0:3|0:3,0:0:0:0:
97,201,23817,1,8,0:0:0:0:
286,308,24015,5,12,0:0:0:0:
362,287,24212,1,0,0:0:0:0:
417,230,24409,1,8,0:0:0:0:
434,153,24607,1,0,0:0:0:0:
408,78,24804,1,8,0:0:0:0:
348,28,25001,1,0,0:0:0:0:
270,16,25199,2,0,L|186:23,1,80,8|0,0:0|0:0,0:0:0:0:
281,97,25594,6,0,L|455:112,2,160,8|8|8,0:0|0:0|0:0,0:0:0:0:
97,138,26778,1,2,0:0:0:0:
437,80,27173,6,0,P|458:133|390:206,1,160,6|2,0:0|0:0,0:0:0:0:
312,229,27765,1,2,0:0:0:0:
224,269,27962,2,0,L|392:278,1,160,2|2,0:0|0:0,0:0:0:0:
299,313,28554,1,2,0:0:0:0:
207,346,28752,6,0,L|23:337,1,160,2|2,0:0|0:0,0:0:0:0:
129,304,29344,1,2,0:0:0:0:
223,285,29541,2,0,L|226:120,1,160,2|2,0:0|0:0,0:0:0:0:
141,103,30133,1,2,0:0:0:0:
325,42,30331,6,0,L|420:38,1,80,2|2,0:0|0:0,0:0:0:0:
319,82,30725,2,0,L|228:93,1,80,2|2,0:0|0:0,0:0:0:0:
332,134,31120,2,0,L|423:143,1,80,2|2,0:0|0:0,0:0:0:0:
233,239,31515,2,0,L|184:241,2,40,2|2|2,0:0|0:0|0:0,0:0:0:0:
425,259,31909,5,4,0:0:0:0:
475,355,32699,2,0,L|479:152,1,191.999994140625,2|2,0:0|0:0,0:0:0:0:
141,67,33488,6,0,L|305:45,1,160,12|2,0:0|0:3,0:0:0:0:
215,91,34081,1,2,0:0:0:0:
130,110,34278,1,8,0:0:0:0:
228,148,34475,2,0,L|321:152,2,80,0|2|2,0:0|0:3|0:0,0:0:0:0:
129,150,35067,6,0,L|124:297,1,120,2|0,0:0|0:0,0:0:0:0:
266,335,35659,2,0,L|359:334,1,80,0|8,0:0|0:0,0:0:0:0:
165,307,36054,2,0,P|152:239|238:191,1,160,4|2,0:0|0:0,0:0:0:0:
304,180,36646,1,4,0:0:0:0:
490,53,36844,6,0,L|350:38,2,120,12|12|8,0:0|0:0|0:0,0:0:0:0:
401,112,37633,2,0,L|242:125,1,160,2|2,0:0|0:0,0:0:0:0:
150,271,38225,2,0,L|86:264,2,40,2|2|12,0:0|0:0|0:0,0:0:0:0:
343,326,38620,6,0,L|505:287,1,160,2|8,0:0|0:0,0:0:0:0:
375,228,39311,1,8,0:0:0:0:
241,208,39607,1,2,0:0:0:0:
432,148,39804,6,0,P|443:88|370:11,1,160,12|2,0:0|0:3,0:0:0:0:
301,24,40396,1,8,0:0:0:0:
113,128,40594,2,0,L|275:138,1,160,12|8,0:0|0:0,0:0:0:0:
277,185,41120,1,8,0:0:0:0:
281,229,41252,1,8,0:0:0:0:
143,291,41383,6,0,L|8:275,2,120,2|2|2,0:0|0:0|0:0,0:0:0:0:
338,140,42173,2,0,L|186:126,1,120,12|8,0:0|0:0,0:0:0:0:
91,84,42765,1,2,0:0:0:0:
283,37,42962,6,0,L|330:35,1,40,8|8,0:0|0:0,0:0:0:0:
279,66,43159,2,0,L|151:68,2,120,2|2|8,0:0|0:0|0:0,0:0:0:0:
321,74,43850,1,8,0:0:0:0:
365,106,43949,2,0,L|368:238,1,120,2|0,0:0|0:0,0:0:0:0:
95,341,44541,6,0,L|239:331,1,106.666666666667,2|8,0:0|0:0,0:0:0:0:
321,211,45067,2,0,L|242:209,1,53.3333333333333,2|2,0:0|0:0,0:0:0:0:
123,223,45331,6,0,P|108:168|162:111,1,106.666666666667,8|2,0:0|0:0,0:0:0:0:
183,103,45725,1,2,0:0:0:0:
238,93,45857,1,8,0:0:0:0:
296,92,45988,1,8,0:0:0:0:
150,22,46120,6,0,P|79:26|33:123,1,160,12|2,0:0|0:0,0:0:0:0:
113,140,46712,1,2,0:0:0:0:
206,157,46909,2,0,L|214:336,1,160,8|2,0:0|0:3,0:0:0:0:
497,122,47699,6,0,L|345:113,2,120,2|2|2,0:3|0:3|0:3,0:0:0:0:
417,181,48488,1,8,0:0:0:0:
222,260,48686,6,0,L|47:260,1,160,2|2,0:0|0:0,0:0:0:0:
150,184,49278,2,0,L|279:172,1,120,12|2,0:0|0:0,0:0:0:0:
34,213,49870,2,0,L|19:106,1,80,2|12,0:0|0:0,0:0:0:0:
263,42,50363,2,0,L|122:43,1,120,8|2,0:0|0:0,0:0:0:0:
225,90,50857,1,2,0:0:0:0:
406,132,51252,5,4,0:0:0:0:
442,144,51350,1,4,0:0:0:0:
458,179,51449,1,4,0:0:0:0:
443,215,51548,1,4,0:0:0:0:
406,228,51646,1,8,0:0:0:0:
210,309,51844,2,0,P|162:309|148:207,1,160,2|8,0:0|0:0,0:0:0:0:
341,122,52436,6,0,P|405:126|455:215,1,160,12|2,0:0|0:3,0:0:0:0:
414,224,52929,1,2,0:0:0:0:
272,299,53225,2,0,L|228:300,2,40,8|0|2,0:0|0:0|0:0,0:0:0:0:
359,309,53620,1,8,0:3:0:0:
168,368,53817,6,0,L|2:311,1,160,4|2,0:0|0:0,0:0:0:0:
139,253,54508,1,2,0:0:0:0:
395,215,54804,6,0,L|395:167,1,40,8|2,0:0|0:0,0:0:0:0:
305,141,55100,2,0,L|253:138,1,40,8|0,0:0|0:0,0:0:0:0:
173,81,55396,1,2,0:0:0:0:
370,42,55594,5,2,0:0:0:0:
454,52,55791,2,0,P|479:133|429:193,1,160,4|2,0:0|0:0,0:0:0:0:
350,213,56383,2,0,L|185:228,1,160,12|8,0:0|0:0,0:0:0:0:
275,262,56975,1,2,0:0:0:0:
84,316,57173,6,0,L|67:175,1,120,12|2,0:0|0:0,0:0:0:0:
111,181,57567,1,8,0:0:0:0:
250,87,57863,2,0,L|203:89,1,40,2|8,0:0|0:0,0:0:0:0:
114,74,58159,1,2,0:0:0:0:
209,31,58357,2,0,L|299:20,1,80,2|2,0:0|0:0,0:0:0:0:
96,158,58752,6,0,P|50:173|43:278,1,160,12|8,0:0|0:0,0:0:0:0:
120,305,59344,1,2,0:0:0:0:
281,228,59738,2,0,L|192:209,2,80,2|8|2,0:0|0:0|0:0,0:0:0:0:
452,180,60528,2,0,L|478:99,2,80,2|8|2,0:0|0:0|0:0,0:0:0:0:
358,194,61120,6,0,L|185:167,1,160,2|8,0:0|0:0,0:0:0:0:
372,94,61909,2,0,L|394:290,1,160,2|8,0:0|0:0,0:0:0:0:
203,342,62699,6,0,L|370:309,1,160,2|8,0:0|0:0,0:0:0:0:
172,229,63488,2,0,L|8:208,1,160,2|8,0:0|0:0,0:0:0:0:
206,126,64278,2,0,L|326:102,2,120,2|2|2,0:0|0:0|0:0,0:0:0:0:
19,50,65067,6,0,L|172:20,1,120,12|2,0:0|0:0,0:0:0:0:
265,29,65659,1,8,0:0:0:0:
76,150,65857,6,0,L|80:290,1,120,6|2,0:0|0:0,0:0:0:0:
205,306,66449,1,8,0:0:0:0:
399,329,66646,6,0,L|270:289,1,120,6|2,0:0|0:0,0:0:0:0:
158,230,67238,1,8,0:0:0:0:
347,131,67436,6,0,L|470:130,2,120,6|2|8,0:0|0:0|0:0,0:0:0:0:
157,68,68225,5,2,0:0:0:0:
231,88,68422,1,2,0:0:0:0:
263,159,68619,1,2,0:0:0:0:
229,228,68817,1,2,0:0:0:0:
154,247,69015,2,0,L|66:255,2,80,2|2|2,0:0|0:0|0:0,0:0:0:0:
357,324,69607,5,6,0:0:0:0:
443,275,69804,2,0,L|262:252,2,160,2|2|2,0:0|0:0|0:0,0:0:0:0:
446,144,70988,1,6,0:0:0:0:
123,74,71383,6,0,P|97:132|172:199,1,160,6|2,0:0|0:0,0:0:0:0:
240,221,71975,2,0,L|155:239,1,80,8|2,0:0|0:0,0:0:0:0:
75,283,72370,2,0,L|168:298,2,80,8|0|8,0:0|0:0|0:0,0:0:0:0:
261,348,72962,6,0,L|419:286,1,160,2|2,0:0|0:0,0:0:0:0:
322,256,73554,1,8,0:0:0:0:
132,277,73752,2,0,P|122:183|164:135,1,160,2|0,0:0|0:0,0:0:0:0:
254,113,74344,1,8,0:0:0:0:
443,33,74541,6,0,L|280:118,1,160,12|2,0:0|0:0,0:0:0:0:
390,148,75133,2,0,L|472:155,1,80,8|2,0:0|0:0,0:0:0:0:
376,232,75528,2,0,L|286:227,2,80,8|0|8,0:0|0:0|0:0,0:0:0:0:
186,333,76120,6,0,L|58:330,2,120,2|2|2,0:0|0:0|0:0,0:0:0:0:
374,353,76909,2,0,P|385:281|311:213,1,160,2|0,0:0|0:0,0:0:0:0:
244,201,77502,1,2,0:0:0:0:
52,249,77699,6,0,P|34:189|111:124,1,160,12|2,0:0|0:0,0:0:0:0:
188,89,78291,2,0,L|297:75,1,80,8|2,0:0|0:0,0:0:0:0:
170,34,78686,2,0,L|77:31,2,80,8|0|8,0:0|0:0|0:0,0:0:0:0:
363,39,79278,6,0,P|424:52|459:146,1,160,2|0,0:0|0:0,0:0:0:0:
373,171,79870,1,8,0:0:0:0:
184,197,80067,2,0,P|165:262|237:322,1,160,2|0,0:0|0:0,0:0:0:0:
308,332,80659,1,8,0:0:0:0:
486,200,80857,6,0,L|333:184,2,120,12|2|2,0:0|0:0|0:0,0:0:0:0:
387,106,81646,2,0,L|212:84,1,160,8|2,0:0|0:3,0:0:0:0:
314,52,82238,1,2,0:0:0:0:
127,173,82436,6,0,L|10:151,2,120,2|0|8,0:0|0:0|0:0,0:0:0:0:
228,160,83225,2,0,P|245:225|175:297,1,160,2|8,0:0|0:0,0:0:0:0:
97,304,83817,1,8,0:0:0:0:
292,352,84015,6,0,L|463:308,1,160,6|2,0:0|0:0,0:0:0:0:
355,268,84607,2,0,L|263:257,1,80,8|2,0:0|0:0,0:0:0:0:
374,184,85002,2,0,L|468:175,2,80,8|0|8,0:0|0:0|0:0,0:0:0:0:
185,93,85594,6,0,L|95:86,2,80,2|8|0,0:0|0:0|0:0,0:0:0:0:
270,77,86186,1,8,0:0:0:0:
457,37,86383,2,0,P|482:101|432:191,1,160,2|0,0:0|0:0,0:0:0:0:
363,210,86975,1,8,0:0:0:0:
176,258,87173,6,0,L|21:316,1,160,6|2,0:0|0:0,0:0:0:0:
115,333,87765,2,0,L|204:325,1,80,8|2,0:0|0:0,0:0:0:0:
290,242,88159,2,0,L|176:231,2,80,8|0|8,0:0|0:0|0:0,0:0:0:0:
477,220,88752,6,0,L|486:96,1,120,2|2,0:0|0:0,0:0:0:0:
365,63,89344,1,2,0:0:0:0:
175,83,89541,2,0,P|200:141|308:173,1,160,2|0,0:0|0:0,0:0:0:0:
368,190,90133,1,2,0:0:0:0:
174,265,90331,6,0,L|47:278,2,120,6|8|8,0:0|0:0|0:0,0:0:0:0:
263,200,91120,2,0,L|120:173,1,120,2|2,0:0|0:0,0:0:0:0:
21,169,91712,1,8,0:0:0:0:
208,77,91909,6,0,L|333:68,2,120,2|8|8,0:0|0:0|0:0,0:0:0:0:
117,134,92699,2,0,L|266:146,2,120,2|2|8,0:0|0:0|0:0,0:0:0:0:
302,207,93488,6,0,L|424:215,1,120,6|2,0:0|0:0,0:0:0:0:
454,234,93882,1,0,0:0:0:0:
452,272,93981,1,2,0:0:0:0:
418,289,94080,1,2,0:0:0:0:
228,322,94278,2,0,L|56:268,1,160,8|2,0:0|0:3,0:0:0:0:
252,197,95067,6,0,L|390:182,2,120,2|2|8,0:0|0:0|0:0,0:0:0:0:
59,224,95857,2,0,P|32:151|112:88,1,160,2|0,0:0|0:0,0:0:0:0:
135,77,96383,1,0,0:0:0:0:
195,69,96515,1,0,0:0:0:0:
343,89,96646,6,0,L|352:260,1,160,12|8,0:0|0:0,0:0:0:0:
143,348,97534,2,0,L|191:356,1,40,2|2,0:0|0:0,0:0:0:0:
276,346,97831,2,0,L|281:254,1,80,8|2,0:0|0:0,0:0:0:0:
92,207,98225,6,0,L|81:87,1,120,2|2,0:0|0:0,0:0:0:0:
123,75,98620,1,8,0:0:0:0:
209,54,98817,1,2,0:0:0:0:
123,75,99015,1,4,0:0:0:0:
316,148,99212,2,0,L|497:162,1,160,12|2,0:0|0:0,0:0:0:0:
283,265,99804,6,0,L|161:284,2,120,6|8|2,0:0|0:0|0:0,0:0:0:0:
472,126,100594,2,0,L|343:113,2,120,12|6|4,0:0|0:0|0:0,0:0:0:0:
391,173,101383,1,8,0:0:0:0:
129,347,101679,6,0,L|126:200,1,120,12|2,0:0|0:0,0:0:0:0:
220,197,102173,1,2,0:0:0:0:
407,72,102370,2,0,L|495:73,2,80,4|8|2,0:0|0:0|0:0,0:0:0:0:
214,80,102962,6,0,L|37:100,1,160,12|8,0:0|0:0,0:0:0:0:
143,136,103554,1,2,0:0:0:0:
239,164,103752,2,0,L|63:192,1,160,4|8,0:0|0:0,0:0:0:0:
136,235,104278,1,2,0:0:0:0:
191,253,104409,1,2,0:0:0:0:
336,322,104541,5,8,0:0:0:0:
392,332,104673,2,0,L|394:191,1,106.666666666667,2|8,0:0|0:0,0:0:0:0:
336,215,105067,1,2,0:0:0:0:
101,87,105331,6,0,L|268:77,1,160,12|8,0:0|0:0,0:0:0:0:
345,40,105923,1,2,0:0:0:0:
261,78,106120,1,2,0:0:0:0:
68,131,106317,6,0,L|66:318,1,160,2|2,0:0|0:0,0:0:0:0:
261,328,107107,2,0,L|77:322,1,160,2|2,0:0|0:0,0:0:0:0:
297,220,107699,6,0,L|489:182,1,160,12|8,0:0|0:0,0:0:0:0:
370,154,108291,1,2,0:0:0:0:
179,95,108488,2,0,L|55:84,2,120,12|8|8,0:0|0:0|0:0,0:0:0:0:
373,51,109278,6,0,P|403:108|346:195,1,160,12|8,0:0|0:0,0:0:0:0:
324,191,109771,1,2,0:0:0:0:
306,225,109870,1,2,0:0:0:0:
324,259,109969,1,2,0:0:0:0:
363,263,110067,2,0,L|446:269,2,80,0|2|8,0:0|0:0|0:0,0:0:0:0:
50,161,110857,6,0,L|190:157,2,120,2|2|0,0:0|0:0|0:0,0:0:0:0:
135,224,111646,1,2,0:0:0:0:
328,268,111844,2,0,L|432:257,2,80,2|8|2,0:0|0:0|0:0,0:0:0:0:
287,266,112337,1,2,0:0:0:0:
245,269,112436,1,8,0:0:0:0:
52,349,112633,6,0,L|43:208,1,120,6|6,0:0|0:0,0:0:0:0:
132,154,113127,2,0,L|179:146,1,40,8|8,0:0|0:0,0:0:0:0:
360,48,113423,6,0,L|202:52,1,120,6|6,0:0|0:0,0:0:0:0:
240,165,113916,2,0,L|285:162,1,40,8|2,0:0|0:0,0:0:0:0:
366,194,114212,1,2,0:0:0:0:
174,237,114409,5,8,0:0:0:0:
136,247,114507,1,2,0:0:0:0:
121,282,114606,1,0,0:0:0:0:
139,316,114705,1,6,0:0:0:0:
177,323,114804,2,0,L|263:326,1,80,0|2,0:0|0:0,0:0:0:0:
169,355,115199,2,0,L|70:365,1,80,8|2,0:0|0:0,0:0:0:0:
284,229,115594,6,0,L|455:208,1,160,12|8,0:0|0:0,0:0:0:0:
258,124,116383,2,0,L|196:122,2,40,4|2|2,0:0|0:0|0:0,0:0:0:0:
344,58,116778,2,0,L|252:49,1,80,8|12,0:0|0:0,0:0:0:0:
175,57,117173,5,2,0:0:0:0:
366,180,117567,2,0,L|308:182,1,40,8|2,0:0|0:0,0:0:0:0:
137,283,117863,1,2,0:0:0:0:
95,307,117962,6,0,L|243:318,1,120,12|8,0:0|0:0,0:0:0:0:
337,283,118554,1,2,0:0:0:0:
143,195,118752,5,6,0:0:0:0:
58,225,118949,2,0,P|34:165|89:93,1,160,6|2,0:0|0:0,0:0:0:0:
167,73,119541,1,8,0:0:0:0:
258,54,119738,2,0,L|99:38,1,160,0|2,0:0|0:0,0:0:0:0:
292,183,120331,6,0,L|421:165,2,120,12|2|2,0:0|0:0|0:0,0:0:0:0:
99,337,121120,6,0,P|86:287|172:189,1,160,8|6,0:0|0:0,0:0:0:0:
195,182,121646,1,2,0:0:0:0:
137,197,121778,1,2,0:0:0:0:
78,206,121909,1,2,0:0:0:0:
