osu file format v14

[General]
AudioFilename: audio.mp3
AudioLeadIn: 0
PreviewTime: 93159
Countdown: 0
SampleSet: Soft
StackLeniency: 0.7
Mode: 0
LetterboxInBreaks: 0
WidescreenStoryboard: 0

[Editor]
DistanceSpacing: 0.6
BeatDivisor: 4
GridSize: 32
TimelineZoom: 1

[Metadata]
Title:Forbidden Light
TitleUnicode:Forbidden Light
Artist:P4koo
ArtistUnicode:P4koo
Creator:Gibune
Version:Expert
Source:EZ2AC : NIGHT TRAVELER
Tags:featured artist fa mappers' guild mpg Garden Ak74 electronic instrumental Pakoo EZ2DJ rhythm video game
BeatmapID:2720001
BeatmapSetID:1279878

[Difficulty]
HPDrainRate:6.5
CircleSize:4.2
OverallDifficulty:8.5
ApproachRate:9
SliderMultiplier:1.8
SliderTickRate:1

[Events]
//Background and Video events
0,0,"Forbidden Light.jpg",0,0
//Break Periods
//Storyboard Layer 0 (Background)
//Storyboard Layer 1 (Fail)
//Storyboard Layer 2 (Pass)
//Storyboard Layer 3 (Foreground)
//Storyboard Layer 4 (Overlay)
//Storyboard Sound Samples

[TimingPoints]
1563,355.029585798817,4,2,2,50,1,0
7243,-100,4,2,2,55,0,0
12923,-100,4,2,2,60,0,0
24994,355.029585798817,4,2,2,60,1,0
24994,-142.857142857143,4,2,2,60,0,0
25349,-86.9565217391304,4,2,2,60,0,0
36177,-250,4,2,2,60,0,0
36709,-86.9565217391304,4,2,2,65,0,0
42035,-250,4,2,2,65,0,0
42390,-86.9565217391304,4,2,2,65,0,0
47715,-111.111111111111,4,2,2,55,0,0
51976,-100,4,2,2,60,0,0
67597,-125,4,2,3,50,0,0
73278,-125,4,2,3,55,0,0
79313,-86.9565217391304,4,2,2,65,0,0
93159,-125,4,2,2,65,0,0
93514,-86.9565217391304,4,2,2,65,0,0
115881,-86.9565217391304,4,2,2,60,0,0

[Colours]
Combo1 : 138,244,165
Combo2 : 107,235,245
Combo3 : 95,177,245
Combo4 : 209,145,249

[HitObjects]
272,33,1563,5,0,1:0:0:0:
220,89,1829,1,0,0:0:0:0:
142,56,2095,1,0,0:0:0:0:
69,103,2273,1,8,0:0:0:0:
244,217,2983,5,0,1:0:0:0:
295,343,3160,1,0,3:0:0:0:
299,347,3249,1,0,1:0:0:0:
188,310,3426,1,0,0:0:0:0:
188,310,3515,1,0,1:0:0:0:
336,258,3693,1,8,0:0:0:0:
188,310,4048,1,8,0:0:0:0:
38,197,4403,5,0,1:0:0:0:
96,135,4669,1,0,3:0:0:0:
96,135,4758,1,0,1:0:0:0:
170,166,4935,1,0,0:0:0:0:
220,96,5113,1,8,0:0:0:0:
114,224,5468,1,0,1:0:0:0:
317,36,5823,5,8,0:0:0:0:
427,117,6000,1,0,1:0:0:0:
348,139,6178,1,0,1:0:0:0:
426,41,6355,1,0,1:0:0:0:
503,149,6533,1,8,0:0:0:0:
503,149,6888,1,8,1:2:0:0:
353,359,7243,5,2,1:2:0:0:
386,253,7420,1,0,3:0:0:0:
384,235,7509,1,0,3:0:0:0:
382,216,7598,1,8,0:2:0:0:
380,198,7687,1,0,3:0:0:0:
377,180,7776,1,0,3:0:0:0:
375,162,7864,1,0,3:0:0:0:
372,144,7953,2,0,L|365:93,4,45,0|0|0|0|8,0:0|3:0|3:2|3:0|0:2,0:0:0:0:
138,10,8663,5,2,1:2:0:0:
204,88,8841,1,0,3:0:0:0:
202,105,8929,1,0,3:0:0:0:
200,122,9018,1,8,0:2:0:0:
198,139,9107,1,0,3:0:0:0:
196,156,9196,1,0,3:0:0:0:
193,173,9284,1,0,3:0:0:0:
190,190,9373,2,0,L|182:244,4,45,0|0|0|0|8,3:0|3:0|1:2|3:0|0:2,0:0:0:0:
21,363,10083,5,2,1:2:0:0:
137,344,10261,1,0,3:0:0:0:
163,339,10349,1,0,3:0:0:0:
190,337,10438,1,8,0:0:0:0:
216,340,10527,1,0,3:0:0:0:
239,353,10616,1,0,3:0:0:0:
263,364,10705,1,0,3:0:0:0:
289,364,10793,1,0,3:0:0:0:
315,356,10882,1,0,3:0:0:0:
333,335,10971,5,0,1:0:0:0:
352,316,11060,1,0,3:0:0:0:
376,306,11148,1,8,0:0:0:0:
402,299,11237,1,0,3:0:0:0:
429,300,11326,1,0,3:0:0:0:
454,308,11415,1,0,3:0:0:0:
476,322,11503,6,0,L|486:374,3,45,2|0|0|0,1:2|3:0|3:0|3:0,0:0:0:0:
404,223,11858,2,0,L|413:174,3,45,8|0|0|0,0:0|3:0|3:0|3:0,0:0:0:0:
291,216,12213,5,0,3:0:0:0:
269,199,12302,1,0,3:0:0:0:
258,174,12391,1,0,1:0:0:0:
259,146,12480,1,0,3:0:0:0:
271,122,12568,1,8,0:0:0:0:
289,102,12657,1,0,3:0:0:0:
303,79,12746,1,0,3:0:0:0:
310,53,12835,1,0,3:0:0:0:
291,35,12923,6,0,P|205:36|116:98,1,180,6|8,1:2|0:0,0:0:0:0:
160,189,13456,1,0,3:0:0:0:
160,189,13545,1,0,3:0:0:0:
160,189,13634,1,0,3:0:0:0:
160,189,13722,1,0,3:0:0:0:
160,189,13811,1,0,1:0:0:0:
4,139,13989,1,8,0:0:0:0:
118,102,14166,1,0,3:0:0:0:
15,246,14344,6,0,P|6:303|10:348,1,90,2|0,1:2|3:0,0:0:0:0:
116,329,14699,1,8,0:0:0:0:
239,337,14876,1,0,3:0:0:0:
239,337,14965,1,0,3:0:0:0:
239,337,15054,1,0,3:0:0:0:
239,337,15142,1,0,3:0:0:0:
239,337,15231,1,0,1:0:0:0:
317,198,15409,2,0,P|297:241|293:296,1,90,8|0,0:0|3:0,0:0:0:0:
414,384,15764,6,0,P|436:327|443:189,1,180,2|8,1:2|0:0,0:0:0:0:
336,95,16296,1,0,3:0:0:0:
336,95,16385,1,0,3:0:0:0:
336,95,16474,1,0,3:0:0:0:
336,95,16563,1,0,3:0:0:0:
336,95,16651,1,0,1:0:0:0:
441,24,16829,1,8,0:0:0:0:
361,17,17006,1,0,3:0:0:0:
480,151,17184,6,0,L|489:258,2,90,2|0|8,1:2|3:0|0:0,0:0:0:0:
370,105,17716,1,0,3:0:0:0:
352,107,17805,1,0,3:0:0:0:
334,110,17894,1,0,3:0:0:0:
316,113,17983,1,0,3:0:0:0:
298,115,18071,1,0,1:0:0:0:
178,99,18249,1,8,0:0:0:0:
311,189,18426,1,0,3:0:0:0:
224,35,18604,1,6,1:2:0:0:
90,167,18781,5,0,3:0:0:0:
70,197,18869,1,0,3:0:0:0:
69,232,18958,1,8,0:0:0:0:
87,263,19047,1,0,3:0:0:0:
118,280,19136,1,0,3:0:0:0:
153,280,19224,1,0,3:0:0:0:
183,260,19313,1,0,1:0:0:0:
216,247,19402,1,0,3:0:0:0:
252,247,19491,1,0,3:0:0:0:
286,258,19580,1,0,3:0:0:0:
315,280,19669,2,0,L|326:337,3,45,8|0|0|0,0:0|3:0|3:0|3:0,0:0:0:0:
304,125,20024,1,4,1:2:0:0:
427,240,20202,5,0,3:0:0:0:
461,245,20290,1,0,3:0:0:0:
491,226,20379,1,8,0:0:0:0:
500,192,20468,1,0,3:0:0:0:
484,160,20557,1,0,3:0:0:0:
451,147,20646,1,0,3:0:0:0:
416,143,20734,1,0,1:0:0:0:
387,122,20823,1,0,3:0:0:0:
375,89,20912,1,0,3:0:0:0:
383,55,21001,1,0,3:0:0:0:
410,31,21089,2,0,L|472:37,3,45,8|0|0|0,0:0|3:0|3:0|3:0,0:0:0:0:
244,3,21444,1,6,1:2:0:0:
280,111,21622,5,0,1:0:0:0:
295,148,21710,1,0,3:0:0:0:
302,188,21799,1,8,0:0:0:0:
301,228,21888,1,0,3:0:0:0:
290,267,21977,1,0,1:0:0:0:
257,289,22065,1,0,3:0:0:0:
217,289,22154,1,0,1:0:0:0:
183,267,22243,5,0,3:0:0:0:
147,250,22332,1,0,1:0:0:0:
107,247,22421,1,0,3:0:0:0:
69,261,22510,1,8,0:0:0:0:
38,287,22599,1,0,3:0:0:0:
27,325,22687,1,0,1:0:0:0:
49,358,22776,1,0,3:0:0:0:
88,362,22865,5,6,1:2:0:0:
126,339,22953,1,0,3:0:0:0:
169,327,23042,1,0,1:0:0:0:
214,326,23131,1,0,3:0:0:0:
258,336,23220,1,8,0:0:0:0:
297,357,23309,1,0,3:0:0:0:
340,349,23397,1,0,1:0:0:0:
360,310,23486,1,0,3:0:0:0:
342,271,23575,5,0,1:0:0:0:
340,253,23663,1,0,3:0:0:0:
339,235,23752,1,0,1:0:0:0:
338,217,23841,1,0,3:0:0:0:
336,199,23930,1,8,0:0:0:0:
335,181,24018,1,0,3:0:0:0:
333,163,24107,1,0,1:0:0:0:
332,145,24196,1,0,3:0:0:0:
330,127,24284,2,0,L|335:79,7,45,0|0|0|0|0|0|0|0,1:0|0:0|0:0|0:0|0:0|0:0|0:0|0:0,0:0:0:0:
254,19,24994,6,0,P|219:15|161:16,1,62.9999980773926,2|0,1:2|3:0,0:0:0:0:
6,110,25349,2,0,L|231:92,1,207.000003948212,12|0,0:0|3:0,0:0:0:0:
212,93,25792,1,0,3:0:0:0:
212,93,25881,1,2,1:2:0:0:
148,205,26059,1,8,0:0:0:0:
274,261,26236,1,0,3:0:0:0:
114,375,26414,6,0,L|320:363,1,207.000003948212,2|8,1:2|0:0,0:0:0:0:
313,250,26946,5,2,3:2:0:0:
313,250,27035,1,0,3:0:0:0:
313,250,27124,1,0,3:0:0:0:
313,250,27212,1,0,3:0:0:0:
313,250,27301,1,0,1:0:0:0:
129,264,27479,2,0,L|16:274,1,103.500001974106,10|0,0:2|3:0,0:0:0:0:
160,84,27834,5,0,1:0:0:0:
246,121,28011,1,0,3:0:0:0:
321,64,28189,2,0,L|433:74,1,103.500001974106,10|0,0:2|3:0,0:0:0:0:
424,73,28455,1,0,3:0:0:0:
424,73,28544,1,0,3:0:0:0:
424,73,28633,1,0,3:0:0:0:
424,73,28721,5,2,1:2:0:0:
302,34,28899,1,8,0:0:0:0:
173,108,29076,1,0,1:0:0:0:
106,30,29254,6,0,P|160:22|220:15,1,103.500001974106,2|0,3:2|1:0,0:0:0:0:
208,16,29609,1,8,0:0:0:0:
218,166,29786,5,2,3:2:0:0:
229,258,29964,1,2,3:2:0:0:
388,306,30141,5,2,1:2:0:0:
364,152,30319,1,10,0:2:0:0:
296,206,30496,5,2,3:2:0:0:
479,227,30674,1,2,1:2:0:0:
302,333,30851,2,0,P|245:341|193:352,1,103.500001974106,2|10,3:2|0:2,0:0:0:0:
103,311,31207,5,0,3:0:0:0:
103,311,31295,1,0,3:0:0:0:
103,311,31384,1,0,3:0:0:0:
103,311,31473,1,0,3:0:0:0:
103,311,31562,1,0,1:0:0:0:
67,117,31739,5,8,0:0:0:0:
9,227,31917,1,0,3:0:0:0:
169,261,32094,2,0,P|274:240|315:139,1,207.000003948212,2|8,1:2|0:0,0:0:0:0:
220,57,32627,5,2,3:2:0:0:
220,57,32715,1,0,3:0:0:0:
220,57,32804,1,0,3:0:0:0:
220,57,32893,1,0,3:0:0:0:
220,57,32982,1,0,1:0:0:0:
299,11,33159,1,10,0:2:0:0:
129,3,33337,1,0,3:0:0:0:
3,101,33514,6,0,P|57:102|110:142,1,103.500001974106,0|0,1:0|3:0,0:0:0:0:
182,228,33869,1,10,0:2:0:0:
296,119,34047,5,0,3:0:0:0:
316,115,34136,1,0,3:0:0:0:
336,112,34224,1,0,3:0:0:0:
356,110,34313,1,0,3:0:0:0:
376,107,34402,1,2,1:2:0:0:
508,59,34579,5,8,0:0:0:0:
327,0,34757,1,8,0:0:0:0:
453,175,34934,5,2,1:2:0:0:
468,247,35112,1,0,1:0:0:0:
335,370,35289,5,8,0:0:0:0:
343,287,35467,1,2,1:2:0:0:
205,172,35644,5,0,3:0:0:0:
216,286,35822,1,8,0:0:0:0:
216,286,35911,1,0,1:0:0:0:
216,286,35999,1,0,1:0:0:0:
336,169,36177,6,0,L|328:75,1,90,8|0,1:2|0:0,0:0:0:0:
244,7,36709,6,0,L|261:213,1,207.000003948212,12|0,0:0|3:0,0:0:0:0:
261,213,37153,1,0,3:0:0:0:
261,213,37242,1,0,1:0:0:0:
210,327,37420,2,0,P|158:337|105:355,1,103.500001974106,8|0,0:0|3:0,0:0:0:0:
20,239,37775,5,0,1:0:0:0:
7,147,37952,1,0,3:0:0:0:
99,134,38130,1,8,0:0:0:0:
121,241,38307,5,0,3:0:0:0:
121,241,38396,1,0,3:0:0:0:
121,241,38485,1,0,3:0:0:0:
121,241,38573,1,0,3:0:0:0:
121,241,38662,1,0,1:0:0:0:
201,129,38840,2,0,L|192:13,1,103.500001974106,8|0,0:0|3:0,0:0:0:0:
80,8,39195,5,0,1:0:0:0:
0,35,39372,1,0,3:0:0:0:
65,168,39550,5,8,0:0:0:0:
116,108,39727,1,0,3:0:0:0:
116,108,39816,1,0,3:0:0:0:
116,108,39905,1,0,3:0:0:0:
116,108,39994,1,0,3:0:0:0:
116,108,40082,1,0,1:0:0:0:
248,221,40260,5,8,0:0:0:0:
343,196,40437,1,0,1:0:0:0:
388,111,40615,2,0,P|392:56|382:10,1,103.500001974106,0|0,3:0|1:0,0:0:0:0:
500,103,40970,1,8,0:0:0:0:
297,45,41147,5,0,3:0:0:0:
276,47,41236,1,0,3:0:0:0:
255,50,41325,1,0,3:0:0:0:
234,53,41414,1,0,3:0:0:0:
213,56,41502,1,0,1:0:0:0:
87,140,41680,5,8,0:0:0:0:
244,209,41857,1,0,3:0:0:0:
37,284,42035,6,0,L|41:349,1,54
119,377,42390,6,0,L|105:161,1,207.000003948212,12|0,0:0|3:0,0:0:0:0:
106,170,42834,1,0,3:0:0:0:
106,170,42922,1,0,1:0:0:0:
1,101,43100,2,0,P|22:42|26:-3,1,103.500001974106,8|0,0:0|3:0,0:0:0:0:
137,19,43455,5,0,1:0:0:0:
221,33,43633,1,0,3:0:0:0:
320,129,43810,5,8,0:0:0:0:
426,136,43988,1,0,3:0:0:0:
426,136,44076,1,0,3:0:0:0:
426,136,44165,1,0,3:0:0:0:
426,136,44254,1,0,3:0:0:0:
426,136,44343,1,0,1:0:0:0:
293,57,44520,5,8,0:0:0:0:
451,206,44698,1,0,3:0:0:0:
244,213,44875,6,0,P|227:270|227:317,1,103.500001974106,0|0,1:0|3:0,0:0:0:0:
345,383,45230,1,8,0:0:0:0:
463,312,45408,5,0,3:0:0:0:
442,307,45496,1,0,3:0:0:0:
421,304,45585,1,0,3:0:0:0:
400,300,45674,1,0,3:0:0:0:
379,297,45763,1,0,1:0:0:0:
244,213,45940,5,8,0:0:0:0:
409,121,46118,1,0,1:0:0:0:
200,0,46295,1,0,1:0:0:0:
236,97,46473,5,8,0:0:0:0:
286,107,46562,1,0,3:0:0:0:
332,84,46650,1,8,0:0:0:0:
365,43,46739,1,0,3:0:0:0:
415,29,46828,1,0,1:0:0:0:
461,49,46916,1,8,0:0:0:0:
492,90,47005,1,0,3:0:0:0:
507,139,47094,1,8,0:0:0:0:
481,185,47184,1,0,1:0:0:0:
438,214,47272,1,0,3:0:0:0:
413,259,47361,1,8,0:0:0:0:
411,310,47450,1,0,3:0:0:0:
433,357,47539,1,0,3:0:0:0:
483,368,47627,1,0,3:0:0:0:
509,332,47715,6,0,P|429:316|337:321,1,161.999995056153,6|8,1:2|0:0,0:0:0:0:
216,379,48248,1,2,0:0:0:0:
216,379,48603,1,2,1:2:0:0:
144,303,48780,1,10,0:2:0:0:
223,232,48958,1,2,0:0:0:0:
38,289,49136,5,2,1:2:0:0:
100,167,49313,1,0,0:0:0:0:
100,167,49402,1,0,0:0:0:0:
100,167,49491,1,8,0:0:0:0:
8,208,49668,1,0,0:0:0:0:
141,88,49846,6,0,P|189:84|313:106,1,161.999995056153,2|10,1:2|0:2,0:0:0:0:
453,61,50378,1,2,0:0:0:0:
376,13,50556,2,0,L|382:204,1,161.999995056153,2|8,0:0|0:0,0:0:0:0:
442,299,51088,5,2,1:2:0:0:
334,323,51266,1,2,3:2:0:0:
496,360,51443,1,2,1:2:0:0:
283,262,51621,1,10,0:2:0:0:
388,384,51798,1,2,3:2:0:0:
468,222,51976,6,0,P|470:169|494:40,1,180,6|8,1:2|0:2,0:0:0:0:
349,13,52508,1,0,3:2:0:0:
331,16,52597,1,0,3:2:0:0:
313,19,52686,1,0,3:2:0:0:
295,22,52775,1,0,3:2:0:0:
277,26,52863,1,0,1:2:0:0:
184,90,53041,1,8,0:2:0:0:
328,154,53218,1,0,3:2:0:0:
333,171,53307,1,0,0:0:0:0:
336,188,53396,6,0,P|287:193|244:210,1,90,2|0,1:2|3:0,0:0:0:0:
149,365,53751,1,10,0:2:0:0:
245,311,53928,1,0,3:0:0:0:
50,211,54106,6,0,P|71:149|99:17,1,180,2|8,1:2|0:0,0:0:0:0:
212,12,54638,1,0,3:0:0:0:
233,129,54816,1,0,0:0:0:0:
350,105,54994,5,0,1:0:0:0:
388,94,55082,1,0,0:0:0:0:
424,112,55171,1,8,0:0:0:0:
498,250,55349,5,0,3:0:0:0:
466,274,55437,1,0,3:0:0:0:
425,267,55526,1,2,1:2:0:0:
253,206,55704,5,0,1:0:0:0:
239,295,55881,1,10,0:2:0:0:
352,268,56059,1,0,1:0:0:0:
139,232,56236,6,0,P|69:278|89:360,1,180,6|10,1:2|0:2,0:0:0:0:
233,334,56769,1,2,3:2:0:0:
233,334,56857,1,0,3:0:0:0:
233,334,56946,1,0,3:0:0:0:
233,334,57035,1,0,3:0:0:0:
233,334,57124,1,2,1:2:0:0:
316,294,57301,1,10,0:2:0:0:
371,365,57479,1,2,3:2:0:0:
250,234,57656,6,0,P|239:186|237:135,1,90,2|0,1:2|3:2,0:0:0:0:
256,123,57922,1,0,0:0:0:0:
256,123,58011,1,10,0:2:0:0:
165,20,58189,1,0,3:0:0:0:
147,16,58278,1,0,3:0:0:0:
129,12,58366,2,0,P|133:103|143:196,1,180,2|10,1:2|0:2,0:0:0:0:
250,234,58899,1,2,3:2:0:0:
356,189,59076,6,0,P|352:98|342:5,1,180,2|8,0:0|0:0,0:0:0:0:
481,111,59609,1,2,1:2:0:0:
490,38,59786,5,2,1:2:0:0:
314,119,59964,1,2,1:2:0:0:
269,59,60141,5,10,0:2:0:0:
451,181,60319,1,0,3:0:0:0:
455,198,60408,1,0,3:0:0:0:
458,215,60496,6,0,P|404:233|382:352,1,180,6|8,1:2|0:2,0:0:0:0:
499,315,61029,1,0,3:2:0:0:
499,315,61118,1,0,3:2:0:0:
499,315,61207,1,0,3:2:0:0:
499,315,61295,1,0,3:2:0:0:
499,315,61384,1,0,1:2:0:0:
359,245,61562,1,8,0:2:0:0:
219,313,61739,1,0,3:2:0:0:
219,313,61828,1,0,0:0:0:0:
219,313,61917,5,2,1:2:0:0:
122,299,62094,1,0,3:2:0:0:
27,161,62272,5,10,0:2:0:0:
171,180,62449,1,0,3:2:0:0:
171,180,62538,1,0,3:2:0:0:
171,179,62627,2,0,P|177:90|164:1,1,180,2|8,1:2|0:2,0:0:0:0:
71,64,63159,5,0,3:2:0:0:
280,41,63337,1,0,0:0:0:0:
205,161,63514,1,0,1:2:0:0:
205,161,63603,1,0,0:0:0:0:
205,161,63692,1,8,0:2:0:0:
381,142,63869,5,0,3:2:0:0:
399,142,63958,1,0,3:2:0:0:
417,142,64047,1,2,1:2:0:0:
435,143,64136,1,0,3:2:0:0:
452,144,64224,1,0,1:2:0:0:
311,47,64402,1,10,0:2:0:0:
489,17,64579,1,0,1:2:0:0:
305,125,64757,6,0,L|244:121,1,45,6|0,1:2|3:0,0:0:0:0:
170,53,64934,2,0,L|214:50,1,45,0|0,1:2|3:0,0:0:0:0:
315,152,65112,2,0,L|254:148,1,45,0|0,1:2|3:0,0:0:0:0:
158,31,65289,2,0,L|202:28,1,45,0|0,1:2|3:0,0:0:0:0:
194,160,65467,6,0,L|186:212,1,45,0|0,1:2|3:0,0:0:0:0:
108,105,65644,2,0,L|114:149,1,45,0|0,1:2|3:0,0:0:0:0:
208,180,65822,2,0,L|200:232,1,45,0|0,1:2|3:0,0:0:0:0:
75,90,65999,2,0,L|81:134,1,45,0|0,1:2|3:0,0:0:0:0:
45,273,66177,5,2,1:2:0:0:
51,317,66266,1,0,1:2:0:0:
79,351,66354,1,0,1:2:0:0:
122,361,66443,1,0,1:2:0:0:
163,342,66532,1,0,1:2:0:0:
201,317,66621,1,0,1:2:0:0:
243,304,66709,1,0,1:2:0:0:
287,309,66798,1,0,1:2:0:0:
323,334,66887,6,0,L|381:324,3,45
273,228,67242,2,0,L|215:218,3,45
247,112,67597,6,0,L|236:5,2,108,6|0|0,0:0|0:0|0:0,0:0:0:0:
333,152,68307,2,0,L|449:145,2,108,2|0|0,0:0|0:0|0:0,0:0:0:0:
282,240,69017,5,2,0:0:0:0:
319,353,69283,1,0,0:0:0:0:
396,263,69550,1,0,0:0:0:0:
266,276,69727,5,2,0:0:0:0:
170,207,69994,1,0,0:0:0:0:
274,146,70260,1,0,0:0:0:0:
241,300,70437,6,0,L|127:319,2,108,2|0|0,0:0|0:0|0:0,0:0:0:0:
170,207,71147,2,0,L|63:189,2,108,2|0|0,0:0|0:0|0:0,0:0:0:0:
247,137,71857,2,0,L|414:131,1,144,2|8,0:0|0:0,0:0:0:0:
510,313,72567,5,2,0:0:0:0:
424,325,72745,1,2,0:0:0:0:
372,259,72922,1,10,0:0:0:0:
458,247,73100,1,2,0:0:0:0:
338,337,73278,6,0,L|218:326,2,108,6|0|0,1:2|0:0|3:0,0:0:0:0:
359,232,73988,2,0,L|345:110,2,108,2|0|0,3:2|0:0|1:0,0:0:0:0:
456,183,74698,5,6,1:2:0:0:
479,98,74964,1,0,0:0:0:0:
443,17,75230,1,0,3:2:0:0:
455,111,75408,5,2,3:2:0:0:
367,100,75674,1,0,0:0:0:0:
287,138,75940,1,0,1:2:0:0:
212,99,76118,6,0,P|166:95|61:97,1,144,6|8,1:2|0:0,0:0:0:0:
14,183,76650,1,0,1:0:0:0:
14,183,76739,1,0,3:0:0:0:
14,183,76828,1,0,3:0:0:0:
14,183,76917,1,0,3:0:0:0:
14,183,77005,1,0,3:0:0:0:
54,287,77183,1,8,0:0:0:0:
173,229,77360,1,0,3:0:0:0:
173,229,77449,1,0,0:0:0:0:
173,229,77538,5,0,1:0:0:0:
296,346,77804,1,0,1:0:0:0:
296,346,77893,1,8,0:0:0:0:
292,264,78070,5,0,1:0:0:0:
424,363,78248,1,0,1:0:0:0:
444,333,78337,1,0,0:0:0:0:
439,297,78425,1,0,1:0:0:0:
415,269,78514,1,0,0:0:0:0:
401,235,78603,1,0,1:0:0:0:
401,198,78692,1,0,1:0:0:0:
415,165,78780,1,0,1:0:0:0:
448,151,78869,1,0,1:0:0:0:
448,151,79313,6,0,P|385:142|235:137,1,207.000003948212,14|2,0:2|1:2,0:0:0:0:
116,221,79846,1,0,3:0:0:0:
116,221,79934,1,2,0:0:0:0:
116,221,80023,2,0,P|61:215|4:195,1,103.500001974106,8|2,0:2|3:2,0:0:0:0:
170,53,80378,6,0,L|324:40,1,155.250002961159,2|2,1:2|0:0,0:0:0:0:
324,39,80733,1,8,0:0:0:0:
231,163,80911,1,2,3:2:0:0:
227,193,80999,1,0,3:0:0:0:
225,224,81088,1,2,1:2:0:0:
219,254,81177,1,0,3:0:0:0:
215,284,81266,1,0,3:0:0:0:
308,373,81443,2,0,P|361:352|409:347,1,103.500001974106,8|2,0:0|3:2,0:0:0:0:
512,278,81798,6,0,P|462:269|399:184,1,155.250002961159,2|2,1:2|0:0,0:0:0:0:
400,190,82153,1,8,0:0:0:0:
393,42,82331,1,2,3:2:0:0:
369,22,82420,1,0,3:0:0:0:
339,13,82508,1,2,1:2:0:0:
307,14,82597,1,0,3:0:0:0:
277,25,82686,1,0,3:0:0:0:
214,141,82863,2,0,P|149:133|114:108,1,103.500001974106,8|2,0:0|3:2,0:0:0:0:
26,0,83218,5,0,1:0:0:0:
90,149,83396,1,0,3:0:0:0:
96,179,83485,1,0,3:0:0:0:
90,209,83573,1,8,0:0:0:0:
75,236,83662,1,0,3:0:0:0:
76,267,83751,1,0,3:0:0:0:
80,297,83840,1,0,3:0:0:0:
91,325,83928,1,2,1:2:0:0:
112,347,84017,1,0,3:0:0:0:
140,359,84106,1,0,3:0:0:0:
316,280,84283,5,10,0:2:0:0:
207,251,84461,1,0,1:0:0:0:
386,375,84638,5,6,1:2:0:0:
427,371,84727,1,0,3:0:0:0:
462,349,84816,1,0,3:0:0:0:
467,307,84905,1,2,3:2:0:0:
455,267,84994,1,8,0:2:0:0:
425,237,85082,1,0,3:0:0:0:
396,206,85171,1,2,3:2:0:0:
387,165,85260,1,0,3:0:0:0:
396,124,85349,6,0,L|402:68,3,51.7500009870529,2|0|0|2,1:2|3:0|3:0|3:2,0:0:0:0:
297,51,85704,2,0,L|291:-5,3,51.7500009870529,8|0|2|0,0:0|3:0|3:2|3:0,0:0:0:0:
184,57,86059,5,2,1:2:0:0:
144,68,86147,1,0,3:0:0:0:
116,98,86236,1,0,3:0:0:0:
112,139,86325,1,2,3:2:0:0:
140,168,86414,1,8,0:0:0:0:
181,166,86502,1,0,3:0:0:0:
216,143,86591,1,2,3:2:0:0:
257,137,86680,1,0,3:0:0:0:
296,149,86769,5,2,1:2:0:0:
329,172,86857,1,0,3:0:0:0:
347,209,86946,1,0,3:2:0:0:
344,250,87035,1,2,3:2:0:0:
314,279,87124,2,0,L|300:334,3,51.7500009870529,8|0|2|0,0:0|3:0|3:2|3:0,0:0:0:0:
195,349,87479,5,2,1:2:0:0:
153,369,87567,1,0,3:0:0:0:
108,363,87656,1,0,3:0:0:0:
73,333,87745,1,0,3:0:0:0:
61,289,87834,1,8,0:0:0:0:
76,245,87922,1,0,3:0:0:0:
99,205,88011,1,0,3:0:0:0:
103,159,88100,1,0,3:0:0:0:
87,116,88190,5,0,1:0:0:0:
91,70,88278,1,0,3:0:0:0:
124,38,88367,1,0,3:0:0:0:
169,35,88456,1,0,3:0:0:0:
206,62,88545,1,8,0:0:0:0:
231,101,88633,1,0,3:0:0:0:
273,119,88722,1,0,3:0:0:0:
318,110,88811,1,0,3:0:0:0:
352,79,88899,5,2,1:2:0:0:
392,49,88987,1,0,3:0:0:0:
443,52,89076,1,0,3:0:0:0:
480,87,89165,1,0,3:0:0:0:
486,137,89254,1,8,0:0:0:0:
460,181,89343,1,0,3:0:0:0:
414,203,89432,1,0,3:0:0:0:
363,197,89520,1,0,3:0:0:0:
325,163,89609,5,2,1:2:0:0:
279,140,89698,1,0,3:0:0:0:
229,146,89787,1,0,3:0:0:0:
190,179,89876,1,0,3:0:0:0:
175,228,89965,1,10,0:2:0:0:
192,275,90052,1,0,3:0:0:0:
236,301,90141,1,0,1:0:0:0:
286,294,90230,1,0,3:0:0:0:
321,256,90319,6,0,L|376:269,1,51.7500009870529,6|0,1:2|3:0,0:0:0:0:
495,347,90496,2,0,L|440:359,1,51.7500009870529,0|0,1:0|3:0,0:0:0:0:
313,236,90674,2,0,L|368:249,1,51.7500009870529,0|0,1:0|3:0,0:0:0:0:
501,322,90851,2,0,L|446:334,1,51.7500009870529,0|0,1:0|3:0,0:0:0:0:
255,368,91029,6,0,L|264:317,1,51.7500009870529,0|0,1:0|3:0,0:0:0:0:
192,196,91207,2,0,L|197:255,1,51.7500009870529,0|0,1:0|3:0,0:0:0:0:
282,378,91384,2,0,L|291:327,1,51.7500009870529,0|0,1:0|3:0,0:0:0:0:
162,187,91562,2,0,L|167:246,1,51.7500009870529,0|0,1:0|3:0,0:0:0:0:
120,361,91739,6,0,L|66:368,3,51.7500009870529,2|0|0|0,1:2|0:0|0:0|0:0,0:0:0:0:
64,293,92094,2,0,L|12:286,3,51.7500009870529
22,208,92449,2,0,L|74:195,1,51.7500009870529
122,109,92627,1,0,1:0:0:0:
122,109,92715,1,0,1:0:0:0:
122,109,92804,1,0,1:0:0:0:
264,120,92982,1,0,1:0:0:0:
300,31,93159,6,0,P|261:21|205:17,1,72,4|0,1:2|3:0,0:0:0:0:
165,229,93514,2,0,P|251:261|375:268,1,207.000003948212,10|0,0:0|3:0,0:0:0:0:
365,268,93958,1,0,3:0:0:0:
365,268,94047,1,2,1:2:0:0:
509,138,94224,1,8,0:0:0:0:
400,75,94402,1,0,3:0:0:0:
478,263,94579,6,0,P|487:316|493:368,1,103.500001974106,2|0,1:2|3:0,0:0:0:0:
383,195,94934,1,8,0:0:0:0:
251,355,95112,5,2,3:2:0:0:
230,356,95201,1,0,3:0:0:0:
209,357,95289,1,0,3:0:0:0:
188,358,95378,1,0,3:0:0:0:
167,358,95467,1,0,1:0:0:0:
3,298,95644,2,0,P|58:288|104:270,1,103.500001974106,10|0,0:2|3:0,0:0:0:0:
293,187,95999,6,0,P|200:183|80:174,1,207.000003948212,0|10,1:0|0:2,0:0:0:0:
15,64,96532,1,0,3:0:0:0:
15,64,96621,1,0,3:0:0:0:
15,64,96709,1,0,3:0:0:0:
15,64,96798,1,0,3:0:0:0:
15,64,96887,1,2,1:2:0:0:
193,24,97065,5,8,0:0:0:0:
93,0,97242,1,0,1:0:0:0:
170,118,97420,6,0,P|181:174|190:233,1,103.500001974106,2|0,0:0|1:0,0:0:0:0:
130,307,97775,1,8,0:0:0:0:
298,307,97952,5,2,3:2:0:0:
318,304,98041,1,0,3:0:0:0:
338,301,98130,1,0,3:0:0:0:
358,298,98218,1,0,3:0:0:0:
378,294,98307,1,0,1:0:0:0:
460,183,98485,2,0,P|471:125|471:64,1,103.500001974106,10|0,0:2|3:0,0:0:0:0:
351,6,98840,1,0,1:0:0:0:
357,122,99017,5,0,3:0:0:0:
360,168,99106,1,0,3:0:0:0:
364,214,99195,1,8,0:0:0:0:
324,190,99283,1,0,3:0:0:0:
285,164,99372,1,0,3:0:0:0:
246,137,99461,1,0,3:0:0:0:
208,109,99550,5,0,3:0:0:0:
210,155,99638,1,0,3:0:0:0:
212,201,99727,1,2,1:2:0:0:
213,247,99816,1,0,3:0:0:0:
217,293,99905,2,0,P|162:286|113:296,1,103.500001974106,8|0,0:0|3:0,0:0:0:0:
4,234,100260,1,2,1:2:0:0:
129,368,100437,5,0,3:0:0:0:
175,370,100526,1,0,3:0:0:0:
221,372,100615,1,8,0:0:0:0:
267,374,100704,1,0,3:0:0:0:
313,375,100792,1,2,3:2:0:0:
359,376,100881,1,0,3:0:0:0:
405,376,100970,5,0,3:0:0:0:
377,338,101059,1,0,3:0:0:0:
344,305,101147,1,0,1:0:0:0:
307,275,101236,1,0,3:0:0:0:
269,246,101325,2,0,P|261:188|270:137,1,103.500001974106,10|0,0:2|3:0,0:0:0:0:
332,20,101680,1,0,1:0:0:0:
176,77,101857,5,0,3:0:0:0:
129,83,101946,1,0,3:0:0:0:
83,92,102035,1,10,0:2:0:0:
93,137,102124,1,0,3:0:0:0:
105,181,102212,1,0,3:0:0:0:
119,225,102301,1,0,3:0:0:0:
135,268,102390,5,0,3:0:0:0:
174,242,102479,1,0,3:0:0:0:
210,213,102567,1,2,1:2:0:0:
241,178,102656,1,0,3:0:0:0:
272,143,102745,1,8,0:0:0:0:
225,148,102834,1,0,3:0:0:0:
179,154,102922,1,8,0:0:0:0:
134,167,103011,1,0,3:0:0:0:
88,177,103100,5,2,1:2:0:0:
57,210,103189,1,0,3:0:0:0:
50,256,103278,1,0,1:0:0:0:
69,297,103367,1,0,3:0:0:0:
108,322,103456,1,8,0:0:0:0:
154,324,103544,1,0,3:0:0:0:
198,309,103633,1,0,1:0:0:0:
233,279,103722,1,0,3:0:0:0:
276,261,103810,5,0,3:0:0:0:
322,263,103899,1,0,3:0:0:0:
362,285,103988,1,8,0:0:0:0:
389,323,104077,1,0,1:0:0:0:
434,327,104164,1,0,1:0:0:0:
463,293,104253,1,0,1:0:0:0:
452,250,104342,1,8,1:2:0:0:
3,7,104875,6,0,P|66:15|211:57,1,207.000003948212,4|0,1:2|3:2,0:0:0:0:
203,54,105319,1,0,3:2:0:0:
203,54,105408,1,0,1:2:0:0:
103,167,105585,2,0,P|74:218|57:268,1,103.500001974106,8|0,0:2|3:2,0:0:0:0:
222,322,105940,5,0,1:0:0:0:
327,249,106118,1,0,3:0:0:0:
206,200,106295,1,8,0:0:0:0:
346,355,106473,5,0,3:0:0:0:
366,353,106562,1,0,3:0:0:0:
386,350,106650,1,0,3:0:0:0:
406,347,106739,1,0,3:0:0:0:
426,345,106828,1,0,1:0:0:0:
504,249,107005,1,8,0:0:0:0:
397,170,107183,1,0,3:0:0:0:
496,6,107360,6,0,P|507:59|503:126,1,103.500001974106,0|0,1:0|3:0,0:0:0:0:
397,170,107715,1,8,0:0:0:0:
304,57,107893,1,0,3:0:0:0:
304,57,107982,1,0,3:0:0:0:
304,57,108070,1,0,3:0:0:0:
304,57,108159,1,0,3:0:0:0:
304,57,108248,1,0,1:0:0:0:
221,124,108425,5,8,0:0:0:0:
403,61,108603,1,0,1:0:0:0:
310,217,108780,6,0,P|253:228|200:246,1,103.500001974106,0|0,0:0|1:0,0:0:0:0:
127,360,109136,1,8,0:0:0:0:
118,182,109313,1,0,3:0:0:0:
118,161,109402,1,0,3:0:0:0:
118,140,109491,1,0,3:0:0:0:
118,119,109579,1,0,3:0:0:0:
118,98,109668,1,0,1:0:0:0:
235,5,109846,2,0,P|298:26|362:19,1,103.500001974106,8|0,0:0|3:0,0:0:0:0:
341,337,110556,5,12,0:0:0:0:
295,329,110644,1,0,3:0:0:0:
249,319,110733,1,0,3:0:0:0:
203,309,110822,1,0,3:0:0:0:
158,296,110911,1,0,3:0:0:0:
189,262,110999,1,0,3:0:0:0:
220,227,111088,1,0,1:0:0:0:
252,193,111177,1,0,3:0:0:0:
284,159,111266,2,0,P|228:142|166:145,1,103.500001974106,8|0,0:0|3:0,0:0:0:0:
47,184,111621,1,0,1:0:0:0:
120,33,111798,5,0,3:0:0:0:
166,26,111887,1,0,3:0:0:0:
211,20,111976,1,8,0:0:0:0:
242,54,112065,1,0,3:0:0:0:
272,88,112153,1,0,3:0:0:0:
302,122,112242,1,0,3:0:0:0:
332,156,112331,5,0,3:0:0:0:
373,134,112420,1,0,3:0:0:0:
414,113,112508,1,0,1:0:0:0:
455,92,112597,1,0,3:0:0:0:
494,67,112686,2,0,P|500:124|497:186,1,103.500001974106,8|0,0:0|3:0,0:0:0:0:
390,245,113041,1,4,1:2:0:0:
485,378,113218,6,0,L|492:323,1,51.7500009870529,0|0,1:2|3:0,0:0:0:0:
366,238,113396,2,0,L|373:293,1,51.7500009870529,0|0,1:2|3:0,0:0:0:0:
506,384,113573,2,0,L|513:329,1,51.7500009870529,0|0,1:2|3:0,0:0:0:0:
343,237,113751,2,0,L|350:292,1,51.7500009870529,0|0,1:2|3:0,0:0:0:0:
284,367,113928,6,0,L|219:372,1,51.7500009870529,0|0,1:2|3:0,0:0:0:0:
136,242,114106,2,0,L|187:238,1,51.7500009870529,0|0,1:2|3:0,0:0:0:0:
293,347,114283,2,0,L|228:352,1,51.7500009870529,0|0,1:2|3:0,0:0:0:0:
48,328,114461,5,0,1:2:0:0:
30,274,114549,1,0,3:0:0:0:
26,217,114638,1,8,0:2:0:0:
37,161,114727,1,0,3:0:0:0:
62,110,114816,1,8,0:2:0:0:
98,67,114904,1,0,3:0:0:0:
145,34,114993,1,0,1:2:0:0:
198,14,115082,1,0,3:0:0:0:
254,8,115171,5,0,3:0:0:0:
311,16,115259,1,0,3:0:0:0:
363,39,115348,1,0,1:2:0:0:
408,73,115437,1,0,3:0:0:0:
442,118,115526,1,8,0:2:0:0:
465,170,115614,1,0,3:0:0:0:
473,226,115703,1,0,3:0:0:0:
467,283,115792,1,0,3:0:0:0:
447,336,115881,6,0,L|391:346,5,51.7500009870529,4|0|0|0|0|0,1:2|3:0|3:0|3:0|3:0|3:0,0:0:0:0:
308,224,116414,2,0,L|257:214,5,51.7500009870529,4|0|0|0|0|0,1:2|3:0|3:0|3:0|3:0|3:0,0:0:0:0:
184,364,116946,2,0,L|133:374,5,51.7500009870529,4|0|0|0|0|0,1:2|3:0|3:0|3:0|3:0|3:0,0:0:0:0:
209,225,117479,6,0,L|197:157,1,51.7500009870529,0|0,1:0|3:0,0:0:0:0:
117,85,117656,2,0,L|112:143,1,51.7500009870529,0|0,1:0|3:0,0:0:0:0:
265,211,117834,2,0,L|253:143,1,51.7500009870529,0|0,1:0|3:0,0:0:0:0:
61,75,118011,2,0,L|56:133,1,51.7500009870529,0|0,1:0|3:0,0:0:0:0:
315,199,118189,2,0,L|303:131,1,51.7500009870529,0|0,1:0|3:0,0:0:0:0:
4,63,118366,2,0,L|-1:121,1,51.7500009870529,0|0,1:0|3:0,0:0:0:0:
306,148,119076,5,4,1:2:0:0:
256,192,119165,12,0,122982,0:0:0:0:
