osu file format v14

[General]
AudioFilename: audio.mp3
AudioLeadIn: 0
PreviewTime: 55189
Countdown: 0
SampleSet: Soft
StackLeniency: 0.7
Mode: 0
LetterboxInBreaks: 0
EpilepsyWarning: 1
WidescreenStoryboard: 1

[Editor]
DistanceSpacing: 0.9
BeatDivisor: 2
GridSize: 16
TimelineZoom: 1.4

[Metadata]
Title:Fly High (feat. rerone)
TitleUnicode:Fly↑High (feat. rerone)
Artist:P4koo
ArtistUnicode:P4koo
Creator:Affirmation
Version:Normal
Source:
Tags:osu mappers' guild mg mpg korean pop fa featured artist female osu! electronic kpop
BeatmapID:3194255
BeatmapSetID:1564234

[Difficulty]
HPDrainRate:4.2
CircleSize:3.3
OverallDifficulty:4.3
ApproachRate:5.6
SliderMultiplier:1
SliderTickRate:1

[Events]
//Background and Video events
0,0,"BG.jpg",0,0
//Break Periods
2,29192,31051
2,32572,34431
//Storyboard Layer 0 (Background)
//Storyboard Layer 1 (Fail)
//Storyboard Layer 2 (Pass)
//Storyboard Layer 3 (Foreground)
//Storyboard Layer 4 (Overlay)
//Storyboard Sound Samples

[TimingPoints]
1950,422.535211267606,4,2,11,40,1,0
1950,-90.9090909090909,4,2,11,40,0,0
8710,-90.9090909090909,4,2,11,45,0,0
15471,-90.9090909090909,4,2,11,70,0,0
28992,-90.9090909090909,4,2,11,48,0,0
40823,-90.9090909090909,4,2,11,50,0,0
42513,-90.9090909090909,4,2,11,55,0,0
48851,-90.9090909090909,4,2,12,55,0,0
49062,-90.9090909090909,4,2,11,55,0,0
49273,-90.9090909090909,4,2,11,55,0,0
50541,-90.9090909090909,4,2,12,55,0,0
50752,-90.9090909090909,4,2,11,55,0,0
52231,-90.9090909090909,4,2,12,55,0,0
52442,-90.9090909090909,4,2,11,55,0,0
54133,-90.9090909090909,4,2,13,55,0,0
56034,-90.9090909090909,4,2,11,75,0,0
76316,-90.9090909090909,4,2,14,65,0,0
76738,-90.9090909090909,4,2,11,65,0,0
83076,-90.9090909090909,4,2,11,70,0,0
96597,-90.9090909090909,4,2,14,50,0,0
98288,-90.9090909090909,4,2,11,50,0,0
110119,-90.9090909090909,4,2,11,50,0,0

[Colours]
Combo1 : 247,233,106
Combo2 : 155,251,253
Combo3 : 34,134,255
Combo4 : 243,176,251
SliderBorder : 182,247,225
SliderTrackOverride : 144,144,144

[HitObjects]
42,282,1950,6,0,L|37:172,2,110.000003356934,2|2|2,2:2|2:2|2:2,0:0:0:0:
118,344,3217,1,2,2:2:0:0:
192,278,3640,2,0,B|245:259|245:259|294:279,1,110.000003356934,2|2,2:2|2:2,0:0:0:0:
378,331,4485,1,2,2:2:0:0:
458,273,4907,1,2,2:2:0:0:
381,208,5330,6,0,P|366:156|377:103,1,110.000003356934,2|2,2:2|2:2,0:0:0:0:
417,12,6175,2,0,L|307:9,1,110.000003356934,2|2,2:2|2:2,0:0:0:0:
218,53,7020,2,0,L|108:50,2,110.000003356934,2|2|2,2:2|2:2|2:2,0:0:0:0:
274,134,8288,2,0,P|277:161|273:188,1,55.0000016784668,2|0,2:2|0:0,0:0:0:0:
243,227,8710,6,0,B|213:222|186:231|193:238|166:248|136:243,1,110.000003356934,2|10,2:2|2:2,0:0:0:0:
92,219,9344,1,2,2:2:0:0:
37,136,9766,2,0,L|34:81,2,55.0000016784668,2|8|2,2:2|2:2|2:2,0:0:0:0:
131,107,10611,2,0,L|128:52,1,55.0000016784668,2|8,2:2|2:2,0:0:0:0:
159,13,11034,2,0,B|206:42|206:42|260:32,1,110.000003356934,2|2,2:2|2:2,0:0:0:0:
304,11,11668,1,10,2:2:0:0:
394,50,12090,6,0,P|390:104|386:159,1,110.000003356934,2|8,2:2|2:2,0:0:0:0:
368,206,12724,2,0,P|422:209|477:213,1,110.000003356934
510,250,13358,1,8,2:2:0:0:
466,338,13780,2,0,B|420:341|381:323|392:313|353:296|308:300,1,165.000005035401,0|0,0:0|3:3,0:0:0:0:
258,297,14626,2,0,L|254:379,2,82.5000025177003,0|0|0,3:3|3:3|3:3,0:0:0:0:
233,253,15471,5,6,3:2:0:0:
292,174,15893,1,10,2:2:0:0:
218,107,16316,2,0,L|108:110,1,110.000003356934,2|10,3:2|2:2,0:0:0:0:
99,12,17161,2,0,L|208:8,1,110.000003356934,2|10,3:2|2:2,0:0:0:0:
297,50,18006,2,0,P|325:52|352:50,1,55.0000016784668,2|10,3:2|2:2,0:0:0:0:
395,74,18428,2,0,P|397:101|395:128,1,55.0000016784668,10|2,2:2|2:2,0:0:0:0:
357,160,18851,5,2,3:2:0:0:
427,229,19273,2,0,B|447:276|447:276|431:332,2,110.000003356934,10|2|10,2:2|3:2|2:2,0:0:0:0:
357,160,20541,2,0,L|247:163,1,110.000003356934,2|10,3:2|2:2,0:0:0:0:
160,115,21386,1,2,3:2:0:0:
77,169,21809,2,0,P|74:197|79:224,1,55.0000016784668,10|2,2:2|3:2,0:0:0:0:
121,251,22231,6,0,B|151:246|178:255|171:262|198:272|228:267,1,110.000003356934,2|10,3:2|2:2,0:0:0:0:
316,221,23076,1,2,3:2:0:0:
393,283,23499,1,10,2:2:0:0:
479,235,23921,2,0,B|492:181|492:181|472:130,1,110.000003356934,2|10,3:2|2:2,0:0:0:0:
399,63,24766,2,0,L|344:67,1,55.0000016784668,2|10,3:2|2:2,0:0:0:0:
308,102,25189,2,0,L|253:97,1,55.0000016784668,10|2,2:2|3:2,0:0:0:0:
217,63,25611,5,2,3:2:0:0:
132,115,26034,2,0,P|117:63|132:11,2,110.000003356934,10|2|10,2:2|3:2|2:2,0:0:0:0:
203,184,27302,1,2,3:2:0:0:
146,265,27724,1,10,2:2:0:0:
210,340,28147,2,0,L|265:338,1,55.0000016784668,2|2,3:2|3:2,0:0:0:0:
302,306,28569,2,0,L|357:308,1,55.0000016784668,10|2,2:2|3:2,0:0:0:0:
396,338,28992,5,4,3:2:0:0:
347,142,32161,6,0,B|345:196,1,55.0000016784668,0|0,3:3|3:3,0:0:0:0:
56,207,35541,5,0,3:3:0:0:
56,207,35752,6,0,P|47:152|44:97,1,110.000003356934,0|0,3:3|3:3,0:0:0:0:
138,126,36597,2,0,P|166:79|199:34,1,110.000003356934,0|0,3:3|3:3,0:0:0:0:
252,116,37442,2,0,P|304:98|357:85,1,110.000003356934,0|0,3:3|3:3,0:0:0:0:
345,181,38288,2,0,P|396:201|445:225,1,110.000003356934,0|0,3:3|3:3,0:0:0:0:
479,318,39133,5,0,3:3:0:0:
394,369,39555,1,0,3:3:0:0:
319,303,39978,1,0,3:3:0:0:
234,354,40400,2,0,L|179:351,1,55.0000016784668,0|0,3:3|3:3,0:0:0:0:
141,319,40823,2,0,L|31:323,2,110.000003356934,0|0|0,3:3|3:3|3:3,0:0:0:0:
221,262,42090,2,0,P|223:234|219:207,1,55.0000016784668,0|0,3:3|3:3,0:0:0:0:
188,167,42513,6,0,P|241:180|293:164,1,110.000003356934,6|8,3:2|2:2,0:0:0:0:
330,131,43147,1,2,3:2:0:0:
423,162,43569,1,0,3:3:0:0:
423,162,43780,2,0,P|429:188|428:216,1,55.0000016784668,10|0,2:2|3:3,0:0:0:0:
430,265,44203,2,0,L|320:260,1,110.000003356934,2|8,3:2|2:2,0:0:0:0:
287,297,44837,1,2,3:2:0:0:
205,241,45259,2,0,L|150:243,2,55.0000016784668,0|10|0,3:3|2:2|3:3,0:0:0:0:
247,215,45893,6,0,B|256:185|250:157|243:163|236:135|246:106,1,110.000003356934,2|8,3:2|2:2,0:0:0:0:
284,75,46527,1,2,3:2:0:0:
196,29,46950,1,0,3:3:0:0:
196,29,47161,2,0,L|141:33,1,55.0000016784668,10|0,2:2|3:3,0:0:0:0:
92,38,47583,2,0,B|118:89|118:89|100:138,1,110.000003356934,2|8,3:2|2:2,0:0:0:0:
71,178,48217,1,2,3:2:0:0:
119,264,48640,1,8,2:3:0:0:
119,264,48851,2,0,L|173:260,1,55.0000016784668,6|0,2:2|3:3,0:0:0:0:
214,288,49273,5,6,3:2:0:0:
271,207,49696,1,8,2:2:0:0:
271,207,49907,2,0,L|380:211,1,110.000003356934,2|0,2:2|0:0,0:0:0:0:
416,246,50541,1,10,2:2:0:0:
488,178,50964,2,0,P|508:127|490:76,1,110.000003356934,6|8,3:2|2:2,0:0:0:0:
456,40,51597,2,0,L|346:44,1,110.000003356934,2|0,2:2|0:0,0:0:0:0:
303,70,52231,2,0,L|248:67,1,55.0000016784668,10|4,2:2|2:3,0:0:0:0:
203,44,52654,5,4,3:2:0:0:
127,107,53076,2,0,L|128:161,1,55.0000016784668,4|4,2:3|2:3,0:0:0:0:
136,211,53499,2,0,L|81:212,2,55.0000016784668,0|0|0,3:3|3:3|3:3,0:0:0:0:
179,234,54133,1,6,3:2:0:0:
172,275,56034,6,0,L|281:281,1,110.000003356934,6|8,3:2|2:2,0:0:0:0:
308,324,56668,2,0,L|417:317,1,110.000003356934,2|2,2:2|2:2,0:0:0:0:
454,284,57302,2,0,P|452:256|447:229,1,55.0000016784668,10|0,2:2|0:0,0:0:0:0:
415,191,57724,1,2,3:2:0:0:
479,115,58147,1,10,2:2:0:0:
479,115,58358,2,0,P|429:93|375:99,1,110.000003356934,2|10,2:2|2:2,0:0:0:0:
339,133,58992,1,10,2:2:0:0:
261,72,59414,6,0,L|206:75,1,55.0000016784668,2|0,3:2|0:0,0:0:0:0:
175,115,59837,2,0,L|120:118,1,55.0000016784668,10|2,2:2|2:2,0:0:0:0:
76,96,60259,1,2,3:2:0:0:
32,120,60471,2,0,B|11:170|11:170|37:219,1,110.000003356934
77,247,61104,1,2,3:2:0:0:
174,231,61527,2,0,L|229:234,1,55.0000016784668,10|2,2:2|2:2,0:0:0:0:
277,224,61950,2,0,P|281:251|276:278,2,55.0000016784668,2|10|10,3:2|2:2|2:2,0:0:0:0:
231,135,62795,6,0,B|201:130|174:139|181:146|154:156|124:151,1,110.000003356934,2|10,3:2|2:2,0:0:0:0:
83,123,63428,1,2,2:2:0:0:
19,198,63851,2,0,P|16:226|18:253,1,55.0000016784668,2|10,2:2|2:2,0:0:0:0:
52,288,64273,2,0,L|161:283,1,110.000003356934
207,302,64907,1,10,2:2:0:0:
253,321,65119,1,2,2:2:0:0:
346,290,65541,2,0,P|350:316|347:344,2,55.0000016784668,10|10|0,2:2|2:2|0:0,0:0:0:0:
320,247,66175,5,2,3:2:0:0:
293,203,66386,2,0,P|283:149|289:94,1,110.000003356934
314,51,67020,1,2,3:2:0:0:
290,7,67231,2,0,L|180:9,1,110.000003356934
139,37,67865,5,2,3:2:0:0:
68,107,68288,1,4,2:3:0:0:
68,107,68499,2,0,P|43:155|51:208,1,110.000003356934,4|0,2:3|3:3,0:0:0:0:
92,237,69133,1,0,3:3:0:0:
185,270,69555,6,0,L|183:160,1,110.000003356934,6|10,3:2|2:2,0:0:0:0:
218,124,70189,2,0,B|248:119|275:128|268:135|295:145|325:140,1,110.000003356934,2|2,2:2|2:2,0:0:0:0:
373,132,70823,2,0,P|367:158|367:186,1,55.0000016784668,10|0,2:2|0:0,0:0:0:0:
398,225,71245,1,2,3:2:0:0:
374,321,71668,1,10,2:2:0:0:
374,321,71879,2,0,L|264:319,1,110.000003356934,2|10,2:2|2:2,0:0:0:0:
223,289,72513,1,10,2:2:0:0:
128,318,72935,6,0,P|124:290|126:263,1,55.0000016784668,2|0,3:2|0:0,0:0:0:0:
152,221,73358,2,0,P|154:193|150:166,1,55.0000016784668,10|2,2:2|2:2,0:0:0:0:
129,122,73780,1,2,3:2:0:0:
160,83,73992,2,0,L|269:86,1,110.000003356934
316,69,74626,1,2,3:2:0:0:
356,157,75048,2,0,P|358:185|355:212,1,55.0000016784668,10|2,2:2|2:2,0:0:0:0:
338,259,75471,2,0,L|392:260,2,55.0000016784668,2|10|10,3:2|2:2|2:2,0:0:0:0:
252,309,76316,6,0,L|142:305,1,110.000003356934,6|10,3:2|2:2,0:0:0:0:
97,282,76950,1,0,0:0:0:0:
135,191,77372,2,0,L|132:136,2,55.0000016784668,2|10|2,2:2|2:2|2:2,0:0:0:0:
233,198,78217,2,0,L|230:143,1,55.0000016784668,2|10,2:2|2:2,0:0:0:0:
250,97,78640,2,0,B|301:116|301:116|353:97,1,110.000003356934,2|2,2:2|2:2,0:0:0:0:
394,70,79273,1,10,2:2:0:0:
475,126,79696,6,0,P|475:180|471:235,1,110.000003356934,2|10,2:2|2:2,0:0:0:0:
439,273,80330,2,0,P|384:268|329:269,1,110.000003356934
288,298,80964,1,10,2:2:0:0:
206,241,81386,2,0,L|151:245,2,55.0000016784668,8|8|4,2:3|2:3|2:3,0:0:0:0:
293,194,82231,2,0,L|297:139,1,55.0000016784668,4|4,2:3|2:3,0:0:0:0:
253,116,82654,2,0,L|248:61,1,55.0000016784668,0|0,3:3|3:3,0:0:0:0:
284,27,83076,6,0,B|319:21|319:21|354:33|354:33|390:27,1,110.000003356934,6|8,3:2|2:2,0:0:0:0:
437,8,83710,2,0,B|454:45|454:45|443:113,1,110.000003356934,2|0,2:2|3:3,0:0:0:0:
408,149,84344,1,10,2:2:0:0:
420,247,84766,2,0,B|384:241|384:241|349:253|349:253|313:247,1,110.000003356934,0|8,3:3|2:2,0:0:0:0:
268,224,85400,2,0,B|212:209|212:209|163:229,1,110.000003356934,2|2,2:2|3:2,0:0:0:0:
124,258,86034,1,10,2:2:0:0:
49,192,86457,5,2,3:2:0:0:
70,95,86879,2,0,L|179:97,1,110.000003356934,10|2,2:2|2:2,0:0:0:0:
225,78,87513,1,0,3:3:0:0:
271,59,87724,1,10,2:2:0:0:
354,112,88147,2,0,P|358:139|354:166,1,55.0000016784668,0|2,3:3|3:2,0:0:0:0:
330,209,88569,1,10,2:2:0:0:
305,251,88780,2,0,B|267:229|267:229|201:237,1,110.000003356934,2|2,2:2|3:2,0:0:0:0:
157,259,89414,1,10,2:2:0:0:
74,204,89837,6,0,L|69:94,1,110.000003356934,0|10,3:3|2:2,0:0:0:0:
98,53,90471,2,0,B|133:47|133:47|168:59|168:59|204:53,1,110.000003356934,0|2,0:0|3:2,0:0:0:0:
246,26,91104,1,10,2:2:0:0:
339,59,91527,2,0,B|368:96|368:96|358:158,1,110.000003356934,2|10,3:2|2:2,0:0:0:0:
335,202,92161,2,0,L|444:197,1,110.000003356934,2|2,2:2|3:2,0:0:0:0:
488,221,92795,1,10,2:2:0:0:
452,313,93217,5,0,3:3:0:0:
354,301,93640,2,0,B|325:264|325:264|334:201,1,110.000003356934,10|2,2:2|2:2,0:0:0:0:
358,158,94273,1,2,3:2:0:0:
382,115,94485,1,10,2:2:0:0:
341,24,94907,2,0,L|286:26,1,55.0000016784668,0|2,3:3|3:2,0:0:0:0:
249,60,95330,2,0,L|139:55,1,110.000003356934,10|0,2:2|3:3,0:0:0:0:
94,78,95964,1,8,2:2:0:0:
49,101,96175,1,8,2:2:0:0:
125,164,96597,5,6,2:2:0:0:
125,164,98288,5,2,2:2:0:0:
125,164,99978,5,2,2:2:0:0:
125,164,101668,5,2,2:2:0:0:
302,76,102513,1,2,2:2:0:0:
473,174,103358,6,0,L|469:283,2,110.000003356934,2|0|0,2:2|0:0|0:0,0:0:0:0:
439,80,104626,2,0,P|411:77|384:83,1,55.0000016784668,2|2,2:2|2:2,0:0:0:0:
351,109,105048,2,0,P|297:121|243:116,1,110.000003356934,2|2,0:0|2:2,0:0:0:0:
150,82,105893,2,0,P|137:135|142:189,1,110.000003356934,2|2,2:2|2:2,0:0:0:0:
203,267,106738,6,0,B|155:262|112:279|136:287|92:305|45:300,2,165.000005035401,2|2|2,2:2|2:2|2:2,0:0:0:0:
285,318,108428,2,0,P|338:333|389:316,1,110.000003356934,2|0,2:2|0:0,0:0:0:0:
427,284,109062,2,0,L|421:9,1,275.000008392334,2|0,2:2|0:0,0:0:0:0:
