osu file format v14

[General]
AudioFilename: audio.mp3
AudioLeadIn: 0
PreviewTime: 55189
Countdown: 0
SampleSet: Soft
StackLeniency: 0.7
Mode: 0
LetterboxInBreaks: 0
EpilepsyWarning: 1
WidescreenStoryboard: 1

[Editor]
DistanceSpacing: 1
BeatDivisor: 2
GridSize: 16
TimelineZoom: 1.4

[Metadata]
Title:Fly High (feat. rerone)
TitleUnicode:Fly↑High (feat. rerone)
Artist:P4koo
ArtistUnicode:P4koo
Creator:Affirmation
Version:Easy
Source:
Tags:osu mappers' guild mg mpg korean pop fa featured artist female osu! electronic kpop
BeatmapID:3194252
BeatmapSetID:1564234

[Difficulty]
HPDrainRate:3.2
CircleSize:3
OverallDifficulty:2.3
ApproachRate:3.4
SliderMultiplier:1
SliderTickRate:1

[Events]
//Background and Video events
0,0,"BG.jpg",0,0
//Break Periods
2,29192,34361
2,96797,101668
//Storyboard Layer 0 (Background)
//Storyboard Layer 1 (Fail)
//Storyboard Layer 2 (Pass)
//Storyboard Layer 3 (Foreground)
//Storyboard Layer 4 (Overlay)
//Storyboard Sound Samples

[TimingPoints]
1950,422.535211267606,4,2,11,40,1,0
1950,-111.111111111111,4,2,11,40,0,0
8710,-111.111111111111,4,2,11,45,0,0
15471,-111.111111111111,4,2,11,70,0,0
28992,-111.111111111111,4,2,11,48,0,0
40823,-111.111111111111,4,2,11,50,0,0
42513,-111.111111111111,4,2,11,55,0,0
48851,-111.111111111111,4,2,12,55,0,0
49062,-111.111111111111,4,2,11,55,0,0
49273,-111.111111111111,4,2,11,55,0,0
50541,-111.111111111111,4,2,12,55,0,0
50752,-111.111111111111,4,2,11,55,0,0
52231,-111.111111111111,4,2,12,55,0,0
52442,-111.111111111111,4,2,11,55,0,0
54133,-111.111111111111,4,2,13,55,0,0
56034,-111.111111111111,4,2,11,75,0,0
76316,-111.111111111111,4,2,14,65,0,0
76738,-111.111111111111,4,2,11,65,0,0
83076,-111.111111111111,4,2,11,70,0,0
96597,-111.111111111111,4,2,14,50,0,0
98288,-111.111111111111,4,2,11,50,0,0
110119,-111.111111111111,4,2,11,50,0,0

[Colours]
Combo1 : 247,233,106
Combo2 : 155,251,253
Combo3 : 34,134,255
Combo4 : 243,176,251
SliderBorder : 182,247,225
SliderTrackOverride : 144,144,144

[HitObjects]
156,37,1950,6,0,B|206:27|255:42|230:53|279:68|330:58,1,179.999994506836,2|2,2:2|2:2,0:0:0:0:
411,18,3217,1,2,2:2:0:0:
493,54,3640,2,0,L|485:253,1,179.999994506836,2|2,2:2|2:2,0:0:0:0:
421,296,4907,1,2,2:2:0:0:
461,376,5330,6,0,P|392:321|305:331,1,179.999994506836,2|2,2:2|2:2,0:0:0:0:
222,365,6597,1,2,2:2:0:0:
150,309,7020,2,0,L|60:313,2,89.9999972534181,2|2|2,2:2|2:2|2:2,0:0:0:0:
210,242,8288,1,2,2:2:0:0:
273,178,8710,6,0,B|309:169|343:185|330:195|364:211|400:203,2,134.999995880127,2|2|8,2:2|2:2|2:2,0:0:0:0:
201,123,10400,2,0,B|164:114|130:130|143:140|109:156|73:148,2,134.999995880127,0|2|10,0:0|2:2|2:2,0:0:0:0:
273,178,12090,6,0,P|271:222|269:267,1,89.9999972534181,2|8,2:2|2:2,0:0:0:0:
357,286,12935,2,0,P|358:241|360:196,1,89.9999972534181,0|8,0:0|2:2,0:0:0:0:
409,120,13780,1,0,0:0:0:0:
250,35,14626,2,0,B|211:28|175:41|194:49|158:61|120:55,1,134.999995880127,0|0,3:3|3:3,0:0:0:0:
79,34,15471,6,0,L|79:123,1,89.9999972534181,6|10,3:2|2:2,0:0:0:0:
148,182,16316,2,0,L|148:271,1,89.9999972534181,2|10,3:2|2:2,0:0:0:0:
228,314,17161,1,2,3:2:0:0:
306,269,17583,2,0,P|317:311|308:355,2,89.9999972534181,10|2|10,2:2|3:2|2:2,0:0:0:0:
269,186,18851,6,0,L|358:182,1,89.9999972534181,2|10,3:2|2:2,0:0:0:0:
370,93,19696,2,0,L|280:96,1,89.9999972534181,2|10,3:2|2:2,0:0:0:0:
199,56,20541,1,2,3:2:0:0:
122,105,20964,2,0,P|107:146|116:189,1,89.9999972534181,10|2,2:2|3:2,0:0:0:0:
181,252,21809,1,10,2:2:0:0:
246,315,22231,6,0,L|335:311,1,89.9999972534181,2|10,3:2|2:2,0:0:0:0:
419,276,23076,2,0,P|428:233|420:189,1,89.9999972534181,2|10,3:2|2:2,0:0:0:0:
362,120,23921,1,2,3:2:0:0:
285,167,24344,1,10,2:2:0:0:
205,124,24766,2,0,P|207:79|209:34,1,89.9999972534181,2|10,3:2|2:2,0:0:0:0:
119,39,25611,6,0,P|116:83|114:128,1,89.9999972534181,2|10,3:2|2:2,0:0:0:0:
161,205,26457,1,2,3:2:0:0:
110,279,26879,1,10,2:2:0:0:
163,351,27302,2,0,P|123:368|78:363,2,89.9999972534181,2|10|2,3:2|2:2|3:2,0:0:0:0:
230,290,28569,1,10,2:2:0:0:
308,334,28992,5,4,3:2:0:0:
291,121,35752,6,0,L|380:116,1,89.9999972534181,0|0,3:3|3:3,0:0:0:0:
467,93,36597,2,0,L|471:182,1,89.9999972534181,0|0,3:3|3:3,0:0:0:0:
495,269,37442,2,0,L|405:273,1,89.9999972534181,0|0,3:3|3:3,0:0:0:0:
319,297,38288,2,0,L|314:207,1,89.9999972534181,0|0,3:3|3:3,0:0:0:0:
291,121,39133,5,0,3:3:0:0:
208,156,39555,1,0,3:3:0:0:
121,129,39978,1,0,3:3:0:0:
71,52,40400,1,0,3:3:0:0:
30,134,40823,2,0,L|34:223,1,89.9999972534181,0|0,3:3|3:3,0:0:0:0:
98,287,41668,2,0,P|142:293|185:281,1,89.9999972534181,0|0,3:3|3:3,0:0:0:0:
259,230,42513,6,0,P|229:288|248:351,2,134.999995880127,6|2|10,3:2|3:2|2:2,0:0:0:0:
327,171,44203,2,0,L|461:174,2,134.999995880127,2|2|10,3:2|3:2|2:2,0:0:0:0:
256,115,45893,5,2,3:2:0:0:
157,207,46527,2,0,B|119:180|119:180|108:92,1,134.999995880127,2|10,3:2|2:2,0:0:0:0:
171,28,47583,2,0,P|108:49|48:22,2,134.999995880127,2|2|6,3:2|3:2|2:2,0:0:0:0:
260,25,49273,6,0,P|257:69|255:114,1,89.9999972534181,6|8,3:2|2:2,0:0:0:0:
327,171,50119,2,0,P|324:215|322:260,1,89.9999972534181,0|10,3:3|2:2,0:0:0:0:
269,333,50964,1,6,3:2:0:0:
199,276,51386,2,0,P|154:271|112:285,1,89.9999972534181,8|0,2:2|3:3,0:0:0:0:
41,342,52231,1,10,2:2:0:0:
8,257,52654,6,0,P|12:212|16:167,1,89.9999972534181,4|4,3:2|2:3,0:0:0:0:
90,114,53499,2,0,P|134:118|179:122,1,89.9999972534181,0|0,3:3|3:3,0:0:0:0:
218,100,54133,1,6,3:2:0:0:
346,199,56034,5,6,3:2:0:0:
261,230,56457,1,8,2:2:0:0:
193,172,56879,2,0,P|190:128|210:88,1,89.9999972534181,0|10,3:3|2:2,0:0:0:0:
294,54,57724,2,0,P|339:58|384:61,1,89.9999972534181,2|10,3:2|2:2,0:0:0:0:
447,125,58569,2,0,P|442:169|439:214,1,89.9999972534181,2|10,3:2|2:2,0:0:0:0:
392,291,59414,5,2,3:2:0:0:
319,237,59837,1,10,2:2:0:0:
251,295,60259,2,0,P|185:306|125:277,1,134.999995880127,2|0,3:2|0:0,0:0:0:0:
94,245,61104,2,0,L|98:155,1,89.9999972534181,2|10,3:2|2:2,0:0:0:0:
156,86,61950,1,2,3:2:0:0:
227,141,62372,1,10,2:2:0:0:
282,69,62795,6,0,B|318:63|351:81|338:90|370:108|407:103,1,134.999995880127,2|2,3:2|2:2,0:0:0:0:
478,159,63851,1,2,2:2:0:0:
456,246,64273,2,0,P|412:254|367:250,1,89.9999972534181,2|0,0:0|0:0,0:0:0:0:
292,196,65119,2,0,P|318:258|299:321,1,134.999995880127,2|10,2:2|2:2,0:0:0:0:
216,356,66175,5,2,3:2:0:0:
134,318,66597,1,10,2:2:0:0:
54,360,67020,2,0,P|44:316|55:272,1,89.9999972534181,2|10,3:2|2:2,0:0:0:0:
111,202,67865,1,2,3:2:0:0:
69,122,68288,2,0,B|118:129|162:105|143:92|187:69|236:76,1,179.999994506836,4|0,2:3|3:3,0:0:0:0:
305,135,69555,6,0,P|346:149|390:140,1,89.9999972534181,6|10,3:2|2:2,0:0:0:0:
474,108,70400,2,0,L|468:197,1,89.9999972534181,0|10,3:3|2:2,0:0:0:0:
500,281,71245,1,2,3:2:0:0:
433,341,71668,2,0,L|343:335,1,89.9999972534181,10|2,2:2|3:2,0:0:0:0:
273,278,72513,1,10,2:2:0:0:
202,220,72935,6,0,L|112:225,1,89.9999972534181,2|10,3:2|2:2,0:0:0:0:
48,289,73780,2,0,L|56:154,1,134.999995880127,2|0,3:2|0:0,0:0:0:0:
78,114,74626,2,0,P|121:102|164:111,1,89.9999972534181,2|10,3:2|2:2,0:0:0:0:
247,146,75471,1,2,3:2:0:0:
320,94,75893,1,10,2:2:0:0:
398,138,76316,5,6,3:2:0:0:
460,73,76738,2,0,L|451:252,2,179.999994506836,10|10|10,2:2|2:2|2:2,0:0:0:0:
336,204,79273,6,0,P|325:247|334:290,1,89.9999972534181,10|2,2:2|2:2,0:0:0:0:
381,367,80119,2,0,P|312:312|227:329,1,179.999994506836,10|10,2:2|2:2,0:0:0:0:
146,368,81386,1,8,2:3:0:0:
73,314,81809,1,4,2:3:0:0:
119,236,82231,2,0,L|111:101,1,134.999995880127,4|0,2:3|3:3,0:0:0:0:
136,63,83076,6,0,P|70:68|21:25,2,134.999995880127,6|2|10,3:2|2:2|2:2,0:0:0:0:
217,23,84766,2,0,B|253:17|286:35|273:44|305:62|342:57,1,134.999995880127,0|2,3:3|2:2,0:0:0:0:
440,151,86034,1,10,2:2:0:0:
385,222,86457,5,2,3:2:0:0:
437,294,86879,1,10,2:2:0:0:
370,355,87302,2,0,L|280:350,1,89.9999972534181,2|10,2:2|2:2,0:0:0:0:
235,352,87935,2,0,B|217:311|217:311|228:267,1,89.9999972534181,2|2,2:2|3:2,0:0:0:0:
248,179,88780,2,0,L|113:172,1,134.999995880127,2|10,2:2|2:2,0:0:0:0:
76,145,89626,6,0,B|90:179|82:215|69:204|60:241|75:275,2,134.999995880127,2|10|2,3:2|2:2|3:2,0:0:0:0:
48,59,91316,2,0,L|137:53,1,89.9999972534181,2|0,0:0|0:0,0:0:0:0:
215,98,92161,2,0,L|349:89,1,134.999995880127,2|10,2:2|2:2,0:0:0:0:
437,111,93217,6,0,B|452:153|452:153|438:196,1,89.9999972534181,0|10,3:3|2:2,0:0:0:0:
362,244,94062,2,0,L|272:238,1,89.9999972534181,2|10,2:2|2:2,0:0:0:0:
235,212,94696,2,0,L|145:217,1,89.9999972534181,2|2,2:2|3:2,0:0:0:0:
108,135,95541,2,0,L|242:126,1,134.999995880127,2|8,3:2|2:2,0:0:0:0:
328,153,96597,5,6,2:2:0:0:
105,294,103358,6,0,B|153:302|197:277|180:265|223:241|272:248,1,179.999994506836,2|0,2:2|0:0,0:0:0:0:
344,303,104626,1,2,2:2:0:0:
412,243,105048,2,0,P|425:201|412:159,1,89.9999972534181,2|2,0:0|2:2,0:0:0:0:
349,93,105893,2,0,P|304:100|260:108,1,89.9999972534181,2|2,2:2|2:2,0:0:0:0:
183,154,106738,6,0,P|116:142|49:130,2,134.999995880127,2|2|2,2:2|2:2|2:2,0:0:0:0:
240,223,108428,1,2,2:2:0:0:
367,177,109062,2,0,B|374:141|367:101|367:101|358:61|371:21|371:21|385:52|383:86,1,224.999993133545,2|0,2:2|0:0,0:0:0:0:
