osu file format v14

[General]
AudioFilename: audio.mp3
AudioLeadIn: 0
PreviewTime: 38558
Countdown: 0
SampleSet: Soft
StackLeniency: 0.5
Mode: 0
LetterboxInBreaks: 0
EpilepsyWarning: 1
WidescreenStoryboard: 1

[Editor]
Bookmarks: 1287,9730,10764,20222,39138,58054,65148,67512,72241,74310,87020,102400,105345
DistanceSpacing: 0.8
BeatDivisor: 4
GridSize: 16
TimelineZoom: 1.1

[Metadata]
Title:Feelings of fake (feat. Tsuyuri Karin)
TitleUnicode:Feelings of fake (feat. つゆり花鈴)
Artist:P4koo
ArtistUnicode:P4koo
Creator:Heilia
Version:Moa's Normal feat. Heilia
Source:
Tags:omc Moa coin c_o_i_n Affirmation AF neoskylove einess skymin skydroid Dailycare Morinaga Cellina kuro_usagi [_kuro_usagi_]
BeatmapID:1927026
BeatmapSetID:921855

[Difficulty]
HPDrainRate:4
CircleSize:3.5
OverallDifficulty:4
ApproachRate:5.3
SliderMultiplier:1.1
SliderTickRate:1

[Events]
//Background and Video events
0,0,"bg3.png",0,0
//Break Periods
//Storyboard Layer 0 (Background)
//Storyboard Layer 1 (Fail)
//Storyboard Layer 2 (Pass)
//Storyboard Layer 3 (Foreground)
Sprite,Foreground,Centre,"sb\bg\bg3-1.png",320,240 F,0,113484,114814,0,1 S,0,113484,114814,0.52
Sprite,Foreground,Centre,"sb\bg\bg3-2.png",320,240 F,0,114814,124272,1 S,0,114814,124272,0.52
Sprite,Foreground,Centre,"sb\bg\bg3-2.png",320,240 F,0,114814,115996,1,0 S,0,114814,115996,0.52 P,0,114814,115996,A
Sprite,Foreground,Centre,"sb\bg\bg3-3.png",320,240 F,0,124272,132400,1 S,0,124272,132400,0.52
Sprite,Foreground,Centre,"sb\bg\bg3-3.png",320,240 F,0,124272,125454,1,0 S,0,124272,125454,0.52 P,0,124274,125454,A
Sprite,Foreground,Centre,"sb\bg\bg3-3.png",320,240 F,0,132400,135504,1,0 S,0,132400,135504,0.52
Sprite,Foreground,Centre,"bg3.png",320,240 F,0,74617,75208,0,0.5 S,0,74617,75208,0.52 P,0,74617,75208,A
Sprite,Foreground,Centre,"bg3.png",320,240 F,0,75208,75799,0.5,0.25 S,0,75208,75799,0.52 P,0,75208,75799,A
Sprite,Foreground,Centre,"bg3.png",320,240 F,0,75799,76390,0.25,0.5 S,0,75799,76390,0.52 P,0,75799,76390,A
Sprite,Foreground,Centre,"bg3.png",320,240 F,0,76390,76686,0.5,0.25 S,0,76390,76686,0.52 P,0,76390,76686,A
Sprite,Foreground,Centre,"bg3.png",320,240 F,0,76686,76981,0.25,1 S,0,76686,76981,0.52 P,0,76686,76981,A
Sprite,Foreground,Centre,"bg3.png",320,240 F,0,76686,76981,0.25,1 S,0,76686,76981,0.52 P,0,76686,76981,A
Sprite,Foreground,Centre,"bg3.png",320,240 F,0,76981,91169,1 S,0,76981,91169,0.52 P,0,76981,91169,A
Sprite,Foreground,Centre,"bg3.png",320,240 F,0,76981,77573,1,0.5 S,0,76981,77573,0.52 P,0,76981,77573,A
Sprite,Foreground,Centre,"bg3.png",320,240 F,0,77573,86440,0.5 S,0,77573,86440,0.52 P,0,77573,86440,A
Sprite,Foreground,Centre,"bg3.png",320,240 F,0,86440,87031,0.5,0.2 S,0,86440,87031,0.52 P,0,86440,87031,A
Sprite,Foreground,Centre,"bg3.png",320,240 F,0,87031,,0.2,0.5 S,0,87031,,0.52 P,0,87031,,A
Sprite,Foreground,Centre,"bg3.png",320,240 F,0,87031,87622,0.5,0.2 S,0,87031,87622,0.52 P,0,87031,87622,A
Sprite,Foreground,Centre,"bg3.png",320,240 F,0,87622,88213,0.2,0.5 S,0,87622,88213,0.52 P,0,87622,88213,A
Sprite,Foreground,Centre,"bg3.png",320,240 F,0,88213,88804,0.5,0.2 S,0,88213,88804,0.52 P,0,88213,88804,A
Sprite,Foreground,Centre,"bg3.png",320,240 F,0,88804,89395,0.2,0.5 S,0,88804,89395,0.52 P,0,88804,89395,A
Sprite,Foreground,Centre,"bg3.png",320,240 F,0,89395,89986,0.5,0.2 S,0,89395,89986,0.52 P,0,89395,89986,A
Sprite,Foreground,Centre,"bg3.png",320,240 F,0,89986,90577,0.2,0.5 S,0,89986,90577,0.52 P,0,89986,90577,A
Sprite,Foreground,Centre,"bg3.png",320,240 F,0,90577,91169,0.5,0.2 S,0,90577,91169,0.52 P,0,90577,91169,A
Sprite,Foreground,Centre,"bg3.png",320,240 F,0,91169,91464,1,0 S,0,91169,91464,0.52 P,0,91169,91464,A
Sprite,Foreground,Centre,"bg3.png",320,240 L,76981,1 F,0,0,296,0.7,0 S,1,0,296,0.52,0.54 P,0,0,296,A F,0,296,,0 L,77277,1 F,0,0,296,0.7,0 S,1,0,296,0.52,0.5 P,0,0,296,A F,0,296,,0 L,77573,2 F,0,0,147,0.7,0 S,1,0,147,0.52,0.51 P,0,0,147,A F,0,147,,0 L,77868,1 F,0,0,296,0.7,0 S,1,0,296,0.52,0.54 P,0,0,296,A F,0,296,,0
Sprite,Foreground,Centre,"bg3.png",320,240 L,78164,1 F,0,0,296,0.7,0 S,1,0,296,0.52,0.54 P,0,0,296,A F,0,296,,0 L,78459,1 F,0,0,296,0.7,0 S,1,0,296,0.52,0.5 P,0,0,296,A F,0,296,,0 L,78755,2 F,0,0,147,0.7,0 S,1,0,147,0.52,0.51 P,0,0,147,A F,0,147,,0 L,79050,1 F,0,0,296,0.7,0 S,1,0,296,0.52,0.54 P,0,0,296,A F,0,296,,0
Sprite,Foreground,Centre,"bg3.png",320,240 L,79346,1 F,0,0,296,0.7,0 S,1,0,296,0.52,0.54 P,0,0,296,A F,0,296,,0 L,79641,1 F,0,0,296,0.7,0 S,1,0,296,0.52,0.5 P,0,0,296,A F,0,296,,0 L,79937,2 F,0,0,147,0.7,0 S,1,0,147,0.52,0.51 P,0,0,147,A F,0,147,,0 L,80233,1 F,0,0,296,0.7,0 S,1,0,296,0.52,0.54 P,0,0,296,A F,0,296,,0
Sprite,Foreground,Centre,"bg3.png",320,240 L,80528,1 F,0,0,296,0.7,0 S,1,0,296,0.52,0.54 P,0,0,296,A F,0,296,,0 L,80824,1 F,0,0,296,0.7,0 S,1,0,296,0.52,0.5 P,0,0,296,A F,0,296,,0 L,81119,2 F,0,0,147,0.7,0 S,1,0,147,0.52,0.51 P,0,0,147,A F,0,147,,0 L,81415,1 F,0,0,296,0.7,0 S,1,0,296,0.52,0.54 P,0,0,296,A F,0,296,,0
Sprite,Foreground,Centre,"bg3.png",320,240 L,82893,1 F,0,0,296,0.7,0 S,1,0,296,0.52,0.54 P,0,0,296,A F,0,296,,0 L,83188,1 F,0,0,296,0.7,0 S,1,0,296,0.52,0.5 P,0,0,296,A F,0,296,,0 L,83484,2 F,0,0,147,0.7,0 S,1,0,147,0.52,0.51 P,0,0,147,A F,0,147,,0 L,83779,1 F,0,0,296,0.7,0 S,1,0,296,0.52,0.54 P,0,0,296,A F,0,296,,0
Sprite,Foreground,Centre,"bg3.png",320,240 L,84075,1 F,0,0,296,0.7,0 S,1,0,296,0.52,0.54 P,0,0,296,A F,0,296,,0 L,84371,1 F,0,0,296,0.7,0 S,1,0,296,0.52,0.5 P,0,0,296,A F,0,296,,0 L,84666,2 F,0,0,147,0.7,0 S,1,0,147,0.52,0.51 P,0,0,147,A F,0,147,,0 L,84962,1 F,0,0,296,0.7,0 S,1,0,296,0.52,0.54 P,0,0,296,A F,0,296,,0
Sprite,Foreground,Centre,"bg3.png",320,240 L,85257,1 F,0,0,296,0.7,0 S,1,0,296,0.52,0.54 P,0,0,296,A F,0,296,,0 L,85553,1 F,0,0,296,0.7,0 S,1,0,296,0.52,0.5 P,0,0,296,A F,0,296,,0 L,85848,2 F,0,0,147,0.7,0 S,1,0,147,0.52,0.51 P,0,0,147,A F,0,147,,0 L,86144,1 F,0,0,296,0.7,0 S,1,0,296,0.52,0.54 P,0,0,296,A F,0,296,,0
Sprite,Foreground,Centre,"bg3.png",320,240 L,81710,4 F,0,0,296,0.7,0 S,1,0,296,0.52,0.54 P,0,0,296,A
Sprite,Foreground,Centre,"bg3.png",320,240 F,0,20233,37967,1 S,0,20233,37967,0.52
Sprite,Foreground,Centre,"sb\bg\bg3-1.png",320,240 F,0,39149,39444,0,0.5 S,0,39149,39444,0.52
Sprite,Foreground,Centre,"sb\bg\bg3-1.png",320,240 F,0,39444,56883,0.5 S,0,39444,56883,0.52
Sprite,Foreground,Centre,"sb\bg\bg3-1.png",320,240 F,0,56883,57178,0.5,0.3 S,0,56883,57178,0.52
Sprite,Foreground,Centre,"sb\bg\bg3-1.png",320,240 F,0,57178,57474,0.3 S,0,57178,57474,0.52
Sprite,Foreground,Centre,"sb\bg\bg3-1.png",320,240 F,0,57474,58065,0.3,0 S,0,57474,58065,0.52
Sprite,Foreground,Centre,"sb\bg\bg3-3.png",320,240 F,0,57474,58065,0,1 S,0,57474,58065,0.52
Sprite,Foreground,Centre,"sb\bg\bg3-3.png",320,240 F,0,58065,74617,1 S,0,58065,74617,0.52
Sprite,Foreground,Centre,"sb\bg\bg3-3.png",320,240 F,0,74617,75208,1,0 S,0,74617,75208,0.52
Sprite,Foreground,Centre,"sb\bg\bg3-3.png",320,240 L,59839,1 F,0,0,295,1,0 S,1,0,295,0.52,0.5 F,0,295,,0 L,73582,1 F,0,0,148,1 S,1,0,148,0.52 F,0,148,,0
Sprite,Foreground,Centre,"sb\bg\bg3-2.png",320,240 L,73730,1 F,0,0,148,1 S,1,0,148,0.52 F,0,148,,0 L,62794,1 F,0,0,296,1,0 S,1,0,296,0.52,0.5 F,0,296,,0 L,70331,1 F,0,0,296,1,0 S,1,0,296,0.52,0.5 F,0,296,,0 L,68114,1 F,0,0,296,1,0 S,1,0,296,0.52,0.51 F,0,296,,0 L,58065,1 F,0,0,591,1,0 S,1,0,591,0.52,0.5 F,0,591,,0 L,65159,1 F,0,0,591,1,0 S,1,0,591,0.52,0.5 F,0,591,,0 L,61464,1 F,0,0,148,1,0 S,1,0,148,0.52,0.515 F,0,148,,0 L,68410,1 F,0,0,148,1,0 S,1,0,148,0.52,0.515 F,0,148,,0 L,61612,2 F,0,0,74,1,0 S,1,0,74,0.52 F,0,74,,0 L,62203,1 F,0,0,148,1,0 S,1,0,148,0.52,0.515 F,0,148,,0 L,63090,1 F,0,0,148,1 S,1,0,148,0.52 F,0,148,,0 L,64420,1 F,0,0,148,1 S,1,0,148,0.52 F,0,148,,0 L,64863,2 F,0,0,74,1,0 S,1,0,74,0.52 F,0,74,,0 L,66932,1 F,0,0,148,1,0 S,1,0,148,0.52,0.51 F,0,148,,0 L,71366,2 F,0,0,74,1,0 S,1,0,74,0.52 F,0,74,,0 L,71661,1 F,0,0,148,1 S,1,0,148,0.52 F,0,148,,0 L,73139,1 F,0,0,148,1 S,1,0,148,0.52 F,0,148,,0 L,74026,1 F,0,0,295,1,0 S,1,0,295,0.52,0.5 F,0,295,,0
Sprite,Foreground,Centre,"sb\bg\bg3-1.png",320,240 L,73878,1 F,0,0,148,1 S,1,0,148,0.52 F,0,148,,0 L,71809,1 F,0,0,148,1 S,1,0,148,0.52 F,0,148,,0 L,71513,2 F,0,0,74,1,0 S,1,0,74,0.52 F,0,74,,0 L,68558,1 F,0,0,148,1,0 S,1,0,148,0.52,0.515 F,0,148,,0 L,67080,2 F,0,0,74,1,0 S,1,0,74,0.52 F,0,74,,0 L,74321,2 F,0,0,74,1,0 S,1,0,74,0.52 F,0,74,,0 L,66341,1 F,0,0,197,1,0 S,1,0,197,0.52,0.51 F,0,197,,0 L,65750,1 F,0,0,591,1,0 S,1,0,591,0.52,0.5 F,0,591,,0 L,65011,2 F,0,0,74,1,0 S,1,0,74,0.52 F,0,74,,0 L,62351,1 F,0,0,148,1,0 S,1,0,148,0.52,0.515 F,0,148,,0 L,70183,1 F,0,0,148,1,0 S,1,0,148,0.52,0.515 F,0,148,,0 L,70627,1 F,0,0,148,1,0 S,1,0,148,0.52,0.515 F,0,148,,0 L,58656,1 F,0,0,296,1,0 S,1,0,296,0.52,0.51 F,0,296,,0 L,59543,1 F,0,0,296,1,0 S,1,0,296,0.52,0.515 F,0,296,,0 L,69297,1 F,0,0,296,1,0 S,1,0,296,0.52,0.515 F,0,296,,0 L,60134,2 F,0,0,74,1,0 S,1,0,74,0.52 F,0,74,,0 L,61316,1 F,0,0,148,1,0 S,1,0,148,0.52,0.515 F,0,148,,0 L,61908,1 F,0,0,295,1,0 S,1,0,295,0.52,0.5 F,0,295,,0 L,68706,1 F,0,0,295,1,0 S,1,0,295,0.52,0.5 F,0,295,,0 L,73287,1 F,0,0,295,1 S,1,0,295,0.52 F,0,295,,0 L,63238,1 F,0,0,295,1 S,1,0,295,0.52 F,0,295,,0 L,62646,1 F,0,0,148,1,0 S,1,0,148,0.52,0.515 F,0,148,,0 L,63681,1 F,0,0,148,1 S,1,0,148,0.52 F,0,148,,0 L,64124,1 F,0,0,148,1 S,1,0,148,0.52 F,0,148,,0 L,66735,1 F,0,0,197,1,0 S,1,0,197,0.52,0.51 F,0,197,,0 L,67375,3 F,0,0,74,1,0 S,1,0,74,0.52 F,0,74,,0 L,69001,1 F,0,0,296,1,0 S,1,0,296,0.52,0.515 F,0,296,,0 L,72252,1 F,0,0,296,1,0 S,1,0,296,0.52,0.515 F,0,296,,0 L,71218,2 F,0,0,74,1,0 S,1,0,74,0.52 F,0,74,,0 L,72105,1 F,0,0,148,1 S,1,0,148,0.52 F,0,148,,0 L,72991,1 F,0,0,148,1 S,1,0,148,0.52 F,0,148,,0
Sprite,Foreground,Centre,"bg3.png",320,240 L,74469,2 F,0,0,74,1,0 S,1,0,74,0.52 F,0,74,,0 L,72548,1 F,0,0,148,1 S,1,0,148,0.52 F,0,148,,0 L,71957,1 F,0,0,148,1 S,1,0,148,0.52 F,0,148,,0 L,70774,1 F,0,0,296,1,0 S,1,0,296,0.52,0.5 F,0,296,,0 L,69592,2 F,0,0,296,1,0 S,1,0,296,0.52,0.515 F,0,296,,0 L,67228,2 F,0,0,74,1,0 S,1,0,74,0.52 F,0,74,,0 L,71070,2 F,0,0,74,1,0 S,1,0,74,0.52 F,0,74,,0 L,66538,1 F,0,0,197,1,0 S,1,0,197,0.52,0.51 F,0,197,,0 L,64272,1 F,0,0,148,1 S,1,0,148,0.52 F,0,148,,0 L,63829,1 F,0,0,295,1 S,1,0,295,0.52 F,0,295,,0 L,64568,1 F,0,0,295,1,0 S,1,0,295,0.52,0.51 F,0,295,,0 L,63533,1 F,0,0,148,1 S,1,0,148,0.52 F,0,148,,0 L,62499,1 F,0,0,148,1,0 S,1,0,148,0.52,0.515 F,0,148,,0 L,58952,1 F,0,0,591,1,0 S,1,0,591,0.52,0.515 F,0,591,,0 L,67523,1 F,0,0,591,1,0 S,1,0,591,0.52,0.515 F,0,591,,0 L,60282,2 F,0,0,74,1,0 S,1,0,74,0.52 F,0,74,,0 L,60430,1 F,0,0,591,1,0 S,1,0,591,0.52,0.5 F,0,591,,0 L,61021,1 F,0,0,295,1,0 S,1,0,295,0.52,0.5 F,0,295,,0 L,61760,2 F,0,0,74,1,0 S,1,0,74,0.52 F,0,74,,0
Sprite,Foreground,Centre,"bg3.png",320,240 F,0,20233,21415,1,0 S,0,20233,21415,0.52 P,0,20233,21415,A
Sprite,Foreground,Centre,"bg3.png",320,240 F,0,37967,38262,1,0.75 S,0,37967,38262,0.52
Sprite,Foreground,Centre,"bg3.png",320,240 F,0,38262,38558,0.75,0.5 S,0,38262,38558,0.52
Sprite,Foreground,Centre,"bg3.png",320,240 F,0,38558,38853,0.5,0.25 S,0,38558,38853,0.52
Sprite,Foreground,Centre,"bg3.png",320,240 F,0,38853,39149,0.25,0 S,0,38853,39149,0.52
Sprite,Foreground,Centre,"sb\bg\bg3-1.png",320,240 F,0,1312,2500,0,0.25 S,0,1312,2500,0.52
Sprite,Foreground,Centre,"sb\bg\bg3-1.png",320,240 F,0,2500,9755,0.25 S,0,2500,9755,0.52
Sprite,Foreground,Centre,"sb\bg\bg3-1.png",320,240 F,0,9755,10775,0.25,1 S,0,9755,10775,0.52
Sprite,Foreground,Centre,"sb\bg\bg3-1.png",320,240 F,0,9755,10775,0.25,1 S,0,9755,10775,0.52 P,0,9755,10775,A
Sprite,Foreground,Centre,"sb\bg\bg3-2.png",320,240 F,0,10775,11366,1 S,0,10775,11366,0.52
Sprite,Foreground,Centre,"sb\bg\bg3-2.png",320,240 F,0,10775,11366,1,0 S,0,10775,11366,0.52 P,0,10775,11366,A
Sprite,Foreground,Centre,"sb\bg\bg3-2.png",320,240 F,0,11366,20233,1 S,0,11366,20233,0.52
Sprite,Foreground,Centre,"sb\bg\bg3-2.png",320,240 F,0,13139,13730,1,0 S,0,13139,13730,0.52 P,0,13139,13730,A
Sprite,Foreground,Centre,"sb\bg\bg3-2.png",320,240 F,0,15504,16095,1,0 S,0,15504,16095,0.52
Sprite,Foreground,Centre,"sb\bg\bg3-2.png",320,240 F,0,17868,18459,1,0 S,0,17868,18459,0.52 P,0,17868,18459,A
Sprite,Foreground,Centre,"sb\bg\bg3-2.png",320,240 F,0,15504,16095,1,0 S,0,15504,16095,0.52 P,0,15504,16095,A
Sprite,Foreground,Centre,"bg3.png",320,240 F,0,19050,20233,0,1 S,0,19050,20233,0.52
Sprite,Foreground,Centre,"bg3.png",320,240 F,0,19641,20233,0,1 S,0,19641,20233,0.52 P,0,19641,20233,A
Sprite,Foreground,Centre,"bg3.png",320,240 F,0,20233,20528,1,0 S,0,20233,20528,0.52 P,0,20233,20528,A
Sprite,Foreground,Centre,"bg3.png",320,240 L,29691,2 F,0,0,295,0.5,0 S,1,0,295,0.52,0.5 F,0,295,,0 L,30282,2 F,0,0,147,0.5,0 S,1,0,147,0.52,0.51 F,0,147,,0 L,30577,1 F,0,0,295,0.5,0 S,1,0,295,0.52,0.5 F,0,295,,0 L,22006,2 F,0,0,147,0.5,0 S,1,0,147,0.52,0.51 F,0,147,,0 L,20233,1 F,0,0,295,0.5,0 S,1,0,295,0.52,0.5 F,0,295,,0 L,23779,1 F,0,0,295,0.5,0 S,1,0,295,0.52,0.5 F,0,295,,0 L,26144,2 F,0,0,295,0.5,0 S,1,0,295,0.52,0.5 F,0,295,,0 L,26735,2 F,0,0,147,0.5,0 S,1,0,147,0.52,0.51 F,0,147,,0 L,27031,1 F,0,0,295,0.5,0 S,1,0,295,0.52,0.5 F,0,295,,0 L,36784,2 F,0,0,295,0.5,0 S,1,0,295,0.52,0.5 F,0,295,,0 L,37375,2 F,0,0,147,0.5,0 S,1,0,147,0.52,0.51 F,0,147,,0 L,37671,1 F,0,0,295,0.5,0 S,1,0,295,0.52,0.5 F,0,295,,0
Sprite,Foreground,Centre,"sb\bg\bg3-1.png",320,240 L,30873,2 F,0,0,295,0.5,0 S,1,0,295,0.52,0.5 F,0,295,,0 L,31464,2 F,0,0,147,0.5,0 S,1,0,147,0.52,0.51 F,0,147,,0 L,31760,1 F,0,0,295,0.5,0 S,1,0,295,0.52,0.5 F,0,295,,0 L,27326,2 F,0,0,295,0.5,0 S,1,0,295,0.52,0.5 F,0,295,,0 L,27917,2 F,0,0,147,0.5,0 S,1,0,147,0.52,0.51 F,0,147,,0 L,28213,1 F,0,0,295,0.5,0 S,1,0,295,0.52,0.5 F,0,295,,0 L,24075,1 F,0,0,295,0.5,0 S,1,0,295,0.52,0.5 F,0,295,,0 L,22302,1 F,0,0,295,0.5,0 S,1,0,295,0.52,0.5 F,0,295,,0 L,20528,1 F,0,0,295,0.5,0 S,1,0,295,0.52,0.5 F,0,295,,0 L,21415,1 F,0,0,295,0.5,0 S,1,0,295,0.52,0.5 F,0,295,,0 L,23484,1 F,0,0,295,0.5,0 S,1,0,295,0.52,0.5 F,0,295,,0 L,35602,2 F,0,0,295,0.5,0 S,1,0,295,0.52,0.5 F,0,295,,0 L,36193,2 F,0,0,147,0.5,0 S,1,0,147,0.52,0.51 F,0,147,,0 L,36489,1 F,0,0,295,0.5,0 S,1,0,295,0.52,0.5 F,0,295,,0
Sprite,Foreground,Centre,"sb\bg\bg3-2.png",320,240 L,32055,2 F,0,0,295,0.5,0 S,1,0,295,0.52,0.5 F,0,295,,0 L,32646,2 F,0,0,147,0.5,0 S,1,0,147,0.52,0.51 F,0,147,,0 L,32942,1 F,0,0,295,0.5,0 S,1,0,295,0.52,0.5 F,0,295,,0 L,28508,2 F,0,0,295,0.5,0 S,1,0,295,0.52,0.5 F,0,295,,0 L,29100,2 F,0,0,147,0.5,0 S,1,0,147,0.52,0.51 F,0,147,,0 L,29395,1 F,0,0,295,0.5,0 S,1,0,295,0.52,0.5 F,0,295,,0 L,22597,1 F,0,0,295,0.5,0 S,1,0,295,0.52,0.5 F,0,295,,0 L,21710,1 F,0,0,295,0.5,0 S,1,0,295,0.52,0.5 F,0,295,,0 L,20233,1 F,0,0,295,0.5,0 S,1,0,295,0.52,0.5 F,0,295,,0 L,21119,1 F,0,0,295,0.5,0 S,1,0,295,0.52,0.5 F,0,295,,0 L,23188,2 F,0,0,147,0.5,0 S,1,0,147,0.52,0.51 F,0,147,,0 L,24371,2 F,0,0,147,0.5,0 S,1,0,147,0.52,0.51 F,0,147,,0 L,24962,2 F,0,0,295,0.5,0 S,1,0,295,0.52,0.5 F,0,295,,0 L,25553,2 F,0,0,147,0.5,0 S,1,0,147,0.52,0.51 F,0,147,,0 L,25848,1 F,0,0,295,0.5,0 S,1,0,295,0.52,0.5 F,0,295,,0 L,34420,2 F,0,0,295,0.5,0 S,1,0,295,0.52,0.5 F,0,295,,0 L,35011,2 F,0,0,147,0.5,0 S,1,0,147,0.52,0.51 F,0,147,,0 L,35307,1 F,0,0,295,0.5,0 S,1,0,295,0.52,0.5 F,0,295,,0
Sprite,Foreground,Centre,"sb\bg\bg3-3.png",320,240 L,33238,2 F,0,0,295,0.5,0 S,1,0,295,0.52,0.5 F,0,295,,0 L,33829,2 F,0,0,147,0.5,0 S,1,0,147,0.52,0.51 F,0,147,,0 L,34124,1 F,0,0,295,0.5,0 S,1,0,295,0.52,0.5 F,0,295,,0 L,24666,1 F,0,0,295,0.5,0 S,1,0,295,0.52,0.5 F,0,295,,0 L,22893,1 F,0,0,295,0.5,0 S,1,0,295,0.52,0.5 F,0,295,,0 L,20824,2 F,0,0,147,0.5,0 S,1,0,147,0.52,0.51 F,0,147,,0
Sprite,Foreground,Centre,"bg3.png",320,240 F,0,94420,95011,0,1 S,0,94420,95011,0.52 P,0,94420,95011,A
Sprite,Foreground,Centre,"sb\bg\bg3-1.png",320,240 F,0,95011,95085,1 S,0,95011,95085,0.52 P,0,95011,95085,A
Sprite,Foreground,Centre,"bg3.png",320,240 F,0,95085,95159,1 S,0,95085,95159,0.52 P,0,95085,95159,A
Sprite,Foreground,Centre,"sb\bg\bg3-1.png",320,240 F,0,95159,95307,1 S,0,95159,95307,0.52 P,0,95159,95307,A
Sprite,Foreground,Centre,"sb\bg\bg3-1.png",320,240 F,0,95307,95602,1,0.3 S,0,95307,95602,0.52 P,0,95307,95602,A
Sprite,Foreground,Centre,"sb\bg\bg3-1.png",320,240 F,0,95602,95898,0.3,1 S,0,95602,95898,0.52 P,0,95602,95898,A
Sprite,Foreground,Centre,"bg3.png",320,240 F,0,95602,95898,0.3,1 S,0,95602,95898,0.52 P,0,95602,95898,A
Sprite,Foreground,Centre,"bg3.png",320,240 F,0,95602,95898,0.3,1 S,0,95602,95898,0.52 P,0,95602,95898,A
Sprite,Foreground,Centre,"bg3.png",320,240 F,0,95898,96784,1,0 S,0,95898,96784,0.52 P,0,95898,96784,A
Sprite,Foreground,Centre,"bg3.png",320,240 F,0,95898,113484,1 S,0,95898,113484,0.52
Sprite,Foreground,Centre,"bg3.png",320,240 L,95898,1 F,0,0,295,0.7,0 S,1,0,295,0.52,0.5 P,0,0,295,A F,0,295,,0 L,97375,1 F,0,0,295,0.7,0 S,1,0,295,0.52,0.5 P,0,0,295,A F,0,295,,0 L,98853,1 F,0,0,148,0.7,0 S,1,0,148,0.52,0.51 P,0,0,148,A F,0,148,,0 L,100036,1 F,0,0,148,0.7,0 S,1,0,148,0.52,0.51 P,0,0,148,A F,0,148,,0 L,101366,1 F,0,0,148,0.7,0 S,1,0,148,0.52,0.51 P,0,0,148,A F,0,148,,0 L,102991,1 F,0,0,295,0.7,0 S,1,0,295,0.52,0.5 P,0,0,295,A F,0,295,,0 L,107129,2 F,0,0,295,0.7,0 S,1,0,295,0.52,0.5 P,0,0,295,A F,0,295,,0 L,112893,2 F,0,0,295,0.7,0 S,1,0,295,0.52,0.5 P,0,0,295,A F,0,295,,0
Sprite,Foreground,Centre,"sb\bg\bg3-1.png",320,240 L,107720,2 F,0,0,295,0.7,0 S,1,0,295,0.52,0.5 P,0,0,295,A F,0,295,,0 L,103287,1 F,0,0,295,0.7,0 S,1,0,295,0.52,0.5 P,0,0,295,A F,0,295,,0 L,101513,1 F,0,0,295,0.7,0 S,1,0,295,0.52,0.5 P,0,0,295,A F,0,295,,0 L,101809,1 F,0,0,295,0.7,0 S,1,0,295,0.52,0.5 P,0,0,295,A F,0,295,,0 L,100183,1 F,0,0,148,0.7,0 S,1,0,148,0.52,0.51 P,0,0,148,A F,0,148,,0 L,112745,1 F,0,0,148,0.7,0 S,1,0,148,0.52,0.51 P,0,0,148,A F,0,148,,0 L,99001,1 F,0,0,148,0.7,0 S,1,0,148,0.52,0.51 P,0,0,148,A F,0,148,,0 L,96193,1 F,0,0,295,0.7,0 S,1,0,295,0.52,0.5 P,0,0,295,A F,0,295,,0 L,97080,1 F,0,0,295,0.7,0 S,1,0,295,0.52,0.5 P,0,0,295,A F,0,295,,0 L,97671,1 F,0,0,148,0.7,0 S,1,0,148,0.52,0.51 P,0,0,148,A F,0,148,,0 L,98558,1 F,0,0,295,0.7,0 S,1,0,295,0.52,0.5 P,0,0,295,A F,0,295,,0 L,99740,1 F,0,0,295,0.7,0 S,1,0,295,0.52,0.5 P,0,0,295,A F,0,295,,0 L,101218,1 F,0,0,148,0.7,0 S,1,0,148,0.52,0.51 P,0,0,148,A F,0,148,,0 L,102696,1 F,0,0,295,0.7,0 S,1,0,295,0.52,0.5 P,0,0,295,A F,0,295,,0 L,105060,1 F,0,0,295,0.7,0 S,1,0,295,0.52,0.5 P,0,0,295,A F,0,295,,0 L,106538,2 F,0,0,295,0.7,0 S,1,0,295,0.52,0.5 P,0,0,295,A F,0,295,,0 L,110085,1 F,0,0,443,0.7,0 S,1,0,443,0.52,0.5 P,0,0,443,A F,0,443,,0 L,110824,1 F,0,0,443,0.7,0 S,1,0,443,0.52,0.5 P,0,0,443,A F,0,443,,0 L,111710,1 F,0,0,296,0.7,0 S,1,0,296,0.52,0.5 P,0,0,296,A F,0,296,,0 L,112449,1 F,0,0,296,0.7,0 S,1,0,296,0.52,0.5 P,0,0,296,A F,0,296,,0
Sprite,Foreground,Centre,"sb\bg\bg3-2.png",320,240 L,112006,1 F,0,0,443,0.7,0 S,1,0,443,0.52,0.5 P,0,0,443,A F,0,443,,0 L,111267,1 F,0,0,443,0.7,0 S,1,0,443,0.52,0.5 P,0,0,443,A F,0,443,,0 L,110528,1 F,0,0,296,0.7,0 S,1,0,296,0.52,0.5 P,0,0,296,A F,0,296,,0 L,108311,2 F,0,0,295,0.7,0 S,1,0,295,0.52,0.5 P,0,0,295,A F,0,295,,0 L,103582,3 F,0,0,148,0.7,0 S,1,0,148,0.52,0.51 P,0,0,148,A F,0,148,,0 L,102105,1 F,0,0,295,0.7,0 S,1,0,295,0.52,0.5 P,0,0,295,A L,100331,1 F,0,0,295,0.7,0 S,1,0,295,0.52,0.5 P,0,0,295,A F,0,295,,0 L,99149,1 F,0,0,148,0.7,0 S,1,0,148,0.52,0.51 P,0,0,148,A F,0,148,,0 L,97819,1 F,0,0,148,0.7,0 S,1,0,148,0.52,0.51 P,0,0,148,A F,0,148,,0 L,96489,1 F,0,0,148,0.7,0 S,1,0,148,0.52,0.51 P,0,0,148,A F,0,148,,0 L,96784,1 F,0,0,295,0.7,0 S,1,0,295,0.52,0.5 P,0,0,295,A F,0,295,,0 L,98262,1 F,0,0,295,0.7,0 S,1,0,295,0.52,0.5 P,0,0,295,A F,0,295,,0 L,99666,1 F,0,0,148,0.7,0 S,1,0,148,0.52,0.51 P,0,0,148,A F,0,148,,0 L,100922,1 F,0,0,295,0.7,0 S,1,0,295,0.52,0.5 P,0,0,295,A F,0,295,,0 L,102548,1 F,0,0,148,0.7,0 S,1,0,148,0.52,0.51 P,0,0,148,A F,0,148,,0 L,104321,5 F,0,0,148,0.7,0 S,1,0,148,0.52,0.51 P,0,0,148,A F,0,148,,0 L,105947,2 F,0,0,295,0.7,0 S,1,0,295,0.52,0.5 P,0,0,295,A F,0,295,,0 L,109494,2 F,0,0,295,0.7,0 S,1,0,295,0.52,0.5 P,0,0,295,A F,0,295,,0
Sprite,Foreground,Centre,"sb\bg\bg3-3.png",320,240 L,108903,2 F,0,0,295,0.7,0 S,1,0,295,0.52,0.5 P,0,0,295,A F,0,295,,0 L,104026,1 F,0,0,295,0.7,0 S,1,0,295,0.52,0.5 P,0,0,295,A F,0,295,,0 L,102400,1 F,0,0,148,0.7,0 S,1,0,148,0.52,0.51 P,0,0,148,A F,0,148,,0 L,100627,1 F,0,0,295,0.7,0 S,1,0,295,0.52,0.5 P,0,0,295,A F,0,295,,0 L,99297,1 F,0,0,295,0.7,0 S,1,0,295,0.52,0.5 P,0,0,295,A F,0,295,,0 L,96637,1 F,0,0,148,0.7,0 S,1,0,148,0.52,0.51 P,0,0,148,A F,0,148,,0 L,97967,1 F,0,0,295,0.7,0 S,1,0,295,0.52,0.5 P,0,0,295,A F,0,295,,0 L,105356,2 F,0,0,295,0.7,0 S,1,0,295,0.52,0.5 P,0,0,295,A F,0,295,,0
//Storyboard Sound Samples

[TimingPoints]
1312,297.029702970297,4,2,1,50,1,0
2500,300,4,2,1,60,1,0
3700,292.682926829268,4,2,1,70,1,0
4870,294.117647058824,4,2,1,80,1,0
6046,292.682926829268,4,2,1,60,1,0
7216,295.566502463054,4,2,1,50,1,0
8398,292.682926829268,4,2,1,40,1,0
9755,295.566502463054,3,2,1,40,1,0
10775,295.566502463054,4,2,1,35,1,0
10775,-100,4,2,1,35,0,0
20233,-100,4,2,1,45,0,0
58065,-100,4,2,1,70,0,0
88804,-100,4,2,1,60,0,0
95898,-100,4,2,1,70,0,0

[Colours]
Combo1 : 255,169,128
Combo2 : 0,128,192
Combo3 : 0,64,128
Combo4 : 145,200,200
Combo5 : 255,219,183
Combo6 : 192,192,192
Combo7 : 0,128,128
SliderTrackOverride : 0,0,0

[HitObjects]
256,192,1312,12,0,9755,0:0:0:0:
25,134,10775,6,0,P|82:114|133:134,1,110,8|8,0:0|0:0,0:0:0:0:
197,181,11366,2,0,P|248:196|299:176,1,110,8|0,0:3|0:0,0:0:0:0:
331,146,11809,1,0,0:0:0:0:
331,146,11957,2,0,L|340:34,1,110,8|0,0:0|0:0,0:0:0:0:
427,36,12548,2,0,L|435:145,1,110,8|0,0:3|0:0,0:0:0:0:
384,217,13139,6,0,P|395:256|380:329,1,110,8|8,0:0|0:0,0:0:0:0:
297,345,13730,2,0,L|181:350,1,110,8|0,0:3|0:0,0:0:0:0:
145,335,14174,1,0,0:0:0:0:
145,335,14321,2,0,P|162:265|150:223,1,110,0|0,0:0|0:0,0:0:0:0:
101,158,14912,2,0,P|141:137|209:166,1,110,8|0,0:3|0:0,0:0:0:0:
239,234,15504,6,0,L|369:229,1,110,8|8,0:0|0:0,0:0:0:0:
419,177,16095,2,0,P|425:114|397:66,1,110,8|0,0:3|0:0,0:0:0:0:
374,41,16538,1,0,0:0:0:0:
374,41,16686,2,0,L|262:44,1,110,8|0,0:0|0:0,0:0:0:0:
199,104,17277,2,0,P|244:132|307:119,1,110,8|0,0:3|0:0,0:0:0:0:
264,43,17868,6,0,P|219:15|156:28,1,110,8|8,0:0|0:0,0:0:0:0:
111,93,18459,2,0,L|104:206,1,110,8|0,0:3|0:0,0:0:0:0:
100,246,18903,1,0,0:0:0:0:
100,246,19050,2,0,L|111:321,1,55,0|0,0:0|0:0,0:0:0:0:
116,343,19346,2,0,P|166:351|236:340,1,110,0|10,0:0|0:0,0:0:0:0:
305,308,19937,1,10,0:0:0:0:
383,347,20233,6,0,P|394:288|350:233,1,110,14|8,0:0|0:3,0:0:0:0:
301,192,20824,2,0,L|308:22,2,165,10|8|8,0:0|0:0|0:3,0:0:0:0:
224,147,22006,2,0,P|271:106|329:110,1,110,10|8,0:0|0:3,0:0:0:0:
383,161,22597,6,0,L|511:155,2,110,4|8|10,0:3|0:0|0:0,0:0:0:0:
301,192,23484,1,8,0:3:0:0:
224,147,23779,2,0,L|35:138,2,165,10|0|8,0:0|0:0|0:3,0:0:0:0:
219,235,24962,6,0,L|85:228,1,110,0|8,0:0|0:3,0:0:0:0:
91,269,25405,1,8,0:0:0:0:
74,309,25553,2,0,L|-6:302,2,55,10|10|8,0:0|0:0|0:3,0:0:0:0:
151,351,26144,2,0,L|285:344,1,110,10|8,0:0|0:3,0:0:0:0:
332,291,26735,2,0,P|348:233|321:176,1,110,10|8,0:0|0:3,0:0:0:0:
267,126,27326,6,0,P|318:96|412:153,2,165,10|8|8,0:0|0:0|0:3,0:0:0:0:
197,179,28508,2,0,L|85:177,1,110,10|8,0:0|0:3,0:0:0:0:
77,89,29100,2,0,L|186:90,1,110,2|8,0:0|0:0,0:0:0:0:
227,109,29543,1,8,0:0:0:0:
267,126,29691,6,0,P|286:173|268:232,1,110,10|8,0:0|0:3,0:0:0:0:
346,273,30282,2,0,L|176:264,1,165,10|8,0:0|0:0,0:0:0:0:
97,161,31169,1,0,0:0:0:0:
161,101,31464,2,0,L|155:45,2,55,10|10|8,0:0|0:0|0:3,0:0:0:0:
223,162,32055,6,0,L|343:156,2,110,4|8|10,0:3|0:3|0:0,0:0:0:0:
161,101,32942,1,8,0:3:0:0:
221,37,33238,2,0,L|402:59,1,165,10|8,0:0|0:0,0:0:0:0:
281,138,34124,1,8,0:3:0:0:
228,66,34420,6,0,P|166:64|126:88,1,110,10|8,0:0|0:3,0:0:0:0:
95,119,34863,1,8,0:0:0:0:
63,149,35011,2,0,L|-1:145,2,55,10|10|8,0:0|0:0|0:3,0:0:0:0:
133,202,35602,2,0,P|137:254|130:325,1,110,10|8,0:0|0:3,0:0:0:0:
220,312,36193,2,0,P|215:257|219:202,1,110,10|8,0:0|0:3,0:0:0:0:
278,137,36784,6,0,L|464:128,2,165,10|8|8,0:0|0:0|0:3,0:0:0:0:
316,216,37967,2,0,L|440:210,1,110,0|0,0:3|0:0,0:0:0:0:
487,274,38558,1,0,0:0:0:0:
432,343,38853,1,0,0:0:0:0:
342,346,39149,6,0,B|305:352|305:352|288:347|288:347|270:352|270:352|226:346,1,110,14|0,0:3|0:0,0:0:0:0:
190,348,39592,1,0,0:0:0:0:
178,260,39888,1,0,0:0:0:0:
167,172,40183,2,0,B|242:154|327:165|327:165|341:159|341:159|354:169|354:169|391:167,1,220,8|0,0:3|0:0,0:0:0:0:
401,179,40922,2,0,L|404:62,1,110,8|0,0:3|0:0,0:0:0:0:
489,48,41513,6,0,B|490:85|490:85|485:95|485:95|489:117|489:117|484:127|484:127|485:160,1,110,8|0,0:0|0:0,0:0:0:0:
465,195,41957,1,0,0:0:0:0:
507,271,42252,1,0,0:0:0:0:
465,348,42548,2,0,P|381:354|285:338,1,165,8|8,0:3|0:0,0:0:0:0:
223,302,43287,2,0,B|219:274|219:274|214:263|214:263|221:254|221:254|228:192|228:192|236:184|236:184|230:170|230:170|230:123,1,165,8|0,0:3|0:0,0:0:0:0:
216,107,43878,6,0,B|272:106|272:106|279:102|279:102|289:106|289:106|299:101|299:101|309:105|309:105|343:100,1,110,8|0,0:0|0:0,0:0:0:0:
366,102,44321,1,0,0:0:0:0:
439,53,44617,1,0,0:0:0:0:
510,104,44912,2,0,B|509:122|509:122|503:135|503:135|508:146|508:146|503:286,1,165,8|8,0:3|0:0,0:0:0:0:
510,354,45651,2,0,L|396:357,1,110,8|0,0:3|0:0,0:0:0:0:
312,349,46242,6,0,P|280:286|322:206,1,165,8|0,0:0|0:0,0:0:0:0:
393,159,46981,1,0,0:0:0:0:
467,111,47277,2,0,P|397:67|317:112,1,165,8|8,0:3|0:0,0:0:0:0:
249,138,48016,2,0,B|224:136|224:136|211:129|211:129|202:136|202:136|140:139|140:139|130:145|130:145|120:140|120:140|92:134,1,165,8|0,0:3|0:0,0:0:0:0:
93,172,48607,6,0,B|85:196|85:196|91:203|91:203|86:210|86:210|82:220|82:220|85:226|85:226|82:247|106:284,1,110,8|0,0:0|0:0,0:0:0:0:
96,316,49050,1,0,0:0:0:0:
179,287,49346,1,0,0:0:0:0:
241,348,49641,2,0,B|274:307|278:270|247:228|247:228|236:221|236:221|241:215|241:215|228:195,1,165,8|8,0:3|0:0,0:0:0:0:
210,119,50380,2,0,L|329:118,1,110,8|0,0:3|0:0,0:0:0:0:
390,65,50972,6,0,B|394:76|394:76|401:80|401:80|399:86|399:86|417:129|386:174,1,110,8|0,0:0|0:0,0:0:0:0:
384,209,51415,1,0,0:0:0:0:
422,287,51710,1,0,0:0:0:0:
386,367,52006,2,0,L|219:361,1,165,8|8,0:3|0:0,0:0:0:0:
133,353,52745,2,0,B|129:325|129:325|124:314|124:314|131:305|131:305|138:243|138:243|146:235|146:235|140:221|140:221|140:174,1,165,8|0,0:3|0:0,0:0:0:0:
123,155,53336,6,0,B|161:181|199:146|199:146|201:132|201:132|214:127|214:127|227:113,1,110,8|0,0:0|0:0,0:0:0:0:
253,112,53779,1,0,0:0:0:0:
332,150,54075,1,0,0:0:0:0:
412,113,54371,2,0,B|420:128|420:128|423:140|423:140|431:145|431:145|470:209|407:261,1,165,8|8,0:3|0:0,0:0:0:0:
425,346,55109,2,0,L|315:346,1,110,8|0,0:3|0:0,0:0:0:0:
289,261,55701,2,0,L|460:259,1,165,8|0,0:0|0:0,0:0:0:0:
494,180,56440,1,0,0:0:0:0:
447,105,56735,1,0,0:0:0:0:
438,255,58065,6,0,L|430:130,1,110,14|0,0:0|0:0,0:0:0:0:
425,57,58656,2,0,P|384:43|311:71,1,110,8|10,0:3|0:0,0:0:0:0:
250,112,59247,1,0,0:0:0:0:
173,155,59543,2,0,P|122:173|69:159,2,110,10|8|8,0:0|0:3|0:0,0:0:0:0:
247,202,60430,6,0,L|252:328,1,110,14|0,0:0|0:0,0:0:0:0:
339,312,61021,2,0,L|343:202,1,110,8|10,0:3|0:0,0:0:0:0:
347,158,61464,1,8,0:3:0:0:
350,114,61612,2,0,L|417:125,2,55,8|8|8,0:0|0:0|0:0,0:0:0:0:
281,58,62203,2,0,P|213:50|129:106,1,165,8|8,0:3|0:3,0:0:0:0:
106,133,62794,6,0,L|108:250,1,110,10|0,0:0|0:0,0:0:0:0:
67,321,63385,2,0,P|111:336|170:303,1,110,8|10,0:3|0:0,0:0:0:0:
196,226,63976,1,0,0:0:0:0:
277,191,64272,2,0,P|243:148|172:141,2,110,10|8|8,0:0|0:3|0:0,0:0:0:0:
266,278,65159,6,0,L|436:258,2,165,14|0|8,0:0|0:0|0:0,0:0:0:0:
196,226,66341,2,0,L|105:223,2,82.5,10|0|0,0:0|0:0|0:0,0:0:0:0:
233,202,66932,1,8,0:3:0:0:
222,114,67228,1,8,0:0:0:0:
208,27,67523,6,0,L|88:35,2,110,14|0|8,0:0|0:0|0:3,0:0:0:0:
222,114,68410,2,0,L|300:131,1,55,10|0,0:0|0:0,0:0:0:0:
317,112,68706,2,0,L|337:-3,2,110,0|10|8,0:0|0:0|0:3,0:0:0:0:
306,194,69592,1,10,0:0:0:0:
361,262,69888,6,0,P|308:285|249:258,1,110,14|8,0:0|0:3,0:0:0:0:
222,247,70331,2,0,L|92:249,1,110,8|8,0:0|0:3,0:0:0:0:
68,251,70774,1,8,0:0:0:0:
65,162,71070,2,0,L|174:160,1,110,8|8,0:0|0:0,0:0:0:0:
218,158,71513,2,0,P|217:98|228:39,1,110,8|0,0:0|0:0,0:0:0:0:
246,9,71957,1,0,0:0:0:0:
329,36,72252,6,0,L|338:145,1,110,14|0,0:0|0:0,0:0:0:0:
349,232,72843,1,8,0:3:0:0:
307,309,73139,2,0,P|368:319|414:290,2,110,10|0|10,0:0|0:0|0:0,0:0:0:0:
260,234,74026,2,0,L|135:238,1,110,8|8,0:3|0:0,0:0:0:0:
86,298,74617,6,0,P|66:210|127:153,1,165,14|0,0:0|0:0,0:0:0:0:
186,113,75356,2,0,L|304:110,1,110,0|0,0:0|0:0,0:0:0:0:
372,153,75947,1,0,0:0:0:0:
449,193,76242,2,0,P|393:239|302:206,1,165,0|0,0:0|0:0,0:0:0:0:
228,183,76981,6,0,L|220:315,1,110,4|8,0:3|0:3,0:0:0:0:
132,293,77573,2,0,L|125:183,1,110,10|8,0:0|0:3,0:0:0:0:
177,111,78164,2,0,P|118:92|62:125,2,110,10|8|10,0:0|0:3|0:0,0:0:0:0:
228,183,79050,1,8,0:3:0:0:
304,226,79346,6,0,P|377:238|415:220,1,110,14|8,0:0|0:3,0:0:0:0:
408,136,79937,2,0,P|355:121|303:137,1,110,10|8,0:0|0:3,0:0:0:0:
228,183,80528,2,0,L|109:182,1,110,10|8,0:0|0:3,0:0:0:0:
73,183,80972,1,0,0:0:0:0:
29,183,81119,2,0,P|14:254|34:298,1,110,10|8,0:0|0:3,0:0:0:0:
96,340,81710,6,0,L|323:331,1,220,14|10,0:0|0:0,0:0:0:0:
352,306,82449,1,0,0:0:0:0:
387,280,82597,1,8,0:3:0:0:
339,205,82893,2,0,P|401:191|456:227,1,110,10|8,0:0|0:3,0:0:0:0:
511,157,83484,2,0,L|492:29,1,110,10|8,0:0|0:3,0:0:0:0:
411,20,84075,6,0,P|330:33|244:31,1,165,14|0,0:0|0:0,0:0:0:0:
159,22,84814,2,0,P|103:15|49:27,1,110,10|8,0:0|0:0,0:0:0:0:
54,114,85405,2,0,L|179:109,1,110,0|8,0:0|0:0,0:0:0:0:
251,120,85996,2,0,L|248:178,1,55,10|8,0:0|0:3,0:0:0:0:
172,220,86440,5,6,0:0:0:0:
248,262,86735,1,2,0:0:0:0:
327,223,87031,2,0,L|450:223,1,110,2|2,0:0|0:0,0:0:0:0:
436,134,87622,2,0,L|326:134,1,110,2|2,0:0|0:0,0:0:0:0:
248,174,88213,2,0,P|183:178|139:162,1,110,2|2,0:0|0:0,0:0:0:0:
98,86,88804,5,2,0:0:0:0:
48,159,89100,2,0,L|54:283,1,110,2|2,0:0|0:0,0:0:0:0:
119,326,89691,1,2,0:0:0:0:
188,272,89986,2,0,P|250:266|301:284,1,110,2|2,0:0|0:0,0:0:0:0:
360,338,90577,2,0,P|412:353|466:346,1,110,2|2,0:0|0:0,0:0:0:0:
498,263,91169,5,0,0:0:0:0:
503,284,93533,6,0,L|489:155,1,110,8|8,0:0|0:0,0:0:0:0:
479,87,94124,2,0,P|440:75|369:83,1,110,0|8,0:0|0:0,0:0:0:0:
319,10,94715,2,0,P|284:82|320:153,1,165,0|8,0:0|0:0,0:0:0:0:
372,274,95602,1,0,0:0:0:0:
284,262,95898,6,0,P|220:259|171:272,1,110,14|8,0:0|0:3,0:0:0:0:
110,329,96489,2,0,P|86:272|110:214,1,110,10|8,0:0|0:3,0:0:0:0:
53,152,97080,2,0,P|143:184|230:168,1,165,0|8,0:0|0:0,0:0:0:0:
341,150,97967,1,8,0:3:0:0:
434,143,98262,6,0,P|422:197|426:252,1,110,14|8,0:0|0:3,0:0:0:0:
445,337,98853,2,0,L|335:326,1,110,10|8,0:0|0:3,0:0:0:0:
296,347,99297,2,0,L|283:168,1,165,8|8,0:0|0:3,0:0:0:0:
362,142,100036,1,10,0:0:0:0:
286,96,100331,1,8,0:3:0:0:
210,141,100627,6,0,P|121:166|53:115,1,165,14|8,0:0|0:0,0:0:0:0:
66,262,101513,1,8,0:3:0:0:
67,350,101809,2,0,L|193:349,1,110,0|8,0:0|0:3,0:0:0:0:
246,295,102400,2,0,L|372:294,1,110,10|8,0:0|0:3,0:0:0:0:
402,369,102991,6,0,L|415:205,1,165,14|0,0:0|0:0,0:0:0:0:
487,154,103730,1,10,0:0:0:0:
407,115,104026,2,0,P|318:86|247:126,1,165,8|8,0:0|0:3,0:0:0:0:
182,161,104765,2,0,P|165:104|189:53,1,110,10|8,0:0|0:3,0:0:0:0:
257,114,105356,6,0,L|264:-11,1,110,2|8,0:0|0:3,0:0:0:0:
344,37,105947,2,0,P|401:58|457:41,1,110,2|8,0:0|0:3,0:0:0:0:
443,134,106538,1,2,0:0:0:0:
440,222,106834,1,8,0:3:0:0:
435,309,107129,2,0,L|311:307,1,110,8|8,0:0|0:3,0:0:0:0:
257,250,107720,6,0,P|270:304|238:362,1,110,2|8,0:0|0:3,0:0:0:0:
179,298,108311,2,0,L|169:189,1,110,2|8,0:0|0:3,0:0:0:0:
88,150,108903,1,2,0:0:0:0:
158,98,109198,1,8,0:3:0:0:
238,134,109494,2,0,P|283:154|351:129,1,110,2|8,0:0|0:3,0:0:0:0:
389,211,110085,6,0,L|406:387,2,165,8|8|10,0:0|0:0|0:0,0:0:0:0:
344,208,111119,2,0,L|359:43,1,165,8|8,0:3|0:3,0:0:0:0:
270,45,111858,2,0,L|150:48,1,110
137,132,112449,6,0,L|302:126,1,165,10|10,0:0|0:0,0:0:0:0:
389,122,113188,1,10,0:0:0:0:
477,118,113484,1,10,0:0:0:0:
256,192,113632,12,4,114814,0:3:0:0:
