osu file format v14

[General]
AudioFilename: audio.mp3
AudioLeadIn: 0
PreviewTime: 38558
Countdown: 0
SampleSet: Soft
StackLeniency: 0.5
Mode: 0
LetterboxInBreaks: 0
EpilepsyWarning: 1
WidescreenStoryboard: 1

[Editor]
Bookmarks: 1287,9730,10764,20222,39138,58054,65148,67512,72241,74310,87020,105345
DistanceSpacing: 0.2
BeatDivisor: 4
GridSize: 32
TimelineZoom: 4.299998

[Metadata]
Title:Feelings of fake (feat. Tsuyuri Karin)
TitleUnicode:Feelings of fake (feat. つゆり花鈴)
Artist:P4koo
ArtistUnicode:P4koo
Creator:Heilia
Version:Dailycare's Extreme
Source:
Tags:omc Moa coin c_o_i_n Affirmation AF neoskylove einess skymin skydroid Dailycare Morinaga Cellina kuro_usagi [_kuro_usagi_]
BeatmapID:1937417
BeatmapSetID:921855

[Difficulty]
HPDrainRate:5.5
CircleSize:4
OverallDifficulty:9
ApproachRate:9.6
SliderMultiplier:1.86
SliderTickRate:1

[Events]
//Background and Video events
0,0,"bg1.jpg",0,0
//Break Periods
2,74817,76379
2,91369,93024
//Storyboard Layer 0 (Background)
//Storyboard Layer 1 (Fail)
//Storyboard Layer 2 (Pass)
//Storyboard Layer 3 (Foreground)
Sprite,Foreground,Centre,"bg1.jpg",320,240 F,0,113484,114814,1 S,0,113484,114814,0.46
Sprite,Foreground,Centre,"sb\bg\bg1-1.jpg",320,240 F,0,113484,114814,0,1 S,0,113484,114814,0.46
Sprite,Foreground,Centre,"sb\bg\bg1-2.jpg",320,240 F,0,114814,124272,1 S,0,114814,124272,0.46
Sprite,Foreground,Centre,"sb\bg\bg1-2.jpg",320,240 F,0,114814,115996,1,0 S,0,114814,115996,0.46 P,0,114814,115996,A
Sprite,Foreground,Centre,"sb\bg\bg1-3.jpg",320,240 F,0,124272,132400,1 S,0,124272,132400,0.46
Sprite,Foreground,Centre,"sb\bg\bg1-3.jpg",320,240 F,0,124272,125454,1,0 S,0,124272,125454,0.46 P,0,124274,125454,A
Sprite,Foreground,Centre,"sb\bg\bg1-3.jpg",320,240 F,0,132400,135504,1,0 S,0,132400,135504,0.46
Sprite,Foreground,Centre,"bg1.jpg",320,240 F,0,74617,75208,0,0.5 S,0,74617,75208,0.46 P,0,74617,75208,A
Sprite,Foreground,Centre,"bg1.jpg",320,240 F,0,75208,75799,0.5,0.25 S,0,75208,75799,0.46 P,0,75208,75799,A
Sprite,Foreground,Centre,"bg1.jpg",320,240 F,0,75799,76390,0.25,0.5 S,0,75799,76390,0.46 P,0,75799,76390,A
Sprite,Foreground,Centre,"bg1.jpg",320,240 F,0,76390,76686,0.5,0.25 S,0,76390,76686,0.46 P,0,76390,76686,A
Sprite,Foreground,Centre,"bg1.jpg",320,240 F,0,76686,76981,0.25,1 S,0,76686,76981,0.46 P,0,76686,76981,A
Sprite,Foreground,Centre,"bg1.jpg",320,240 F,0,76686,76981,0.25,1 S,0,76686,76981,0.46 P,0,76686,76981,A
Sprite,Foreground,Centre,"bg1.jpg",320,240 F,0,76981,91169,1 S,0,76981,91169,0.46 P,0,76981,91169,A
Sprite,Foreground,Centre,"bg1.jpg",320,240 F,0,76981,77573,1,0.5 S,0,76981,77573,0.46 P,0,76981,77573,A
Sprite,Foreground,Centre,"bg1.jpg",320,240 F,0,77573,86440,0.5 S,0,77573,86440,0.46 P,0,77573,86440,A
Sprite,Foreground,Centre,"bg1.jpg",320,240 F,0,86440,87031,0.5,0.2 S,0,86440,87031,0.46 P,0,86440,87031,A
Sprite,Foreground,Centre,"bg1.jpg",320,240 F,0,87031,,0.2,0.5 S,0,87031,,0.46 P,0,87031,,A
Sprite,Foreground,Centre,"bg1.jpg",320,240 F,0,87031,87622,0.5,0.2 S,0,87031,87622,0.46 P,0,87031,87622,A
Sprite,Foreground,Centre,"bg1.jpg",320,240 F,0,87622,88213,0.2,0.5 S,0,87622,88213,0.46 P,0,87622,88213,A
Sprite,Foreground,Centre,"bg1.jpg",320,240 F,0,88213,88804,0.5,0.2 S,0,88213,88804,0.46 P,0,88213,88804,A
Sprite,Foreground,Centre,"bg1.jpg",320,240 F,0,88804,89395,0.2,0.5 S,0,88804,89395,0.46 P,0,88804,89395,A
Sprite,Foreground,Centre,"bg1.jpg",320,240 F,0,89395,89986,0.5,0.2 S,0,89395,89986,0.46 P,0,89395,89986,A
Sprite,Foreground,Centre,"bg1.jpg",320,240 F,0,89986,90577,0.2,0.5 S,0,89986,90577,0.46 P,0,89986,90577,A
Sprite,Foreground,Centre,"bg1.jpg",320,240 F,0,90577,91169,0.5,0.2 S,0,90577,91169,0.46 P,0,90577,91169,A
Sprite,Foreground,Centre,"bg1.jpg",320,240 F,0,91169,91464,1,0 S,0,91169,91464,0.46 P,0,91169,91464,A
Sprite,Foreground,Centre,"bg1.jpg",320,240 L,76981,1 F,0,0,296,0.7,0 S,1,0,296,0.46,0.48 P,0,0,296,A F,0,296,,0 L,77277,1 F,0,0,296,0.7,0 S,1,0,296,0.46,0.44 P,0,0,296,A F,0,296,,0 L,77573,2 F,0,0,147,0.7,0 S,1,0,147,0.46,0.45 P,0,0,147,A F,0,147,,0 L,77868,1 F,0,0,296,0.7,0 S,1,0,296,0.46,0.48 P,0,0,296,A F,0,296,,0
Sprite,Foreground,Centre,"bg1.jpg",320,240 L,78164,1 F,0,0,296,0.7,0 S,1,0,296,0.46,0.48 P,0,0,296,A F,0,296,,0 L,78459,1 F,0,0,296,0.7,0 S,1,0,296,0.46,0.44 P,0,0,296,A F,0,296,,0 L,78755,2 F,0,0,147,0.7,0 S,1,0,147,0.46,0.45 P,0,0,147,A F,0,147,,0 L,79050,1 F,0,0,296,0.7,0 S,1,0,296,0.46,0.48 P,0,0,296,A F,0,296,,0
Sprite,Foreground,Centre,"bg1.jpg",320,240 L,79346,1 F,0,0,296,0.7,0 S,1,0,296,0.46,0.48 P,0,0,296,A F,0,296,,0 L,79641,1 F,0,0,296,0.7,0 S,1,0,296,0.46,0.44 P,0,0,296,A F,0,296,,0 L,79937,2 F,0,0,147,0.7,0 S,1,0,147,0.46,0.45 P,0,0,147,A F,0,147,,0 L,80233,1 F,0,0,296,0.7,0 S,1,0,296,0.46,0.48 P,0,0,296,A F,0,296,,0
Sprite,Foreground,Centre,"bg1.jpg",320,240 L,80528,1 F,0,0,296,0.7,0 S,1,0,296,0.46,0.48 P,0,0,296,A F,0,296,,0 L,80824,1 F,0,0,296,0.7,0 S,1,0,296,0.46,0.44 P,0,0,296,A F,0,296,,0 L,81119,2 F,0,0,147,0.7,0 S,1,0,147,0.46,0.45 P,0,0,147,A F,0,147,,0 L,81415,1 F,0,0,296,0.7,0 S,1,0,296,0.46,0.48 P,0,0,296,A F,0,296,,0
Sprite,Foreground,Centre,"bg1.jpg",320,240 L,82893,1 F,0,0,296,0.7,0 S,1,0,296,0.46,0.48 P,0,0,296,A F,0,296,,0 L,83188,1 F,0,0,296,0.7,0 S,1,0,296,0.46,0.44 P,0,0,296,A F,0,296,,0 L,83484,2 F,0,0,147,0.7,0 S,1,0,147,0.46,0.45 P,0,0,147,A F,0,147,,0 L,83779,1 F,0,0,296,0.7,0 S,1,0,296,0.46,0.48 P,0,0,296,A F,0,296,,0
Sprite,Foreground,Centre,"bg1.jpg",320,240 L,84075,1 F,0,0,296,0.7,0 S,1,0,296,0.46,0.48 P,0,0,296,A F,0,296,,0 L,84371,1 F,0,0,296,0.7,0 S,1,0,296,0.46,0.44 P,0,0,296,A F,0,296,,0 L,84666,2 F,0,0,147,0.7,0 S,1,0,147,0.46,0.45 P,0,0,147,A F,0,147,,0 L,84962,1 F,0,0,296,0.7,0 S,1,0,296,0.46,0.48 P,0,0,296,A F,0,296,,0
Sprite,Foreground,Centre,"bg1.jpg",320,240 L,85257,1 F,0,0,296,0.7,0 S,1,0,296,0.46,0.48 P,0,0,296,A F,0,296,,0 L,85553,1 F,0,0,296,0.7,0 S,1,0,296,0.46,0.44 P,0,0,296,A F,0,296,,0 L,85848,2 F,0,0,147,0.7,0 S,1,0,147,0.46,0.45 P,0,0,147,A F,0,147,,0 L,86144,1 F,0,0,296,0.7,0 S,1,0,296,0.46,0.48 P,0,0,296,A F,0,296,,0
Sprite,Foreground,Centre,"bg1.jpg",320,240 L,81710,4 F,0,0,296,0.7,0 S,1,0,296,0.46,0.48 P,0,0,296,A
Sprite,Foreground,Centre,"sb\bg\bg1-3.jpg",320,240 F,0,57474,58065,0,1 S,0,57474,58065,0.46
Sprite,Foreground,Centre,"sb\bg\bg1-3.jpg",320,240 F,0,58065,74617,1 S,0,58065,74617,0.46
Sprite,Foreground,Centre,"sb\bg\bg1-3.jpg",320,240 F,0,74617,75208,1,0 S,0,74617,75208,0.46
Sprite,Foreground,Centre,"sb\bg\bg1-3.jpg",320,240 L,59839,1 F,0,0,295,1,0 S,1,0,295,0.46,0.44 F,0,295,,0 L,73582,1 F,0,0,148,1 S,1,0,148,0.46 F,0,148,,0
Sprite,Foreground,Centre,"sb\bg\bg1-2.jpg",320,240 L,73730,1 F,0,0,148,1 S,1,0,148,0.46 F,0,148,,0 L,62794,1 F,0,0,296,1,0 S,1,0,296,0.46,0.44 F,0,296,,0 L,70331,1 F,0,0,296,1,0 S,1,0,296,0.46,0.44 F,0,296,,0 L,68114,1 F,0,0,296,1,0 S,1,0,296,0.46,0.45 F,0,296,,0 L,58065,1 F,0,0,591,1,0 S,1,0,591,0.46,0.44 F,0,591,,0 L,65159,1 F,0,0,591,1,0 S,1,0,591,0.46,0.44 F,0,591,,0 L,61464,1 F,0,0,148,1,0 S,1,0,148,0.46,0.455 F,0,148,,0 L,68410,1 F,0,0,148,1,0 S,1,0,148,0.46,0.455 F,0,148,,0 L,61612,2 F,0,0,74,1,0 S,1,0,74,0.46 F,0,74,,0 L,62203,1 F,0,0,148,1,0 S,1,0,148,0.46,0.455 F,0,148,,0 L,63090,1 F,0,0,148,1 S,1,0,148,0.46 F,0,148,,0 L,64420,1 F,0,0,148,1 S,1,0,148,0.46 F,0,148,,0 L,64863,2 F,0,0,74,1,0 S,1,0,74,0.46 F,0,74,,0 L,66932,1 F,0,0,148,1,0 S,1,0,148,0.46,0.45 F,0,148,,0 L,71366,2 F,0,0,74,1,0 S,1,0,74,0.46 F,0,74,,0 L,71661,1 F,0,0,148,1 S,1,0,148,0.46 F,0,148,,0 L,73139,1 F,0,0,148,1 S,1,0,148,0.46 F,0,148,,0 L,74026,1 F,0,0,295,1,0 S,1,0,295,0.46,0.44 F,0,295,,0
Sprite,Foreground,Centre,"sb\bg\bg1-1.jpg",320,240 L,73878,1 F,0,0,148,1 S,1,0,148,0.46 F,0,148,,0 L,71809,1 F,0,0,148,1 S,1,0,148,0.46 F,0,148,,0 L,71513,2 F,0,0,74,1,0 S,1,0,74,0.46 F,0,74,,0 L,68558,1 F,0,0,148,1,0 S,1,0,148,0.46,0.455 F,0,148,,0 L,67080,2 F,0,0,74,1,0 S,1,0,74,0.46 F,0,74,,0 L,74321,2 F,0,0,74,1,0 S,1,0,74,0.46 F,0,74,,0 L,66341,1 F,0,0,197,1,0 S,1,0,197,0.46,0.45 F,0,197,,0 L,65750,1 F,0,0,591,1,0 S,1,0,591,0.46,0.44 F,0,591,,0 L,65011,2 F,0,0,74,1,0 S,1,0,74,0.46 F,0,74,,0 L,62351,1 F,0,0,148,1,0 S,1,0,148,0.46,0.455 F,0,148,,0 L,70183,1 F,0,0,148,1,0 S,1,0,148,0.46,0.455 F,0,148,,0 L,70627,1 F,0,0,148,1,0 S,1,0,148,0.46,0.455 F,0,148,,0 L,58656,1 F,0,0,296,1,0 S,1,0,296,0.46,0.45 F,0,296,,0 L,59543,1 F,0,0,296,1,0 S,1,0,296,0.46,0.455 F,0,296,,0 L,69297,1 F,0,0,296,1,0 S,1,0,296,0.46,0.455 F,0,296,,0 L,60134,2 F,0,0,74,1,0 S,1,0,74,0.46 F,0,74,,0 L,61316,1 F,0,0,148,1,0 S,1,0,148,0.46,0.455 F,0,148,,0 L,61908,1 F,0,0,295,1,0 S,1,0,295,0.46,0.44 F,0,295,,0 L,68706,1 F,0,0,295,1,0 S,1,0,295,0.46,0.44 F,0,295,,0 L,73287,1 F,0,0,295,1 S,1,0,295,0.46 F,0,295,,0 L,63238,1 F,0,0,295,1 S,1,0,295,0.46 F,0,295,,0 L,62646,1 F,0,0,148,1,0 S,1,0,148,0.46,0.455 F,0,148,,0 L,63681,1 F,0,0,148,1 S,1,0,148,0.46 F,0,148,,0 L,64124,1 F,0,0,148,1 S,1,0,148,0.46 F,0,148,,0 L,66735,1 F,0,0,197,1,0 S,1,0,197,0.46,0.45 F,0,197,,0 L,67375,3 F,0,0,74,1,0 S,1,0,74,0.46 F,0,74,,0 L,69001,1 F,0,0,296,1,0 S,1,0,296,0.46,0.455 F,0,296,,0 L,72252,1 F,0,0,296,1,0 S,1,0,296,0.46,0.455 F,0,296,,0 L,71218,2 F,0,0,74,1,0 S,1,0,74,0.46 F,0,74,,0 L,72105,1 F,0,0,148,1 S,1,0,148,0.46 F,0,148,,0 L,72991,1 F,0,0,148,1 S,1,0,148,0.46 F,0,148,,0
Sprite,Foreground,Centre,"bg1.jpg",320,240 L,74469,2 F,0,0,74,1,0 S,1,0,74,0.46 F,0,74,,0 L,72548,1 F,0,0,148,1 S,1,0,148,0.46 F,0,148,,0 L,71957,1 F,0,0,148,1 S,1,0,148,0.46 F,0,148,,0 L,70774,1 F,0,0,296,1,0 S,1,0,296,0.46,0.44 F,0,296,,0 L,69592,2 F,0,0,296,1,0 S,1,0,296,0.46,0.455 F,0,296,,0 L,67228,2 F,0,0,74,1,0 S,1,0,74,0.46 F,0,74,,0 L,71070,2 F,0,0,74,1,0 S,1,0,74,0.46 F,0,74,,0 L,66538,1 F,0,0,197,1,0 S,1,0,197,0.46,0.45 F,0,197,,0 L,64272,1 F,0,0,148,1 S,1,0,148,0.46 F,0,148,,0 L,63829,1 F,0,0,295,1 S,1,0,295,0.46 F,0,295,,0 L,64568,1 F,0,0,295,1,0 S,1,0,295,0.46,0.45 F,0,295,,0 L,63533,1 F,0,0,148,1 S,1,0,148,0.46 F,0,148,,0 L,62499,1 F,0,0,148,1,0 S,1,0,148,0.46,0.455 F,0,148,,0 L,58952,1 F,0,0,591,1,0 S,1,0,591,0.46,0.455 F,0,591,,0 L,67523,1 F,0,0,591,1,0 S,1,0,591,0.46,0.455 F,0,591,,0 L,60282,2 F,0,0,74,1,0 S,1,0,74,0.46 F,0,74,,0 L,60430,1 F,0,0,591,1,0 S,1,0,591,0.46,0.44 F,0,591,,0 L,61021,1 F,0,0,295,1,0 S,1,0,295,0.46,0.44 F,0,295,,0 L,61760,2 F,0,0,74,1,0 S,1,0,74,0.46 F,0,74,,0
Sprite,Foreground,Centre,"sb\bg\bg1-1.jpg",320,240 F,0,39149,39444,0,0.5 S,0,39149,39444,0.46
Sprite,Foreground,Centre,"sb\bg\bg1-1.jpg",320,240 F,0,39444,56883,0.5 S,0,39444,56883,0.46
Sprite,Foreground,Centre,"sb\bg\bg1-1.jpg",320,240 F,0,56883,57178,0.5,0.3 S,0,56883,57178,0.46
Sprite,Foreground,Centre,"sb\bg\bg1-1.jpg",320,240 F,0,57178,57474,0.3 S,0,57178,57474,0.46
Sprite,Foreground,Centre,"sb\bg\bg1-1.jpg",320,240 F,0,57474,58065,0.3,0 S,0,57474,58065,0.46
Sprite,Foreground,Centre,"sb\bg\bg1-1.jpg",320,240 F,0,1312,2500,0,0.25 S,0,1312,2500,0.46
Sprite,Foreground,Centre,"sb\bg\bg1-1.jpg",320,240 F,0,2500,9755,0.25 S,0,2500,9755,0.46
Sprite,Foreground,Centre,"sb\bg\bg1-1.jpg",320,240 F,0,9755,10775,0.25,1 S,0,9755,10775,0.46
Sprite,Foreground,Centre,"sb\bg\bg1-1.jpg",320,240 F,0,9755,10775,0.25,1 S,0,9755,10775,0.46 P,0,9755,10775,A
Sprite,Foreground,Centre,"sb\bg\bg1-2.jpg",320,240 F,0,10775,11366,1 S,0,10775,11366,0.46
Sprite,Foreground,Centre,"sb\bg\bg1-2.jpg",320,240 F,0,10775,11366,1,0 S,0,10775,11366,0.46 P,0,10775,11366,A
Sprite,Foreground,Centre,"sb\bg\bg1-2.jpg",320,240 F,0,11366,20233,1 S,0,11366,20233,0.46
Sprite,Foreground,Centre,"sb\bg\bg1-2.jpg",320,240 F,0,13139,13730,1,0 S,0,13139,13730,0.46 P,0,13139,13730,A
Sprite,Foreground,Centre,"sb\bg\bg1-2.jpg",320,240 F,0,15504,16095,1,0 S,0,15504,16095,0.46
Sprite,Foreground,Centre,"sb\bg\bg1-2.jpg",320,240 F,0,17868,18459,1,0 S,0,17868,18459,0.46 P,0,17868,18459,A
Sprite,Foreground,Centre,"sb\bg\bg1-2.jpg",320,240 F,0,15504,16095,1,0 S,0,15504,16095,0.46 P,0,15504,16095,A
Sprite,Foreground,Centre,"bg1.jpg",320,240 F,0,19050,20233,0,1 S,0,19050,20233,0.46
Sprite,Foreground,Centre,"bg1.jpg",320,240 F,0,19641,20233,0,1 S,0,19641,20233,0.46 P,0,19641,20233,A
Sprite,Foreground,Centre,"bg1.jpg",320,240 F,0,20233,20528,1,0 S,0,20233,20528,0.46 P,0,20233,20528,A
Sprite,Foreground,Centre,"bg1.jpg",320,240 F,0,20233,37967,1 S,0,20233,37967,0.46
Sprite,Foreground,Centre,"bg1.jpg",320,240 F,0,20233,21415,1,0 S,0,20233,21415,0.46 P,0,20233,21415,A
Sprite,Foreground,Centre,"bg1.jpg",320,240 F,0,37967,38262,1,0.75 S,0,37967,38262,0.46
Sprite,Foreground,Centre,"bg1.jpg",320,240 F,0,38262,38558,0.75,0.5 S,0,38262,38558,0.46
Sprite,Foreground,Centre,"bg1.jpg",320,240 F,0,38558,38853,0.5,0.25 S,0,38558,38853,0.46
Sprite,Foreground,Centre,"bg1.jpg",320,240 F,0,38853,39149,0.25,0 S,0,38853,39149,0.46
Sprite,Foreground,Centre,"bg1.jpg",320,240 L,29691,2 F,0,0,295,0.5,0 S,1,0,295,0.46,0.45 F,0,295,,0 L,30282,2 F,0,0,147,0.5,0 S,1,0,147,0.46,0.45 F,0,147,,0 L,30577,1 F,0,0,295,0.5,0 S,1,0,295,0.46,0.45 F,0,295,,0 L,22006,2 F,0,0,147,0.5,0 S,1,0,147,0.46,0.45 F,0,147,,0 L,20233,1 F,0,0,295,0.5,0 S,1,0,295,0.46,0.45 F,0,295,,0 L,23779,1 F,0,0,295,0.5,0 S,1,0,295,0.46,0.45 F,0,295,,0 L,26144,2 F,0,0,295,0.5,0 S,1,0,295,0.46,0.45 F,0,295,,0 L,26735,2 F,0,0,147,0.5,0 S,1,0,147,0.46,0.45 F,0,147,,0 L,27031,1 F,0,0,295,0.5,0 S,1,0,295,0.46,0.45 F,0,295,,0 L,36784,2 F,0,0,295,0.5,0 S,1,0,295,0.46,0.45 F,0,295,,0 L,37375,2 F,0,0,147,0.5,0 S,1,0,147,0.46,0.45 F,0,147,,0 L,37671,1 F,0,0,295,0.5,0 S,1,0,295,0.46,0.45 F,0,295,,0
Sprite,Foreground,Centre,"sb\bg\bg1-1.jpg",320,240 L,30873,2 F,0,0,295,0.5,0 S,1,0,295,0.46,0.45 F,0,295,,0 L,31464,2 F,0,0,147,0.5,0 S,1,0,147,0.46,0.45 F,0,147,,0 L,31760,1 F,0,0,295,0.5,0 S,1,0,295,0.46,0.45 F,0,295,,0 L,27326,2 F,0,0,295,0.5,0 S,1,0,295,0.46,0.45 F,0,295,,0 L,27917,2 F,0,0,147,0.5,0 S,1,0,147,0.46,0.45 F,0,147,,0 L,28213,1 F,0,0,295,0.5,0 S,1,0,295,0.46,0.45 F,0,295,,0 L,24075,1 F,0,0,295,0.5,0 S,1,0,295,0.46,0.45 F,0,295,,0 L,22302,1 F,0,0,295,0.5,0 S,1,0,295,0.46,0.45 F,0,295,,0 L,20528,1 F,0,0,295,0.5,0 S,1,0,295,0.46,0.45 F,0,295,,0 L,21415,1 F,0,0,295,0.5,0 S,1,0,295,0.46,0.45 F,0,295,,0 L,23484,1 F,0,0,295,0.5,0 S,1,0,295,0.46,0.45 F,0,295,,0 L,35602,2 F,0,0,295,0.5,0 S,1,0,295,0.46,0.45 F,0,295,,0 L,36193,2 F,0,0,147,0.5,0 S,1,0,147,0.46,0.45 F,0,147,,0 L,36489,1 F,0,0,295,0.5,0 S,1,0,295,0.46,0.45 F,0,295,,0
Sprite,Foreground,Centre,"sb\bg\bg1-2.jpg",320,240 L,32055,2 F,0,0,295,0.5,0 S,1,0,295,0.46,0.45 F,0,295,,0 L,32646,2 F,0,0,147,0.5,0 S,1,0,147,0.46,0.45 F,0,147,,0 L,32942,1 F,0,0,295,0.5,0 S,1,0,295,0.46,0.45 F,0,295,,0 L,28508,2 F,0,0,295,0.5,0 S,1,0,295,0.46,0.45 F,0,295,,0 L,29100,2 F,0,0,147,0.5,0 S,1,0,147,0.46,0.45 F,0,147,,0 L,29395,1 F,0,0,295,0.5,0 S,1,0,295,0.46,0.45 F,0,295,,0 L,22597,1 F,0,0,295,0.5,0 S,1,0,295,0.46,0.45 F,0,295,,0 L,21710,1 F,0,0,295,0.5,0 S,1,0,295,0.46,0.45 F,0,295,,0 L,20233,1 F,0,0,295,0.5,0 S,1,0,295,0.46,0.45 F,0,295,,0 L,21119,1 F,0,0,295,0.5,0 S,1,0,295,0.46,0.45 F,0,295,,0 L,23188,2 F,0,0,147,0.5,0 S,1,0,147,0.46,0.45 F,0,147,,0 L,24371,2 F,0,0,147,0.5,0 S,1,0,147,0.46,0.45 F,0,147,,0 L,24962,2 F,0,0,295,0.5,0 S,1,0,295,0.46,0.45 F,0,295,,0 L,25553,2 F,0,0,147,0.5,0 S,1,0,147,0.46,0.45 F,0,147,,0 L,25848,1 F,0,0,295,0.5,0 S,1,0,295,0.46,0.45 F,0,295,,0 L,34420,2 F,0,0,295,0.5,0 S,1,0,295,0.46,0.45 F,0,295,,0 L,35011,2 F,0,0,147,0.5,0 S,1,0,147,0.46,0.45 F,0,147,,0 L,35307,1 F,0,0,295,0.5,0 S,1,0,295,0.46,0.45 F,0,295,,0
Sprite,Foreground,Centre,"sb\bg\bg1-3.jpg",320,240 L,33238,2 F,0,0,295,0.5,0 S,1,0,295,0.46,0.45 F,0,295,,0 L,33829,2 F,0,0,147,0.5,0 S,1,0,147,0.46,0.45 F,0,147,,0 L,34124,1 F,0,0,295,0.5,0 S,1,0,295,0.46,0.45 F,0,295,,0 L,24666,1 F,0,0,295,0.5,0 S,1,0,295,0.46,0.45 F,0,295,,0 L,22893,1 F,0,0,295,0.5,0 S,1,0,295,0.46,0.45 F,0,295,,0 L,20824,2 F,0,0,147,0.5,0 S,1,0,147,0.46,0.45 F,0,147,,0
Sprite,Foreground,Centre,"bg1.jpg",320,240 F,0,94420,95011,0,1 S,0,94420,95011,0.46 P,0,94420,95011,A
Sprite,Foreground,Centre,"sb\bg\bg1-1.jpg",320,240 F,0,95011,95085,1 S,0,95011,95085,0.46 P,0,95011,95085,A
Sprite,Foreground,Centre,"bg1.jpg",320,240 F,0,95085,95159,1 S,0,95085,95159,0.46 P,0,95085,95159,A
Sprite,Foreground,Centre,"sb\bg\bg1-1.jpg",320,240 F,0,95159,95307,1 S,0,95159,95307,0.46 P,0,95159,95307,A
Sprite,Foreground,Centre,"sb\bg\bg1-1.jpg",320,240 F,0,95307,95602,1,0.3 S,0,95307,95602,0.46 P,0,95307,95602,A
Sprite,Foreground,Centre,"sb\bg\bg1-1.jpg",320,240 F,0,95602,95898,0.3,1 S,0,95602,95898,0.46 P,0,95602,95898,A
Sprite,Foreground,Centre,"bg1.jpg",320,240 F,0,95602,95898,0.3,1 S,0,95602,95898,0.46 P,0,95602,95898,A
Sprite,Foreground,Centre,"bg1.jpg",320,240 F,0,95602,95898,0.3,1 S,0,95602,95898,0.46 P,0,95602,95898,A
Sprite,Foreground,Centre,"bg1.jpg",320,240 F,0,95898,96784,1,0 S,0,95898,96784,0.46 P,0,95898,96784,A
Sprite,Foreground,Centre,"bg1.jpg",320,240 F,0,95898,113484,1 S,0,95898,113484,0.46
Sprite,Foreground,Centre,"bg1.jpg",320,240 L,95898,1 F,0,0,295,0.7,0 S,1,0,295,0.46,0.44 P,0,0,295,A F,0,295,,0 L,97375,1 F,0,0,295,0.7,0 S,1,0,295,0.46,0.44 P,0,0,295,A F,0,295,,0 L,98853,1 F,0,0,148,0.7,0 S,1,0,148,0.46,0.441 P,0,0,148,A F,0,148,,0 L,100036,1 F,0,0,148,0.7,0 S,1,0,148,0.46,0.441 P,0,0,148,A F,0,148,,0 L,101366,1 F,0,0,148,0.7,0 S,1,0,148,0.46,0.441 P,0,0,148,A F,0,148,,0 L,102991,1 F,0,0,295,0.7,0 S,1,0,295,0.46,0.44 P,0,0,295,A F,0,295,,0 L,107129,2 F,0,0,295,0.7,0 S,1,0,295,0.46,0.44 P,0,0,295,A F,0,295,,0 L,112893,2 F,0,0,295,0.7,0 S,1,0,295,0.46,0.44 P,0,0,295,A F,0,295,,0
Sprite,Foreground,Centre,"sb\bg\bg1-1.jpg",320,240 L,107720,2 F,0,0,295,0.7,0 S,1,0,295,0.46,0.44 P,0,0,295,A F,0,295,,0 L,103287,1 F,0,0,295,0.7,0 S,1,0,295,0.46,0.44 P,0,0,295,A F,0,295,,0 L,101513,1 F,0,0,295,0.7,0 S,1,0,295,0.46,0.44 P,0,0,295,A F,0,295,,0 L,101809,1 F,0,0,295,0.7,0 S,1,0,295,0.46,0.44 P,0,0,295,A F,0,295,,0 L,100183,1 F,0,0,148,0.7,0 S,1,0,148,0.46,0.441 P,0,0,148,A F,0,148,,0 L,112745,1 F,0,0,148,0.7,0 S,1,0,148,0.46,0.441 P,0,0,148,A F,0,148,,0 L,99001,1 F,0,0,148,0.7,0 S,1,0,148,0.46,0.441 P,0,0,148,A F,0,148,,0 L,96193,1 F,0,0,295,0.7,0 S,1,0,295,0.46,0.44 P,0,0,295,A F,0,295,,0 L,97080,1 F,0,0,295,0.7,0 S,1,0,295,0.46,0.44 P,0,0,295,A F,0,295,,0 L,97671,1 F,0,0,148,0.7,0 S,1,0,148,0.46,0.441 P,0,0,148,A F,0,148,,0 L,98558,1 F,0,0,295,0.7,0 S,1,0,295,0.46,0.44 P,0,0,295,A F,0,295,,0 L,99740,1 F,0,0,295,0.7,0 S,1,0,295,0.46,0.44 P,0,0,295,A F,0,295,,0 L,101218,1 F,0,0,148,0.7,0 S,1,0,148,0.46,0.441 P,0,0,148,A F,0,148,,0 L,102696,1 F,0,0,295,0.7,0 S,1,0,295,0.46,0.44 P,0,0,295,A F,0,295,,0 L,105060,1 F,0,0,295,0.7,0 S,1,0,295,0.46,0.44 P,0,0,295,A F,0,295,,0 L,106538,2 F,0,0,295,0.7,0 S,1,0,295,0.46,0.44 P,0,0,295,A F,0,295,,0 L,110085,1 F,0,0,443,0.7,0 S,1,0,443,0.46,0.44 P,0,0,443,A F,0,443,,0 L,110824,1 F,0,0,443,0.7,0 S,1,0,443,0.46,0.44 P,0,0,443,A F,0,443,,0 L,111710,1 F,0,0,296,0.7,0 S,1,0,296,0.46,0.44 P,0,0,296,A F,0,296,,0 L,112449,1 F,0,0,296,0.7,0 S,1,0,296,0.46,0.44 P,0,0,296,A F,0,296,,0
Sprite,Foreground,Centre,"sb\bg\bg1-2.jpg",320,240 L,112006,1 F,0,0,443,0.7,0 S,1,0,443,0.46,0.44 P,0,0,443,A F,0,443,,0 L,111267,1 F,0,0,443,0.7,0 S,1,0,443,0.46,0.44 P,0,0,443,A F,0,443,,0 L,110528,1 F,0,0,296,0.7,0 S,1,0,296,0.46,0.44 P,0,0,296,A F,0,296,,0 L,108311,2 F,0,0,295,0.7,0 S,1,0,295,0.46,0.44 P,0,0,295,A F,0,295,,0 L,103582,3 F,0,0,148,0.7,0 S,1,0,148,0.46,0.441 P,0,0,148,A F,0,148,,0 L,102105,1 F,0,0,295,0.7,0 S,1,0,295,0.46,0.44 P,0,0,295,A L,100331,1 F,0,0,295,0.7,0 S,1,0,295,0.46,0.44 P,0,0,295,A F,0,295,,0 L,99149,1 F,0,0,148,0.7,0 S,1,0,148,0.46,0.441 P,0,0,148,A F,0,148,,0 L,97819,1 F,0,0,148,0.7,0 S,1,0,148,0.46,0.441 P,0,0,148,A F,0,148,,0 L,96489,1 F,0,0,148,0.7,0 S,1,0,148,0.46,0.441 P,0,0,148,A F,0,148,,0 L,96784,1 F,0,0,295,0.7,0 S,1,0,295,0.46,0.44 P,0,0,295,A F,0,295,,0 L,98262,1 F,0,0,295,0.7,0 S,1,0,295,0.46,0.44 P,0,0,295,A F,0,295,,0 L,99666,1 F,0,0,148,0.7,0 S,1,0,148,0.46,0.441 P,0,0,148,A F,0,148,,0 L,100922,1 F,0,0,295,0.7,0 S,1,0,295,0.46,0.44 P,0,0,295,A F,0,295,,0 L,102548,1 F,0,0,148,0.7,0 S,1,0,148,0.46,0.441 P,0,0,148,A F,0,148,,0 L,104321,5 F,0,0,148,0.7,0 S,1,0,148,0.46,0.441 P,0,0,148,A F,0,148,,0 L,105947,2 F,0,0,295,0.7,0 S,1,0,295,0.46,0.44 P,0,0,295,A F,0,295,,0 L,109494,2 F,0,0,295,0.7,0 S,1,0,295,0.46,0.44 P,0,0,295,A F,0,295,,0
Sprite,Foreground,Centre,"sb\bg\bg1-3.jpg",320,240 L,108903,2 F,0,0,295,0.7,0 S,1,0,295,0.46,0.44 P,0,0,295,A F,0,295,,0 L,104026,1 F,0,0,295,0.7,0 S,1,0,295,0.46,0.44 P,0,0,295,A F,0,295,,0 L,102400,1 F,0,0,148,0.7,0 S,1,0,148,0.46,0.441 P,0,0,148,A F,0,148,,0 L,100627,1 F,0,0,295,0.7,0 S,1,0,295,0.46,0.44 P,0,0,295,A F,0,295,,0 L,99297,1 F,0,0,295,0.7,0 S,1,0,295,0.46,0.44 P,0,0,295,A F,0,295,,0 L,96637,1 F,0,0,148,0.7,0 S,1,0,148,0.46,0.441 P,0,0,148,A F,0,148,,0 L,97967,1 F,0,0,295,0.7,0 S,1,0,295,0.46,0.44 P,0,0,295,A F,0,295,,0 L,105356,2 F,0,0,295,0.7,0 S,1,0,295,0.46,0.44 P,0,0,295,A F,0,295,,0
//Storyboard Sound Samples

[TimingPoints]
1312,297.029702970297,4,2,11,70,1,0
2500,300,4,2,11,70,1,0
3700,292.682926829268,4,2,11,70,1,0
4870,294.117647058824,4,2,11,70,1,0
6046,292.682926829268,4,2,11,70,1,0
7216,295.566502463054,4,2,11,70,1,0
8398,292.682926829268,4,2,11,70,1,0
9755,295.566502463054,3,2,11,88,1,0
10775,295.566502463054,4,2,11,70,1,0
10775,-333.333333333333,4,2,11,70,0,0
11070,-333.333333333333,4,2,11,48,0,0
19050,-166.666666666667,4,2,99,48,0,0
19198,-125,4,2,99,53,0,0
19346,-100,4,2,99,58,0,0
19494,-83.3333333333333,4,2,99,63,0,0
19641,-83.3333333333333,4,2,99,68,0,0
19789,-83.3333333333333,4,2,99,73,0,0
19937,-83.3333333333333,4,2,99,78,0,0
20085,-83.3333333333333,4,2,99,83,0,0
20233,-83.3333333333333,4,2,11,80,0,1
20307,-83.3333333333333,4,2,11,80,0,0
20676,-100,4,2,11,80,0,0
24962,-83.3333333333333,4,2,11,80,0,0
25405,-100,4,2,11,80,0,0
27326,-83.3333333333333,4,2,11,80,0,0
27770,-100,4,2,11,80,0,0
29691,-83.3333333333333,4,2,11,80,0,0
30134,-100,4,2,11,80,0,0
34420,-83.3333333333333,4,2,11,80,0,0
34863,-100,4,2,11,80,0,0
37967,-153.846153846154,4,2,0,70,0,0
38484,-153.846153846154,4,2,0,20,0,0
38558,-153.846153846154,4,2,0,70,0,0
39149,-250,4,2,99,58,0,0
56883,-250,4,2,99,70,0,0
56957,-250,4,2,99,55,0,0
57178,-100,4,2,99,70,0,0
57474,-250,4,2,0,70,0,0
57917,-250,4,2,0,20,0,0
58065,-55.5555555555556,4,2,11,80,0,1
58139,-55.5555555555556,4,2,11,80,0,0
58287,-55.5555555555556,4,2,11,20,0,0
58361,-83.3333333333333,4,2,11,80,0,0
59395,-71.4285714285714,4,2,11,80,0,0
59839,-55.5555555555556,4,2,11,80,0,0
60430,-71.4285714285714,4,2,11,80,0,0
60725,-83.3333333333333,4,2,11,80,0,0
61021,-111.111111111111,4,2,11,80,0,0
61316,-166.666666666667,4,2,11,80,0,0
62794,-71.4285714285714,4,2,11,80,0,0
63016,-71.4285714285714,4,2,11,20,0,0
63090,-71.4285714285714,4,2,11,80,0,0
63238,-166.666666666667,4,2,11,80,0,0
63533,-71.4285714285714,4,2,11,80,0,0
63829,-166.666666666667,4,2,11,80,0,0
64124,-71.4285714285714,4,2,11,80,0,0
64420,-83.3333333333333,4,2,11,80,0,0
65159,-100,4,2,11,70,0,0
67523,-71.4285714285714,4,2,11,80,0,0
67745,-71.4285714285714,4,2,11,20,0,0
67819,-71.4285714285714,4,2,11,80,0,0
68041,-71.4285714285714,4,2,11,20,0,0
68114,-71.4285714285714,4,2,11,80,0,0
68336,-71.4285714285714,4,2,11,20,0,0
68410,-71.4285714285714,4,2,11,80,0,0
70331,-83.3333333333333,4,2,11,80,0,0
70627,-71.4285714285714,4,2,11,80,0,0
70774,-100,4,2,11,80,0,0
70996,-100,4,2,11,20,0,0
71070,-71.4285714285714,4,2,11,80,0,0
72696,-83.3333333333333,4,2,11,80,0,0
76981,-50,4,2,11,85,0,1
77055,-50,4,2,11,85,0,0
77277,-66.6666666666667,4,2,11,85,0,0
77573,-50,4,2,11,85,0,0
78090,-66.6666666666667,4,2,11,85,0,0
78607,-50,4,2,11,85,0,0
78903,-66.6666666666667,4,2,11,85,0,0
79050,-50,4,2,11,85,0,0
79272,-50,4,2,11,20,0,0
79346,-50,4,2,11,85,0,0
79937,-66.6666666666667,4,2,11,85,0,0
80602,-66.6666666666667,4,2,99,85,0,0
80824,-66.6666666666667,4,2,11,85,0,0
80898,-66.6666666666667,4,2,99,85,0,0
81267,-66.6666666666667,4,2,11,85,0,0
81341,-66.6666666666667,4,2,99,85,0,0
81415,-66.6666666666667,4,2,11,85,0,0
81489,-66.6666666666667,4,2,99,85,0,0
81710,-50,4,2,11,85,0,0
82006,-66.6666666666667,4,2,11,85,0,0
82597,-50,4,2,11,85,0,0
82745,-66.6666666666667,4,2,11,85,0,0
84075,-83.3333333333333,4,2,11,85,0,0
86440,-125,4,2,11,73,0,0
91169,-147.058823529412,4,2,11,48,0,0
93533,-147.058823529412,4,2,11,70,0,0
94715,-147.058823529412,4,2,0,65,0,0
95898,-71.4285714285714,4,2,11,85,0,1
95972,-71.4285714285714,4,2,11,85,0,0
96341,-83.3333333333333,4,2,11,85,0,0
97228,-83.3333333333333,4,2,0,85,0,0
97375,-83.3333333333333,4,2,11,85,0,0
97449,-83.3333333333333,4,2,0,85,0,0
97671,-100,4,2,11,85,0,0
98262,-71.4285714285714,4,2,11,85,0,0
98706,-83.3333333333333,4,2,11,85,0,0
99297,-100,4,2,11,85,0,0
99814,-83.3333333333333,4,2,0,85,0,0
100183,-83.3333333333333,4,2,11,85,0,0
100627,-71.4285714285714,4,2,11,85,0,0
101661,-83.3333333333333,4,2,11,85,0,0
102991,-71.4285714285714,4,2,11,85,0,0
103435,-83.3333333333333,4,2,11,85,0,0
105356,-83.3333333333333,4,2,11,85,0,1
105430,-83.3333333333333,4,2,11,85,0,0
106760,-83.3333333333333,4,2,0,85,0,0
106834,-83.3333333333333,4,2,11,85,0,0
106908,-83.3333333333333,4,2,0,85,0,0
107129,-83.3333333333333,4,2,11,85,0,0
109124,-83.3333333333333,4,2,0,85,0,0
109198,-83.3333333333333,4,2,11,85,0,0
109272,-83.3333333333333,4,2,0,85,0,0
109494,-83.3333333333333,4,2,11,85,0,0
113484,-83.3333333333333,4,2,11,55,0,0
114814,-166.666666666667,4,2,99,48,0,0
132400,-166.666666666667,4,2,99,60,0,0
132474,-166.666666666667,4,2,99,25,0,0
133582,-166.666666666667,4,2,99,18,0,0
134026,-166.666666666667,4,2,99,11,0,0
134469,-166.666666666667,4,2,99,8,0,0
134912,-166.666666666667,4,2,99,5,0,0

[Colours]
Combo1 : 14,184,150
Combo2 : 155,155,155
Combo3 : 201,201,203
Combo4 : 240,194,119
Combo5 : 239,131,99
Combo6 : 131,205,241
Combo7 : 131,241,205
Combo8 : 0,128,192

[HitObjects]
256,192,9755,5,0,3:0:0:0:
248,112,9902,37,0,0:0:0:0:
264,272,10050,1,4,3:0:0:0:
270,34,10198,101,4,1:3:0:0:
242,350,10346,1,0,0:0:0:0:
178,140,10493,5,0,0:0:0:0:
334,244,10641,1,4,3:0:0:0:
5,310,10775,69,4,3:2:0:0:
5,310,11070,2,0,L|42:304,1,27.8999991485596,0|2,0:0|0:3,0:0:0:0:
107,230,11366,1,6,1:3:0:0:
107,230,11661,2,0,L|93:265,1,27.8999991485596,2|0,0:3|1:0,0:0:0:0:
44,383,11957,1,0,0:0:0:0:
44,383,12031,1,0,0:0:0:0:
44,383,12105,1,2,1:3:0:0:
125,358,12252,2,0,L|107:336,1,27.8999991485596,0|0,0:0|1:0,0:0:0:0:
25,225,12548,1,6,1:3:0:0:
25,225,12843,5,2,0:3:0:0:
169,285,12991,1,0,1:0:0:0:
131,2,13139,101,2,0:3:0:0:
131,2,13434,2,0,L|117:37,1,27.8999991485596,0|2,0:0|0:3,0:0:0:0:
149,131,13730,1,6,1:3:0:0:
149,131,14026,2,0,L|125:101,1,27.8999991485596,2|0,0:3|1:0,0:0:0:0:
48,0,14321,1,0,1:0:0:0:
48,0,14469,1,2,1:3:0:0:
29,83,14617,2,0,L|56:78,1,27.8999991485596,0|0,0:0|1:0,0:0:0:0:
194,62,14912,1,6,1:3:0:0:
194,62,15207,5,2,0:3:0:0:
70,157,15355,1,0,1:0:0:0:
334,266,15504,101,2,0:3:0:0:
334,266,15799,2,0,L|310:236,1,27.8999991485596,0|2,0:0|0:3,0:0:0:0:
213,217,16095,1,6,1:3:0:0:
213,217,16390,2,0,L|250:210,1,27.8999991485596,2|0,0:3|1:0,0:0:0:0:
377,195,16686,1,0,1:0:0:0:
377,195,16834,1,2,1:3:0:0:
315,138,16981,2,0,L|305:164,1,27.8999991485596,0|0,0:0|1:0,0:0:0:0:
250,291,17277,1,6,1:3:0:0:
250,291,17572,5,2,0:3:0:0:
230,136,17721,1,0,1:0:0:0:
5,309,17868,101,2,0:3:0:0:
5,309,18163,2,0,L|42:303,1,27.8999991485596,0|2,0:0|0:3,0:0:0:0:
107,229,18459,1,6,1:3:0:0:
107,229,18755,2,0,L|93:264,1,27.8999991485596,2|0,0:3|1:0,0:0:0:0:
125,358,19050,6,0,L|107:336,1,27.8999991485596,10|2,0:0|0:0,0:0:0:0:
170,271,19198,2,0,L|181:315,1,37.2,10|2,0:0|0:0,0:0:0:0:
253,284,19346,2,0,L|260:238,1,46.5,10|2,0:0|0:0,0:0:0:0:
360,249,19494,2,0,L|324:302,1,55.7999982971192,10|2,0:0|0:0,0:0:0:0:
393,340,19641,37,10,3:2:0:0:
428,317,19714,1,8,0:0:0:0:
458,288,19788,5,10,0:0:0:0:
482,254,19862,1,10,0:0:0:0:
499,216,19936,101,10,0:0:0:0:
509,175,20010,1,8,0:0:0:0:
511,134,20084,5,10,0:0:0:0:
504,92,20159,1,10,0:0:0:0:
467,29,20233,70,0,P|413:76|234:55,1,223.199993188477,6|8,0:0|1:0,0:0:0:0:
131,163,20676,1,0,0:0:0:0:
131,163,20750,1,0,0:0:0:0:
131,163,20824,1,0,0:0:0:0:
158,14,20972,2,0,P|181:54|189:99,1,93,2|8,0:0|1:0,0:0:0:0:
319,139,21267,1,0,0:0:0:0:
185,230,21415,6,0,P|208:189|243:159,1,93,2|0,0:0|0:0,0:0:0:0:
191,318,21710,1,8,1:0:0:0:
97,247,21858,2,0,P|118:288|120:316,1,46.5
41,301,22006,102,0,P|27:345|0:382,1,93,0|2,0:0|0:0,0:0:0:0:
74,94,22302,2,0,P|92:137|124:171,1,93,8|0,1:0|0:0,0:0:0:0:
259,269,22597,6,0,L|442:236,1,186,2|8,0:0|1:0,0:0:0:0:
319,139,23041,101,0,0:0:0:0:
355,145,23114,1,0,0:0:0:0:
391,151,23188,1,0,0:0:0:0:
279,58,23336,5,2,0:0:0:0:
355,45,23484,1,8,1:0:0:0:
431,32,23632,1,2,0:3:0:0:
431,32,23927,101,2,0:0:0:0:
319,139,24075,1,8,1:0:0:0:
459,202,24223,1,2,0:3:0:0:
459,202,24297,1,0,0:0:0:0:
459,202,24371,2,0,L|527:190,2,46.5,2|0|2,0:0|0:0|0:0,0:0:0:0:
296,287,24666,2,0,L|283:392,1,93,10|0,1:3|0:0,0:0:0:0:
178,169,24962,6,0,P|122:176|-2:63,1,223.199993188477,2|8,0:0|1:0,0:0:0:0:
252,208,25405,1,0,0:0:0:0:
252,208,25479,1,0,0:0:0:0:
252,208,25553,2,0,P|282:244|297:288,1,93,0|2,0:0|0:0,0:0:0:0:
184,251,25848,1,8,1:0:0:0:
293,44,25996,102,0,P|263:79|248:123,1,93,0|2,0:0|0:0,0:0:0:0:
366,235,26292,1,0,0:0:0:0:
175,84,26440,6,0,L|62:69,1,93,8|0,1:0|0:0,0:0:0:0:
82,71,26661,1,0,0:0:0:0:
82,71,26735,1,0,0:0:0:0:
248,122,26883,1,2,0:0:0:0:
144,0,27031,1,8,1:0:0:0:
6,85,27178,1,0,0:0:0:0:
110,207,27326,102,0,P|222:200|308:297,1,223.199993188477,2|8,0:0|1:0,0:0:0:0:
369,236,27770,1,0,0:0:0:0:
369,236,27843,1,0,0:0:0:0:
369,236,27917,1,0,0:0:0:0:
465,133,28065,2,0,P|422:151|376:155,1,93,2|8,0:0|1:0,0:0:0:0:
412,367,28361,6,0,P|417:320|436:279,1,93,2|2,0:0|0:3,0:0:0:0:
334,348,28656,1,2,0:0:0:0:
299,188,28804,2,0,L|283:71,1,93,8|2,1:0|0:0,0:0:0:0:
286,95,29026,1,0,0:0:0:0:
286,95,29100,101,2,0:3:0:0:
230,235,29247,1,0,0:0:0:0:
174,375,29395,1,8,1:0:0:0:
29,78,29543,5,0,0:0:0:0:
29,78,29617,1,0,0:0:0:0:
29,78,29691,2,0,P|100:71|238:184,1,223.199993188477,2|8,0:0|1:0,0:0:0:0:
304,267,30134,1,0,0:0:0:0:
304,267,30208,1,0,0:0:0:0:
304,267,30282,1,0,0:0:0:0:
210,324,30430,2,0,P|212:277|230:234,1,93,2|8,0:0|1:0,0:0:0:0:
291,106,30725,1,0,0:0:0:0:
386,160,30873,102,0,P|344:180|298:187,1,93,2|0,0:0|0:0,0:0:0:0:
444,104,31169,1,8,1:0:0:0:
499,208,31316,2,0,P|482:192|461:183,1,46.5
439,260,31464,6,0,P|477:285|506:321,1,93,0|2,0:0|0:0,0:0:0:0:
444,104,31760,2,0,P|446:57|463:14,1,93,8|0,1:0|0:0,0:0:0:0:
306,177,32055,102,0,L|123:210,1,186,2|8,0:0|1:0,0:0:0:0:
183,120,32499,5,0,0:0:0:0:
147,114,32572,1,0,0:0:0:0:
111,108,32646,1,0,0:0:0:0:
173,279,32794,101,2,0:0:0:0:
97,292,32942,1,8,1:0:0:0:
21,305,33090,1,2,0:3:0:0:
21,305,33385,5,2,0:0:0:0:
111,108,33533,1,8,1:0:0:0:
168,216,33681,1,2,0:3:0:0:
168,216,33755,1,0,0:0:0:0:
168,216,33829,2,0,L|108:207,2,46.5,2|0|2,0:0|0:0|0:0,0:0:0:0:
2,22,34124,2,0,L|108:7,1,93,10|0,1:3|0:0,0:0:0:0:
392,89,34420,102,0,P|284:104|170:26,1,223.199993188477,2|8,0:0|1:0,0:0:0:0:
476,93,34863,1,0,0:0:0:0:
476,93,34937,1,0,0:0:0:0:
476,93,35011,2,0,P|485:48|507:7,1,93,0|2,0:0|0:0,0:0:0:0:
349,159,35307,5,8,1:0:0:0:
491,235,35454,2,0,P|465:196|430:165,1,93,0|2,0:0|0:0,0:0:0:0:
274,198,35750,1,0,0:0:0:0:
437,22,35898,101,8,1:0:0:0:
341,243,36045,1,0,0:0:0:0:
277,114,36193,1,0,0:0:0:0:
277,114,36267,1,0,0:0:0:0:
277,114,36341,1,2,0:0:0:0:
193,133,36489,1,8,1:0:0:0:
129,77,36637,1,0,0:0:0:0:
0,240,36784,6,0,P|44:246|91:269,1,93,2|0,0:0|0:0,0:0:0:0:
231,374,37080,1,8,1:0:0:0:
250,195,37228,1,0,0:0:0:0:
250,195,37302,1,0,0:0:0:0:
250,195,37375,1,0,0:0:0:0:
192,279,37523,101,2,0:0:0:0:
327,249,37671,1,8,1:0:0:0:
462,219,37819,1,2,0:0:0:0:
178,0,37967,86,2,P|174:47|197:98,1,90.6749958492281,2|0,0:1|0:0,0:1:0:0:
250,195,38262,2,0,P|212:168|168:160,1,90.6749958492281,2|0,0:0|0:0,0:0:0:0:
44,161,38557,2,2,P|84:141|113:107,1,90.6749958492281,2|0,0:1|0:0,0:1:0:0:
254,21,38853,54,2,L|251:39,4,15.1124993082047
321,221,39149,53,2,1:3:0:0:
392,196,39444,1,2,0:3:0:0:
378,271,39740,1,2,0:0:0:0:
378,271,39888,2,0,L|390:313,1,37.2,8|0,0:0|0:0,0:0:0:0:
501,30,40183,5,2,3:0:0:0:
501,30,40479,1,0,0:0:0:0:
494,103,40627,1,2,0:3:0:0:
487,180,40774,1,0,0:0:0:0:
389,77,40922,101,10,0:0:0:0:
256,16,41070,1,2,0:0:0:0:
123,77,41218,2,0,L|134:113,1,37.2,2|0,0:0|0:0,0:0:0:0:
191,163,41513,5,2,0:0:0:0:
120,188,41808,1,2,0:0:0:0:
134,113,42104,1,2,0:0:0:0:
134,113,42252,2,0,L|122:71,1,37.2,8|0,0:0|0:0,0:0:0:0:
11,354,42548,101,2,3:0:0:0:
11,354,42843,1,0,0:0:0:0:
18,281,42991,1,8,0:0:0:0:
25,204,43139,1,0,0:0:0:0:
123,307,43287,5,10,0:0:0:0:
256,368,43435,1,2,0:0:0:0:
388,306,43582,1,2,0:0:0:0:
491,358,43730,1,2,0:0:0:0:
173,375,43878,101,2,0:3:0:0:
339,375,44174,1,2,0:3:0:0:
256,276,44469,1,2,0:0:0:0:
256,276,44617,2,0,L|256:238,1,37.2,8|0,0:0|0:0,0:0:0:0:
327,82,44912,5,2,3:2:0:0:
254,53,45356,1,10,0:0:0:0:
193,104,45651,1,2,0:0:0:0:
265,128,45947,1,10,0:0:0:0:
185,302,46242,101,2,0:0:0:0:
258,331,46538,1,8,0:0:0:0:
258,331,46686,1,2,0:0:0:0:
319,280,46981,1,2,0:0:0:0:
247,256,47277,1,10,0:0:0:0:
247,256,47573,5,2,0:0:0:0:
168,269,47720,1,8,0:0:0:0:
89,281,47868,1,2,0:0:0:0:
267,179,48016,101,2,0:3:0:0:
346,192,48163,1,8,0:0:0:0:
425,204,48311,2,2,L|439:203,4,9.3
236,108,48608,5,2,3:0:0:0:
157,121,48903,1,2,0:3:0:0:
181,46,49198,1,2,0:0:0:0:
181,46,49346,2,0,L|176:3,1,37.2,8|0,0:0|0:0,0:0:0:0:
496,155,49641,101,2,0:3:0:0:
496,155,49937,1,0,0:0:0:0:
473,84,50085,1,2,0:3:0:0:
452,12,50233,1,0,0:0:0:0:
420,140,50380,5,10,0:0:0:0:
502,296,50528,1,2,0:0:0:0:
335,374,50676,2,0,L|331:338,1,37.2,2|0,0:0|0:0,0:0:0:0:
276,276,50972,101,2,0:0:0:0:
355,263,51267,1,2,0:0:0:0:
331,338,51562,1,2,0:0:0:0:
331,338,51710,2,0,L|336:381,1,37.2,8|0,0:0|0:0,0:0:0:0:
16,229,52006,5,2,0:3:0:0:
18,226,52154,1,10,0:0:0:0:
16,221,52302,1,2,0:0:0:0:
60,154,52450,1,2,0:0:0:0:
134,181,52598,1,0,0:0:0:0:
92,244,52745,101,10,0:0:0:0:
245,309,52893,1,0,0:0:0:0:
357,189,53041,1,2,0:0:0:0:
200,141,53188,1,0,0:0:0:0:
191,368,53336,5,2,0:3:0:0:
327,321,53632,1,2,0:3:0:0:
256,200,53927,1,2,0:0:0:0:
256,200,54075,2,0,L|256:237,1,37.2,8|0,0:0|0:0,0:0:0:0:
295,84,54371,102,0,P|315:53|317:17,1,74.4,2|2,3:2|0:0,0:0:0:0:
170,148,54814,2,0,P|152:145|136:137,1,37.2,8|0,0:0|0:0,0:0:0:0:
341,148,55109,2,0,P|359:145|376:137,1,37.2,2|2,0:0|0:0,0:0:0:0:
216,84,55405,2,0,P|205:69|199:51,1,37.2,2|0,0:0|0:0,0:0:0:0:
256,152,55701,5,2,0:0:0:0:
224,227,55996,1,2,0:3:0:0:
224,227,56144,1,2,0:0:0:0:
287,276,56440,1,2,0:0:0:0:
256,344,56735,1,10,0:0:0:0:
327,372,56883,38,2,L|338:373,6,9.3
195,296,57178,5,10,0:0:0:0:
181,299,57252,1,8,0:0:0:0:
157,320,57326,101,8,0:0:0:0:
143,323,57400,1,8,0:0:0:0:
81,371,57474,54,2,L|94:246,1,111.6,2|0,0:1|0:0,0:1:0:0:
41,55,58065,54,2,P|10:106|147:126,1,251.099992337036,6|0,0:0|0:0,0:1:0:0:
139,146,58361,6,0,P|167:152|200:132,1,55.7999982971192,2|0,0:1|0:0,0:0:0:0:
247,89,58508,2,0,P|257:62|243:26,1,55.7999982971192
264,165,58656,102,0,P|281:187|319:193,1,55.7999982971192,8|0,0:1|0:0,0:0:0:0:
425,151,58804,2,0,P|396:154|372:185,1,55.7999982971192,2|0,0:1|0:0,0:0:0:0:
359,303,58952,6,0,L|366:224,1,55.7999982971192,2|0,0:0|0:0,0:0:0:0:
381,94,59100,2,0,L|388:15,1,55.7999982971192,2|0,0:1|0:0,0:0:0:0:
377,171,59247,101,0,0:0:0:0:
250,36,59395,1,2,0:1:0:0:
250,36,59469,1,0,0:0:0:0:
250,36,59543,2,0,P|264:72|178:117,1,130.199996026611,2|2,0:0|0:1,0:0:0:0:
0,78,59839,86,2,B|-7:26|44:16|83:27|80:84|80:84|78:119|92:163|159:162,1,251.099992337036,10|0,0:1|0:0,0:1:0:0:
234,203,60134,5,2,0:0:0:0:
225,204,60207,1,0,0:0:0:0:
217,205,60281,1,0,0:0:0:0:
209,206,60355,1,2,0:0:0:0:
200,208,60430,6,0,P|166:273|263:297,1,195.299994039917,2|2,0:0|0:1,0:0:0:0:
384,332,60725,6,0,P|351:328|334:309,3,55.7999982971192,2|0|2|0,0:1|0:0|0:1|0:0,0:0:0:0:
257,302,61021,102,0,P|238:281|239:253,3,41.8499987228394,8|0|2|0,0:1|0:0|0:1|0:0,0:0:0:0:
180,212,61316,6,0,L|186:174,1,27.8999991485596,6|0,0:1|0:0,0:0:0:0:
307,241,61464,2,0,L|313:203,1,27.8999991485596,8|0,0:0|0:0,0:0:0:0:
257,158,61612,101,8,0:0:0:0:
387,253,61760,1,8,0:0:0:0:
410,211,61834,1,8,0:0:0:0:
457,203,61908,1,10,0:1:0:0:
509,139,62055,1,0,0:0:0:0:
451,79,62203,1,0,0:0:0:0:
474,0,62351,5,6,0:1:0:0:
509,139,62499,1,2,0:0:0:0:
371,102,62646,1,8,0:0:0:0:
451,79,62794,102,0,P|373:96|263:11,1,195.299994039917,2|0,0:0|0:0,0:0:0:0:
277,39,63090,6,0,P|288:71|289:131,1,65.0999980133057,2|0,0:1|0:0,0:0:0:0:
211,86,63238,38,2,P|210:114|202:141,1,55.7999982971192,2|8,0:1|0:0,0:1:0:0:
20,329,63533,70,0,P|8:297|6:237,1,65.0999980133057,2|0,0:1|0:0,0:0:0:0:
87,282,63681,2,0,P|89:248|111:192,1,65.0999980133057,6|0,0:1|0:0,0:0:0:0:
163,263,63829,38,2,P|175:237|193:215,1,55.7999982971192,2|0,0:1|0:0,0:1:0:0:
492,329,64124,70,0,P|503:297|505:237,1,65.0999980133057,2|0,0:1|0:0,0:0:0:0:
425,282,64272,2,0,P|422:248|400:192,1,65.0999980133057,6|0,0:1|0:0,0:0:0:0:
348,263,64420,38,0,P|335:238|318:216,1,55.7999982971192
256,144,64568,69,8,0:1:0:0:
256,144,64863,69,2,0:0:0:0:
279,111,64937,1,0,0:0:0:0:
284,73,65011,1,0,0:0:0:0:
270,38,65085,1,2,0:0:0:0:
235,15,65159,86,0,P|152:45|22:50,1,186,0|0,1:0|0:0,0:0:0:0:
363,82,65602,1,2,0:0:0:0:
165,156,65750,2,0,P|118:154|74:141,1,93,0|0,1:0|0:0,0:0:0:0:
334,218,66045,1,2,0:0:0:0:
210,312,66193,1,2,0:0:0:0:
294,370,66341,5,2,0:0:0:0:
256,192,66538,101,8,0:0:0:0:
217,13,66735,5,2,0:0:0:0:
77,230,66932,21,8,0:0:0:0:
256,192,67080,1,0,1:0:0:0:
256,192,67154,1,2,0:0:0:0:
256,192,67228,1,2,0:0:0:0:
434,153,67375,1,2,0:0:0:0:
512,328,67523,6,0,B|384:289|452:387|280:348,1,195.299994039917,2|0,0:0|0:0,0:0:0:0:
254,381,67819,2,2,P|195:379|249:293,1,195.299994039917,2|0,0:1|0:0,0:1:0:0:
331,183,68114,2,2,P|386:245|308:276,1,195.299994039917,10|0,0:1|0:0,0:1:0:0:
254,214,68410,6,0,P|254:177|274:110,1,65.0999980133057
374,43,68558,2,0,P|373:79|354:147,1,65.0999980133057
186,98,68706,102,0,B|223:83|235:55|235:55|259:77|308:70,1,130.199996026611,2|0,0:1|0:0,0:0:0:0:
308,276,69001,5,2,0:0:0:0:
184,253,69149,1,2,0:0:0:0:
184,253,69223,1,2,0:0:0:0:
184,253,69297,1,10,0:1:0:0:
60,230,69444,1,2,0:0:0:0:
342,193,69592,101,6,0:1:0:0:
6,300,69740,1,2,0:1:0:0:
257,372,69888,6,0,P|261:304|300:225,1,130.199996026611,2|0,0:0|0:0,0:0:0:0:
284,247,70109,1,0,0:0:0:0:
284,247,70183,2,0,P|247:240|210:226,1,65.0999980133057,10|0,0:3|0:0,0:0:0:0:
12,169,70331,102,0,P|92:160|187:92,1,167.399994891358,2|0,0:0|0:0,0:0:0:0:
165,116,70627,2,0,P|159:155|161:210,1,65.0999980133057,10|0,0:3|0:0,0:0:0:0:
355,169,70774,6,0,P|304:131|274:46,1,139.5,2|0,0:0|0:0,0:0:0:0:
202,40,71070,101,2,0:0:0:0:
444,84,71218,1,6,0:1:0:0:
444,84,71292,1,2,0:0:0:0:
444,84,71366,2,0,P|438:115|434:189,1,65.0999980133057,8|0,0:0|0:0,0:0:0:0:
306,293,71513,2,0,P|302:260|296:228,1,65.0999980133057,6|0,0:1|0:0,0:0:0:0:
355,169,71661,5,0,0:0:0:0:
512,297,71809,1,6,0:1:0:0:
279,371,71957,1,2,0:0:0:0:
498,211,72105,1,6,0:1:0:0:
248,171,72252,102,0,P|168:160|105:125,1,130.199996026611,2|0,0:0|0:0,0:0:0:0:
124,138,72474,1,0,0:0:0:0:
124,138,72548,2,0,P|134:170|141:236,1,65.0999980133057,2|0,0:1|0:0,0:0:0:0:
0,338,72696,6,0,P|37:284|165:310,1,167.399994891358,2|0,0:1|0:0,0:0:0:0:
204,326,72991,101,2,0:1:0:0:
204,326,73065,1,0,0:0:0:0:
204,326,73139,2,0,P|210:302|209:257,1,55.7999982971192,2|0,0:0|0:0,0:0:0:0:
294,285,73287,2,0,P|288:309|289:354,1,55.7999982971192,2|0,0:1|0:0,0:0:0:0:
287,339,73582,6,0,P|309:331|383:345,1,55.7999982971192,2|0,0:1|0:0,0:0:0:0:
454,362,73730,2,0,P|432:344|417:321,1,55.7999982971192,2|0,0:0|0:0,0:0:0:0:
387,204,73878,2,0,P|383:232|370:257,1,55.7999982971192,2|0,0:1|0:0,0:0:0:0:
503,243,74026,101,8,0:0:0:0:
479,126,74174,1,2,0:0:0:0:
457,11,74321,5,2,0:0:0:0:
452,7,74395,1,0,0:0:0:0:
447,5,74469,1,0,0:0:0:0:
442,5,74543,1,2,0:0:0:0:
436,7,74617,1,6,0:0:0:0:
443,14,76981,6,0,P|371:72|240:60,1,186,4|0,1:2|0:0,0:0:0:0:
280,77,77203,1,2,0:1:0:0:
280,77,77277,2,0,P|289:113|294:163,1,69.7500026607514,8|0,1:0|0:0,0:0:0:0:
458,240,77425,2,0,P|462:205|471:171,1,69.7500026607514,2|0,0:1|0:0,0:0:0:0:
139,249,77573,5,0,0:0:0:0:
215,238,77646,1,0,0:0:0:0:
287,227,77720,2,0,L|415:208,1,93,2|0,0:1|0:0,0:0:0:0:
474,384,77868,102,0,B|427:371|415:314|415:314|383:372|306:364,1,186,8|2,1:0|0:1,0:0:0:0:
345,364,78090,2,0,P|329:300|301:258,1,69.7500026607514,0|2,0:0|0:0,0:0:0:0:
77,257,78311,5,2,0:1:0:0:
107,253,78385,1,0,0:0:0:0:
139,249,78459,2,0,L|151:352,1,69.7500026607514,8|0,1:0|0:0,0:0:0:0:
186,131,78607,102,0,B|132:154|132:154|-1:111,1,186,2|0,0:1|0:0,0:0:0:0:
10,114,78829,5,0,0:0:0:0:
10,114,78903,2,0,P|1:49|-9:5,1,69.7500026607514,2|0,1:2|0:0,0:0:0:0:
219,196,79050,38,2,P|127:181|158:320,1,279,10|0,0:1|0:0,0:1:0:0:
288,250,79346,54,0,B|331:139|255:175|305:52,1,186,2|0,0:0|0:0,0:0:0:0:
307,63,79568,1,2,0:1:0:0:
316,57,79641,2,0,P|266:53|208:27,1,93,10|0,0:1|0:0,0:0:0:0:
129,214,79789,2,0,P|172:198|218:195,1,93,2|0,0:1|0:0,0:0:0:0:
437,136,79937,5,2,0:1:0:0:
437,136,80011,1,0,0:0:0:0:
437,136,80085,2,0,L|362:127,1,69.7500026607514,6|0,0:1|0:0,0:0:0:0:
152,73,80233,1,10,0:1:0:0:
288,250,80380,1,2,0:1:0:0:
52,223,80528,101,2,0:0:0:0:
94,192,80602,1,8,0:0:0:0:
145,189,80676,1,10,0:0:0:0:
187,214,80750,1,8,0:0:0:0:
203,262,80824,2,0,P|209:226|222:184,1,69.7500026607514,8|8,1:0|0:0,0:0:0:0:
63,45,80972,2,0,P|72:78|78:112,1,69.7500026607514,8|8,0:0|0:0,0:0:0:0:
366,63,81119,5,8,0:0:0:0:
357,110,81193,1,8,0:0:0:0:
317,140,81267,1,2,1:2:0:0:
270,142,81341,1,8,0:0:0:0:
228,114,81415,2,0,L|143:101,1,69.7500026607514,8|8,0:1|0:0,0:0:0:0:
48,286,81563,2,0,L|133:273,1,69.7500026607514,8|0,0:0|0:0,0:0:0:0:
357,341,81710,102,0,P|292:277|202:261,1,186,2|0,0:0|0:0,0:0:0:0:
202,261,81932,1,0,0:0:0:0:
202,261,82006,2,0,P|209:213|212:187,1,69.7500026607514,10|0,1:0|0:0,0:0:0:0:
282,0,82154,2,0,P|285:34|291:69,1,69.7500026607514,2|0,0:1|0:0,0:0:0:0:
493,174,82301,5,0,0:0:0:0:
412,184,82375,1,0,0:0:0:0:
339,147,82449,2,0,L|233:139,1,69.7500026607514,6|0,0:1|0:0,0:0:0:0:
52,289,82597,102,0,P|136:283|204:377,1,186,10|2,1:0|0:1,0:0:0:0:
200,353,82819,2,0,P|210:313|241:260,1,69.7500026607514,0|2,0:0|0:0,0:0:0:0:
18,72,83041,5,2,0:1:0:0:
18,72,83114,1,0,0:0:0:0:
18,72,83188,2,0,L|32:172,1,69.7500026607514,10|0,1:0|0:0,0:0:0:0:
38,218,83336,2,0,L|52:318,1,69.7500026607514,2|0,0:1|0:0,0:0:0:0:
60,363,83484,101,0,0:0:0:0:
303,260,83632,1,2,0:0:0:0:
106,169,83779,1,8,1:0:0:0:
288,337,83927,1,0,0:0:0:0:
192,366,84075,6,0,P|186:309|177:250,1,111.599996594238,6|0,0:1|0:0,0:0:0:0:
314,173,84371,1,8,1:0:0:0:
206,175,84518,101,2,0:1:0:0:
222,181,84592,1,0,0:0:0:0:
236,196,84666,1,0,0:0:0:0:
381,220,84814,1,6,0:1:0:0:
482,116,84962,1,8,1:0:0:0:
337,89,85109,1,2,0:1:0:0:
497,42,85257,5,2,0:0:0:0:
427,6,85405,2,0,P|415:54|408:133,1,111.599996594238,2|8,0:1|1:0,0:0:0:0:
299,254,85701,101,2,0:1:0:0:
306,274,85774,1,0,0:0:0:0:
305,293,85848,1,0,0:0:0:0:
229,282,85996,1,2,0:0:0:0:
177,342,86144,1,8,1:0:0:0:
258,357,86292,1,2,0:0:0:0:
383,292,86440,86,0,P|443:304|492:363,1,111.6,6|0,0:0|0:0,0:0:0:0:
479,337,86735,2,0,P|483:300|506:265,1,74.4,2|0,0:0|0:0,0:0:0:0:
395,168,87031,2,0,P|425:189|443:227,1,74.4,2|0,0:0|0:0,0:0:0:0:
464,97,87326,2,0,L|370:85,1,74.4,2|0,0:0|0:0,0:0:0:0:
129,92,87622,6,0,P|69:80|20:21,1,111.6,2|0,0:0|0:0,0:0:0:0:
33,47,87917,2,0,P|29:84|6:119,1,74.4,2|0,0:0|0:0,0:0:0:0:
117,216,88213,2,0,P|86:194|68:156,1,74.4,2|0,0:0|0:0,0:0:0:0:
48,287,88508,1,2,0:0:0:0:
191,246,88656,1,0,0:0:0:0:
70,162,88804,101,2,0:0:0:0:
129,92,88952,1,0,0:0:0:0:
32,9,89100,2,0,P|41:44|47:85,1,74.4,2|0,0:0|0:0,0:0:0:0:
191,246,89395,5,2,0:0:0:0:
303,103,89543,1,0,0:0:0:0:
209,103,89691,101,2,0:0:0:0:
321,246,89839,1,0,0:0:0:0:
442,162,89986,5,2,0:0:0:0:
383,92,90134,1,0,0:0:0:0:
480,9,90282,2,0,P|470:44|465:85,1,74.4,2|0,0:0|0:0,0:0:0:0:
465,81,90504,1,0,0:0:0:0:
465,81,90577,101,2,0:0:0:0:
256,192,90725,1,0,0:0:0:0:
46,81,90873,1,2,0:0:0:0:
70,162,91169,53,4,0:0:0:0:
70,162,93533,53,8,0:0:0:0:
163,177,93681,5,8,0:0:0:0:
256,192,93829,101,8,0:0:0:0:
349,207,93977,5,8,0:0:0:0:
442,222,94124,5,8,0:0:0:0:
440,227,94198,1,0,1:0:0:0:
438,232,94272,1,0,3:0:0:0:
436,237,94346,1,0,3:0:0:0:
434,242,94420,2,0,L|427:214,2,15.8100000964966,8|0|0,0:0|0:0|0:0,0:0:0:0:
491,168,94568,2,0,L|486:143,2,15.8100000964966,0|0|0,3:0|0:0|0:0,0:0:0:0:
415,124,94715,5,2,0:0:0:0:
413,118,94863,1,2,0:0:0:0:
412,113,95011,1,2,0:0:0:0:
411,108,95085,1,2,0:0:0:0:
409,103,95159,1,2,0:0:0:0:
409,103,95898,38,0,P|334:128|216:33,1,195.299994039917,6|0,0:0|0:0,0:0:0:0:
224,0,96193,1,8,1:0:0:0:
0,206,96341,6,0,P|75:131|198:148,1,223.199993188477,0|2,0:0|0:0,0:0:0:0:
314,240,96784,1,8,1:0:0:0:
456,173,96932,1,0,0:0:0:0:
328,73,97080,1,2,0:0:0:0:
196,218,97228,101,2,0:0:0:0:
198,241,97302,1,2,0:0:0:0:
200,264,97375,1,8,1:0:0:0:
202,287,97449,1,0,0:0:0:0:
205,310,97523,1,2,0:0:0:0:
141,374,97671,5,0,0:0:0:0:
314,240,97819,1,2,0:0:0:0:
114,153,97967,2,0,L|-11:132,1,93,8|0,1:0|0:0,0:0:0:0:
22,137,98262,102,0,P|84:88|225:125,1,195.299994039917,2|0,0:0|0:0,0:0:0:0:
240,162,98557,1,8,1:0:0:0:
357,0,98706,5,0,0:0:0:0:
347,6,98779,2,0,P|317:50|329:174,1,167.399994891358,0|2,0:0|0:0,0:0:0:0:
366,228,99149,1,8,1:0:0:0:
124,296,99297,102,0,P|216:290|292:224,1,186,2|2,0:0|0:0,0:0:0:0:
414,373,99740,5,8,1:0:0:0:
407,348,99814,1,2,0:0:0:0:
407,323,99888,1,2,0:0:0:0:
415,298,99962,1,2,0:0:0:0:
429,280,100036,1,2,0:0:0:0:
512,179,100183,101,2,0:0:0:0:
457,34,100331,2,0,P|404:31|336:-38,1,111.599996594238,8|0,1:0|0:0,0:0:0:0:
83,119,100627,6,0,P|137:44|261:37,1,195.299994039917,2|0,0:0|0:0,0:0:0:0:
308,59,100922,1,8,1:0:0:0:
232,367,101070,102,0,P|253:258|135:152,1,260.399992053223,0|2,0:0|0:0,0:0:0:0:
6,23,101513,1,8,1:0:0:0:
85,15,101661,6,0,P|102:67|82:118,1,111.599996594238,0|2,0:0|0:0,0:0:0:0:
0,237,101957,1,0,0:0:0:0:
54,371,102105,2,0,P|101:351|174:359,1,111.599996594238,8|0,1:0|0:0,0:0:0:0:
161,355,102326,1,0,0:0:0:0:
161,355,102400,101,0,0:0:0:0:
249,331,102548,1,2,0:0:0:0:
329,115,102696,2,0,L|312:-5,1,111.599996594238,8|0,1:0|0:0,0:0:0:0:
369,184,102991,6,0,P|282:243|331:386,1,260.399992053223,2|8,0:0|1:0,0:0:0:0:
442,205,103435,2,0,B|476:95|400:152|457:-8,1,167.399994891358
512,14,103730,101,2,0:0:0:0:
369,184,103878,1,8,1:0:0:0:
493,330,104026,2,0,P|503:270|528:197,1,111.599996594238,2|0,0:0|0:0,0:0:0:0:
376,100,104321,5,2,0:0:0:0:
369,184,104469,1,8,1:0:0:0:
300,137,104617,1,2,0:0:0:0:
376,100,104765,101,2,0:0:0:0:
206,223,104912,1,2,0:0:0:0:
17,137,105060,1,8,1:0:0:0:
17,137,105356,5,6,0:0:0:0:
79,338,105504,1,0,0:0:0:0:
158,149,105651,101,8,1:0:0:0:
177,302,105799,1,0,0:0:0:0:
297,187,105947,5,2,0:0:0:0:
280,300,106095,1,0,0:0:0:0:
418,255,106242,101,8,1:0:0:0:
377,333,106390,1,0,0:0:0:0:
492,347,106538,21,2,0:0:0:0:
327,269,106686,101,0,0:0:0:0:
308,265,106759,1,2,0:0:0:0:
290,265,106833,1,8,1:0:0:0:
272,269,106907,1,2,0:0:0:0:
255,277,106981,1,2,0:0:0:0:
241,289,107055,1,2,0:0:0:0:
230,304,107129,1,2,0:0:0:0:
377,333,107277,101,0,0:0:0:0:
495,247,107425,1,8,1:0:0:0:
495,247,107720,5,2,0:0:0:0:
433,46,107868,1,0,0:0:0:0:
354,235,108015,101,8,1:0:0:0:
335,82,108163,1,0,0:0:0:0:
215,197,108311,5,2,0:0:0:0:
232,84,108459,1,0,0:0:0:0:
68,212,108606,101,8,1:0:0:0:
135,51,108754,1,0,0:0:0:0:
20,37,108902,37,2,0:0:0:0:
185,115,109051,69,0,0:0:0:0:
204,119,109124,1,2,0:0:0:0:
222,119,109198,1,8,1:0:0:0:
240,115,109272,1,2,0:0:0:0:
257,107,109346,1,2,0:0:0:0:
271,95,109420,1,2,0:0:0:0:
282,80,109494,1,2,0:0:0:0:
135,51,109641,5,0,0:0:0:0:
17,137,109789,1,8,1:0:0:0:
17,137,110085,101,12,1:2:0:0:
68,212,110233,5,0,0:0:0:0:
110,208,110307,1,0,3:0:0:0:
144,235,110380,1,8,0:0:0:0:
396,159,110528,1,2,0:0:0:0:
229,185,110676,101,0,3:0:0:0:
271,189,110750,1,0,3:0:0:0:
305,162,110823,1,2,0:0:0:0:
422,242,110972,1,0,3:0:0:0:
245,95,111119,5,0,1:0:0:0:
236,51,111192,1,0,3:0:0:0:
262,15,111266,1,2,0:0:0:0:
504,217,111415,101,2,0:0:0:0:
323,330,111563,1,2,3:2:0:0:
441,85,111710,1,2,0:0:0:0:
100,28,111858,5,2,0:0:0:0:
100,28,111932,1,0,3:0:0:0:
100,28,112006,2,0,L|197:46,1,55.7999982971192,0|0,3:0|0:0,0:0:0:0:
319,63,112154,2,0,L|376:72,2,37.1999988647461,2|0|0,1:2|0:0|0:0,0:0:0:0:
236,51,112302,1,0,3:0:0:0:
441,85,112449,101,12,1:2:0:0:
380,210,112597,1,0,0:0:0:0:
403,241,112671,1,0,3:0:0:0:
398,278,112745,1,2,1:2:0:0:
46,309,112893,5,8,1:2:0:0:
132,174,113041,1,0,0:0:0:0:
109,143,113115,1,0,3:0:0:0:
114,106,113189,1,2,1:2:0:0:
256,0,113336,1,0,3:0:0:0:
256,192,113484,69,4,0:0:0:0:
256,192,114814,53,2,1:2:0:0:
50,8,115109,54,0,P|60:36|60:74,1,55.7999982971192,4|0,0:3|3:0,0:0:0:0:
0,173,115405,2,0,P|19:150|52:131,1,55.7999982971192,0|0,0:0|3:0,0:0:0:0:
99,195,115701,5,8,0:0:0:0:
223,132,115848,2,0,P|167:134|115:115,1,111.599996594238
99,195,116292,2,0,P|91:221|94:265,1,55.7999982971192,4|0,0:3|0:0,0:0:0:0:
136,322,116587,101,10,0:0:0:0:
205,271,116735,1,0,0:0:0:0:
301,380,116883,1,8,0:0:0:0:
396,268,117031,1,2,0:0:0:0:
462,376,117178,6,0,P|452:348|452:310,1,55.7999982971192,0|0,1:0|0:0,0:0:0:0:
512,211,117474,2,0,P|492:233|459:252,1,55.7999982971192,4|0,0:3|3:0,0:0:0:0:
413,189,117770,101,0,0:0:0:0:
289,252,117917,2,0,P|344:249|396:268,1,111.599996594238,0|0,3:0|0:0,0:0:0:0:
396,268,118287,1,0,0:0:0:0:
396,268,118361,6,0,L|402:311,2,27.8999991485596
343,170,118656,2,0,L|337:212,2,27.8999991485596,0|0|0,0:3|0:0|0:0,0:0:0:0:
369,83,118952,101,10,0:0:0:0:
283,109,119100,1,0,0:0:0:0:
429,152,119247,1,10,0:0:0:0:
303,23,119395,1,0,0:0:0:0:
256,192,119543,21,2,1:2:0:0:
500,243,119839,86,0,L|489:171,1,55.7999982971192,4|0,0:3|3:0,0:0:0:0:
417,217,120135,2,0,L|406:145,1,55.7999982971192,0|0,0:0|3:0,0:0:0:0:
353,267,120430,5,8,0:0:0:0:
288,219,120578,2,0,L|266:89,1,111.599996594238
251,28,121021,2,0,P|298:30|321:52,1,55.7999982971192,4|0,0:3|0:0,0:0:0:0:
385,28,121317,101,10,0:0:0:0:
348,105,121465,1,0,0:0:0:0:
166,34,121612,1,8,0:0:0:0:
103,222,121760,1,2,0:0:0:0:
12,141,121908,6,0,L|23:213,1,55.7999982971192,0|0,1:0|0:0,0:0:0:0:
95,167,122204,2,0,L|106:239,1,55.7999982971192,4|0,0:3|3:0,0:0:0:0:
159,117,122499,1,0,0:0:0:0:
224,165,122647,2,0,L|246:295,1,111.599996594238,0|0,3:0|0:0,0:0:0:0:
242,275,123016,1,0,0:0:0:0:
242,275,123090,102,0,P|274:279|319:288,1,55.7999982971192
415,216,123385,2,0,L|459:208,2,27.8999991485596,4|0|0,0:3|0:0|0:0,0:0:0:0:
337,217,123681,5,10,0:0:0:0:
378,285,123829,1,0,0:0:0:0:
512,218,123976,1,8,0:0:0:0:
395,122,124124,1,0,0:0:0:0:
256,192,124272,53,2,1:2:0:0:
50,356,124568,38,0,P|37:323|47:292,1,55.7999982971192,4|0,0:3|3:0,0:0:0:0:
141,220,124863,2,0,P|118:247|87:254,1,55.7999982971192,0|0,0:0|3:0,0:0:0:0:
101,152,125159,5,8,0:0:0:0:
7,114,125307,2,0,P|24:170|29:224,1,111.599996594238
101,152,125750,2,0,P|112:123|127:93,1,55.7999982971192,4|0,0:3|0:0,0:0:0:0:
59,55,126045,101,10,0:0:0:0:
132,26,126193,1,0,0:0:0:0:
285,117,126341,1,8,0:0:0:0:
453,57,126489,1,2,0:0:0:0:
256,192,126637,37,0,1:0:0:0:
462,356,126932,70,0,P|475:323|465:292,1,55.7999982971192,4|0,0:3|3:0,0:0:0:0:
371,220,127228,2,0,P|393:247|424:254,1,55.7999982971192,0|0,0:0|3:0,0:0:0:0:
411,152,127523,5,8,0:0:0:0:
504,114,127671,2,0,P|488:170|483:224,1,111.599996594238
411,152,128114,2,0,P|400:123|385:93,1,55.7999982971192,4|0,0:3|0:0,0:0:0:0:
453,55,128410,101,10,0:0:0:0:
371,220,128558,1,0,0:0:0:0:
383,28,128706,1,8,0:0:0:0:
483,222,128854,1,0,0:0:0:0:
256,192,129001,85,2,1:2:0:0:
20,84,129297,22,0,P|50:78|91:73,1,55.7999982971192,4|0,0:3|3:0,0:0:0:0:
194,32,129592,2,0,P|166:28|139:22,1,55.7999982971192,0|0,0:0|3:0,0:0:0:0:
152,102,129888,5,8,0:0:0:0:
89,149,130036,2,0,P|107:222|114:268,1,111.599996594238
214,154,130479,2,0,P|231:113|232:93,1,55.7999982971192,4|0,0:3|0:0,0:0:0:0:
188,231,130774,101,10,0:0:0:0:
46,296,130922,1,0,0:0:0:0:
261,271,131070,1,8,0:0:0:0:
119,336,131218,1,2,0:0:0:0:
256,192,131366,101,0,1:0:0:0:
441,202,131661,6,0,P|436:174|429:130,1,55.7999982971192,4|0,0:3|3:0,0:0:0:0:
71,182,131957,2,0,P|76:210|83:254,1,55.7999982971192,0|0,0:0|3:0,0:0:0:0:
376,252,132252,5,8,0:0:0:0:
136,132,132400,1,4,3:2:0:0:
256,192,132474,12,0,135504,0:0:0:0:
