osu file format v14

[General]
AudioFilename: audio.mp3
AudioLeadIn: 0
PreviewTime: 37790
Countdown: 0
SampleSet: Soft
StackLeniency: 0.7
Mode: 0
LetterboxInBreaks: 0
WidescreenStoryboard: 1

[Editor]
Bookmarks: 2506,12325,21052,29779,38506,47234,55961,66870,67279,74506
DistanceSpacing: 1
BeatDivisor: 4
GridSize: 8
TimelineZoom: 1

[Metadata]
Title:FRAGMENT. (feat. A.Dokuga)
TitleUnicode:FRAGMENT. (feat. A.Dokuga)
Artist:P4koo
ArtistUnicode:P4koo
Creator:Mimari
Version:NORMAL.
Source:
Tags:japanese electronic featured artist fa mappers' guild bellicose reisevia roda totsuki
BeatmapID:2735333
BeatmapSetID:1320376

[Difficulty]
HPDrainRate:3.5
CircleSize:3
OverallDifficulty:4
ApproachRate:6
SliderMultiplier:1
SliderTickRate:1

[Events]
//Background and Video events
0,0,"thumb-1920-884373.png",0,0
//Break Periods
//Storyboard Layer 0 (Background)
//Storyboard Layer 1 (Fail)
//Storyboard Layer 2 (Pass)
//Storyboard Layer 3 (Foreground)
//Storyboard Layer 4 (Overlay)
//Storyboard Sound Samples

[TimingPoints]
1416,272.727272727272,4,2,0,65,1,0
2097,-100,4,2,1,65,0,0
2506,-100,4,2,1,80,0,0
6665,-100,4,2,1,5,0,0
6734,-100,4,2,1,80,0,0
10211,-100,4,2,1,5,0,0
10279,-100,4,2,1,80,0,0
10484,-100,4,2,1,5,0,0
10500,-100,4,2,1,5,0,0
10552,-100,4,2,1,80,0,0
10756,-100,4,2,1,5,0,0
10825,-100,4,2,1,80,0,0
11370,-100,4,2,1,50,0,0
12325,-111.111111111111,4,2,1,65,0,0
18870,-111.111111111111,4,2,1,50,0,0
21052,-111.111111111111,4,2,1,65,0,0
21325,-105.263157894737,4,2,1,65,0,0
27597,-111.111111111111,4,2,1,50,0,0
28961,-111.111111111111,4,2,1,65,0,0
29779,-100,4,2,1,70,0,0
34143,-100,4,2,1,75,0,0
37825,-100,4,2,1,100,0,0
37859,-100,4,2,1,5,0,0
38234,-100,4,2,1,60,0,0
38438,-100,4,2,1,5,0,0
38506,-100,4,2,1,90,0,0
55415,-100,4,2,1,60,0,0
55961,-100,4,2,1,80,0,0
63665,-100,4,2,1,5,0,0
63734,-100,4,2,1,80,0,0
63938,-100,4,2,1,5,0,0
64006,-100,4,2,1,80,0,0
64211,-100,4,2,1,5,0,0
64279,-100,4,2,1,80,0,0
64756,-100,4,2,1,5,0,0
64825,-100,4,2,1,80,0,0
65847,-100,4,2,1,5,0,0
65915,-100,4,2,1,80,0,0
67279,-153.846153846153,4,2,1,80,0,0
67347,-153.846153846153,4,2,1,50,0,0
69052,-153.846153846153,4,2,1,45,0,0
69597,-153.846153846153,4,2,1,40,0,0
70143,-153.846153846153,4,2,1,35,0,0
70688,-153.846153846153,4,2,1,20,0,0
71234,-153.846153846153,4,2,1,15,0,0
71779,-153.846153846153,4,2,1,10,0,0
72325,-153.846153846153,4,2,1,5,0,0

[Colours]
Combo1 : 232,163,94
Combo2 : 94,125,157
Combo3 : 190,135,135
Combo4 : 190,128,198

[HitObjects]
256,335,1415,5,2,0:3:0:0:
210,246,1688,1,2,0:3:0:0:
255,157,1961,2,0,L|311:175,1,50,2|0,0:3|3:2,0:0:0:0:
347,195,2234,1,8,0:0:0:0:
444,173,2506,6,0,P|470:131|452:69,1,100,6|10,3:2|0:0,0:0:0:0:
438,45,2915,1,2,0:0:0:0:
438,45,3052,2,0,L|376:60,1,50,2|2,3:2|3:2,0:0:0:0:
292,80,3461,2,0,L|180:61,1,100,2|0,3:2|3:2,0:0:0:0:
143,56,3870,1,8,0:0:0:0:
90,141,4143,2,0,L|106:206,1,50,0|0,3:2|3:2,0:0:0:0:
143,216,4415,1,8,0:0:0:0:
111,312,4688,6,0,P|160:335|227:334,1,100,2|10,3:2|0:0,0:0:0:0:
254,319,5097,1,2,0:0:0:0:
254,319,5234,2,0,L|275:252,1,50,2|2,3:2|3:2,0:0:0:0:
337,197,5643,2,0,P|325:138|320:91,1,100,2|0,3:2|3:2,0:0:0:0:
333,49,6052,1,8,0:0:0:0:
427,15,6325,2,0,P|435:43|439:69,1,50,0|8,3:2|3:0,0:0:0:0:
423,111,6597,1,8,0:0:0:0:
485,188,6870,6,0,B|475:237|475:237|476:244|476:244|463:309,1,100,6|10,3:2|0:0,0:0:0:0:
451,333,7279,1,2,0:0:0:0:
451,333,7415,2,0,L|390:348,1,50,2|2,3:2|3:2,0:0:0:0:
315,296,7825,2,0,P|243:278|210:279,1,100,2|0,3:2|3:2,0:0:0:0:
169,293,8234,1,8,0:0:0:0:
86,349,8506,2,0,L|67:294,1,50,0|0,3:2|3:2,0:0:0:0:
49,255,8779,1,8,0:0:0:0:
66,156,9052,6,0,P|109:134|180:138,1,100,6|10,3:2|0:0,0:0:0:0:
209,141,9461,1,2,0:0:0:0:
209,141,9597,2,0,L|222:196,1,50,2|2,3:2|3:2,0:0:0:0:
293,258,10006,5,6,3:2:0:0:
380,208,10279,1,14,3:2:0:0:
400,110,10552,1,14,3:2:0:0:
337,31,10825,1,14,3:2:0:0:
237,39,11097,1,8,3:0:0:0:
237,39,12325,6,0,L|140:24,1,89.9999972534181,6|10,3:2|0:0,0:0:0:0:
109,44,12734,1,0,0:0:0:0:
109,44,12870,1,2,3:2:0:0:
48,110,13143,1,10,0:0:0:0:
48,110,13279,2,0,P|35:151|53:202,1,89.9999972534181,2|0,0:0|0:0,0:0:0:0:
74,231,13688,1,8,0:0:0:0:
161,209,13961,1,2,0:0:0:0:
234,260,14234,1,10,0:0:0:0:
317,227,14506,6,0,P|357:216|411:239,1,89.9999972534181,2|10,3:2|0:0,0:0:0:0:
445,242,14915,2,0,L|426:338,1,89.9999972534181,2|0,0:0|3:2,0:0:0:0:
413,373,15325,1,8,0:0:0:0:
325,351,15597,2,0,L|268:360,1,44.999998626709,0|0,3:2|0:0,0:0:0:0:
236,367,15870,1,8,0:0:0:0:
148,346,16143,1,2,0:0:0:0:
63,316,16415,1,10,0:0:0:0:
53,226,16688,6,0,P|72:181|117:153,1,89.9999972534181,2|10,3:2|0:0,0:0:0:0:
147,144,17097,1,2,0:0:0:0:
118,58,17370,1,2,3:2:0:0:
196,13,17643,2,0,L|292:30,1,89.9999972534181,2|0,3:2|3:2,0:0:0:0:
329,35,18052,2,0,L|342:90,1,44.999998626709,10|0,0:0|3:2,0:0:0:0:
350,122,18325,1,2,3:2:0:0:
263,147,18597,1,10,0:0:0:0:
200,211,18870,6,0,P|174:262|311:217,2,359.999989013672,2|0|6,0:0|0:0|3:2,0:0:0:0:
263,147,21325,6,0,P|272:102|259:53,1,94.9999974632264,10|2,0:0|3:2,0:0:0:0:
177,7,21870,1,10,0:0:0:0:
177,7,22006,2,0,B|134:10|134:10|128:18|128:18|70:27,1,94.9999974632264,2|0,0:0|0:0,0:0:0:0:
39,34,22415,1,8,0:0:0:0:
79,119,22688,1,2,0:0:0:0:
38,204,22961,1,10,0:0:0:0:
87,285,23234,6,0,P|131:298|182:316,1,94.9999974632264,2|10,3:2|0:0,0:0:0:0:
211,347,23643,2,0,P|255:334|306:316,1,94.9999974632264,2|0,0:0|3:2,0:0:0:0:
345,335,24052,1,8,0:0:0:0:
419,275,24325,2,0,P|432:234|416:182,1,94.9999974632264,0|8,3:2|0:0,0:0:0:0:
389,147,24734,1,0,3:2:0:0:
389,147,24870,1,2,0:0:0:0:
298,161,25143,1,10,0:0:0:0:
298,161,25279,6,0,P|285:120|301:68,1,94.9999974632264,0|0,3:2|3:2,0:0:0:0:
374,12,25825,1,2,0:0:0:0:
465,37,26097,1,2,3:2:0:0:
483,130,26370,2,0,L|468:229,1,94.9999974632264,2|0,3:2|3:2,0:0:0:0:
495,315,26915,2,0,P|442:314|406:343,1,94.9999974632264,0|0,3:2|3:2,0:0:0:0:
378,374,27325,1,10,0:0:0:0:
288,317,27597,6,0,B|239:308|239:308|176:367|176:367|117:352,2,179.999994506836,2|0|0,0:0|0:0|0:0,0:0:0:0:
347,248,28961,2,0,P|356:208|337:163,1,89.9999972534181,2|2,0:0|1:2,0:0:0:0:
307,130,29370,1,0,1:0:0:0:
307,130,29506,2,0,L|245:140,1,44.999998626709,2|0,1:2|1:0,0:0:0:0:
223,168,29779,6,0,L|110:155,1,100,6|8,3:2|0:0,0:0:0:0:
73,149,30188,1,2,0:0:0:0:
28,59,30461,2,0,L|88:47,1,50,2|10,3:2|0:0,0:0:0:0:
120,23,30734,2,0,P|168:11|223:32,1,100,2|0,3:2|3:2,0:0:0:0:
254,57,31143,1,8,0:0:0:0:
346,19,31415,2,0,L|360:82,1,50,2|0,3:2|3:2,0:0:0:0:
374,114,31688,1,10,0:0:0:0:
374,114,31825,6,0,P|372:151|352:226,1,100,2|0,0:0|0:0,0:0:0:0:
257,206,32370,2,0,P|259:243|279:318,1,100,2|2,0:0|3:2,0:0:0:0:
307,341,32779,1,10,0:0:0:0:
307,341,32915,2,0,L|405:358,1,100,2|0,3:2|3:2,0:0:0:0:
451,336,33325,1,10,0:0:0:0:
492,245,33597,2,0,L|478:187,1,50,2|0,3:2|3:2,0:0:0:0:
449,156,33870,2,0,L|457:105,1,50,10|2,0:0|0:0,0:0:0:0:
465,57,34143,6,0,P|428:37|317:121,1,200,6|8,3:2|0:0,0:0:0:0:
352,211,34961,1,0,0:0:0:0:
294,292,35234,2,0,B|249:284|249:284|241:285|241:285|191:275,1,100,0|8,0:0|0:0,0:0:0:0:
122,344,35779,1,8,0:0:0:0:
34,294,36052,2,0,L|21:230,1,50,8|0,0:0|3:2,0:0:0:0:
40,197,36325,6,0,P|83:171|136:173,1,100,8|8,0:0|0:0,0:0:0:0:
173,199,36734,1,0,3:2:0:0:
173,199,36870,1,8,0:0:0:0:
254,141,37143,2,0,P|257:114|263:78,1,50,0|0,3:2|3:2,0:0:0:0:
225,55,37415,6,0,L|172:70,2,50,12|12|12,3:2|3:2|3:2,0:0:0:0:
251,12,37825,1,2,0:1:0:0:
476,145,38506,6,0,B|444:177|444:177|323:143,1,150,6|0,3:2|0:0,0:0:0:0:
292,147,39052,2,0,L|279:80,2,50,2|0|8,3:2|3:2|0:0,0:0:0:0:
276,194,39461,2,0,P|260:245|270:300,1,100,2|0,3:2|3:2,0:0:0:0:
301,325,39870,1,10,0:0:0:0:
396,356,40143,2,0,L|453:345,1,50,2|0,3:2|3:2,0:0:0:0:
487,320,40415,1,10,0:0:0:0:
487,320,40552,6,0,P|503:269|493:214,1,100,2|0,0:0|0:0,0:0:0:0:
411,171,41097,2,0,P|395:120|405:65,1,100,2|2,0:0|3:2,0:0:0:0:
427,31,41506,1,10,0:0:0:0:
427,31,41643,2,0,P|371:24|318:18,1,100,2|0,3:2|3:2,0:0:0:0:
283,42,42052,1,8,0:0:0:0:
183,34,42325,2,0,L|196:99,1,50,0|0,0:0|3:2,0:0:0:0:
208,130,42597,1,10,0:0:0:0:
289,187,42870,6,0,L|264:300,1,100,6|8,3:2|0:0,0:0:0:0:
250,332,43279,2,0,P|203:349|150:328,1,100,2|0,0:0|3:2,0:0:0:0:
119,300,43688,1,10,0:0:0:0:
119,300,43825,2,0,L|97:202,1,100,2|0,3:2|3:2,0:0:0:0:
51,182,44234,1,10,0:0:0:0:
16,88,44506,2,0,L|30:26,1,50,2|0,3:2|3:2,0:0:0:0:
71,15,44779,2,0,P|94:10|135:20,1,50,10|2,0:0|0:0,0:0:0:0:
161,41,45052,6,0,B|192:61|192:61|264:43,1,100,0|10,3:2|0:0,0:0:0:0:
301,30,45461,1,2,0:0:0:0:
280,127,45734,1,2,3:2:0:0:
252,222,46006,2,0,L|270:329,1,100,2|2,3:2|3:2,0:0:0:0:
303,356,46415,1,8,0:0:0:0:
402,365,46688,1,0,3:2:0:0:
485,310,46961,2,0,L|498:244,1,50,8|8,0:0|0:0,0:0:0:0:
499,210,47234,6,0,P|500:158|467:103,1,100,6|8,3:2|0:0,0:0:0:0:
436,90,47643,2,0,L|321:67,1,100,2|0,0:0|3:2,0:0:0:0:
288,61,48052,1,10,0:0:0:0:
290,55,48188,2,0,L|306:162,1,100,2|0,3:2|3:2,0:0:0:0:
317,202,48597,1,10,0:0:0:0:
242,265,48870,2,0,L|176:249,1,50,2|0,3:2|3:2,0:0:0:0:
144,243,49143,1,10,0:0:0:0:
144,243,49279,6,0,P|138:191|158:124,1,100,2|0,0:0|0:0,0:0:0:0:
105,53,49825,1,2,0:0:0:0:
196,13,50097,2,0,L|251:27,1,50,2|10,3:2|0:0,0:0:0:0:
272,67,50370,2,0,L|290:184,1,100,2|0,3:2|3:2,0:0:0:0:
269,212,50779,1,8,0:0:0:0:
186,268,51052,1,2,3:2:0:0:
229,357,51325,1,10,0:0:0:0:
327,344,51597,6,0,L|441:328,1,100,6|8,3:2|0:0,0:0:0:0:
483,247,52143,1,0,3:2:0:0:
410,178,52415,1,10,0:0:0:0:
410,178,52552,2,0,L|441:64,1,100,2|0,3:2|3:2,0:0:0:0:
411,37,52961,1,10,0:0:0:0:
314,9,53234,1,2,3:2:0:0:
271,97,53506,2,0,L|213:108,1,50,10|2,0:0|0:0,0:0:0:0:
172,116,53779,6,0,P|185:72|159:14,2,100,2|10|0,3:2|0:0|3:2,0:0:0:0:
132,146,54461,2,0,L|120:210,1,50,2|10,3:2|0:0,0:0:0:0:
117,245,54734,2,0,B|196:195|252:231|218:281|305:298|355:245,1,250,2|2,3:2|0:0,0:0:0:0:
185,375,55961,6,0,L|70:360,1,100,6|10,3:2|0:0,0:0:0:0:
45,342,56370,1,2,0:0:0:0:
45,342,56507,2,0,L|28:276,1,50,2|2,3:2|3:2,0:0:0:0:
10,195,56916,2,0,L|27:82,1,100,2|0,3:2|3:2,0:0:0:0:
36,47,57325,1,8,0:0:0:0:
130,12,57598,2,0,L|184:28,1,50,0|0,3:2|3:2,0:0:0:0:
223,49,57870,1,8,0:0:0:0:
319,21,58143,6,0,P|375:28|399:64,1,100,2|10,3:2|0:0,0:0:0:0:
413,109,58552,1,2,0:0:0:0:
413,109,58689,2,0,L|401:171,1,50,2|2,3:2|3:2,0:0:0:0:
343,237,59097,2,0,P|355:283|360:345,1,100,2|0,3:2|3:2,0:0:0:0:
336,380,59507,1,8,0:0:0:0:
243,342,59780,2,0,P|235:315|233:290,1,50,0|8,3:2|3:0,0:0:0:0:
238,243,60052,1,8,0:0:0:0:
282,153,60325,6,0,L|296:47,1,100,6|10,3:2|0:0,0:0:0:0:
259,18,60734,1,2,0:0:0:0:
259,18,60870,2,0,L|210:28,1,50,2|2,3:2|3:2,0:0:0:0:
138,98,61279,2,0,L|20:81,1,100,2|0,3:2|3:2,0:0:0:0:
14,127,61689,1,8,0:0:0:0:
73,206,61961,2,0,P|66:233|56:253,1,50,0|0,3:2|3:2,0:0:0:0:
18,285,62234,1,8,0:0:0:0:
101,339,62507,6,0,P|144:317|215:321,1,100,6|10,3:2|0:0,0:0:0:0:
244,324,62916,1,2,0:0:0:0:
244,324,63052,2,0,L|296:347,1,50,2|2,3:2|3:2,0:0:0:0:
377,296,63461,5,6,3:2:0:0:
301,230,63734,1,14,3:2:0:0:
378,166,64006,2,0,P|391:121|371:62,1,100,14|14,3:2|3:2,0:0:0:0:
292,17,64552,5,8,0:0:0:0:
225,92,64825,1,6,3:2:0:0:
146,23,65097,2,0,P|101:10|42:30,1,100,14|14,3:2|3:2,0:0:0:0:
13,117,65643,5,14,3:2:0:0:
94,174,65915,1,14,3:2:0:0:
17,238,66188,1,14,3:2:0:0:
96,299,66461,2,0,P|66:332|7:347,1,100,14|2,3:2|3:2,0:0:0:0:
94,174,67279,5,4,3:1:0:0:
256,192,67415,12,0,74506,0:0:0:0:
