osu file format v14

[General]
AudioFilename: audio.mp3
AudioLeadIn: 0
PreviewTime: 37790
Countdown: 0
SampleSet: Soft
StackLeniency: 0.7
Mode: 0
LetterboxInBreaks: 0
WidescreenStoryboard: 1

[Editor]
Bookmarks: 2506,12325,21052,29779,38506,47234,55961,66870,67279,74506
DistanceSpacing: 1
BeatDivisor: 4
GridSize: 8
TimelineZoom: 1.5

[Metadata]
Title:FRAGMENT. (feat. A.Dokuga)
TitleUnicode:FRAGMENT. (feat. A.Dokuga)
Artist:P4koo
ArtistUnicode:P4koo
Creator:Mimari
Version:INSANE.
Source:
Tags:japanese electronic featured artist fa mappers' guild bellicose reisevia roda totsuki
BeatmapID:2735332
BeatmapSetID:1320376

[Difficulty]
HPDrainRate:5
CircleSize:4
OverallDifficulty:8
ApproachRate:9
SliderMultiplier:1.5
SliderTickRate:1

[Events]
//Background and Video events
0,0,"thumb-1920-884373.png",0,0
//Break Periods
//Storyboard Layer 0 (Background)
//Storyboard Layer 1 (Fail)
//Storyboard Layer 2 (Pass)
//Storyboard Layer 3 (Foreground)
//Storyboard Layer 4 (Overlay)
//Storyboard Sound Samples

[TimingPoints]
1416,272.727272727272,4,2,0,65,1,0
2097,-100,4,2,1,65,0,0
2234,-111.111111111111,4,2,1,65,0,0
2506,-90.9090909090909,4,2,1,80,0,0
6665,-90.9090909090909,4,2,1,5,0,0
6734,-90.9090909090909,4,2,1,80,0,0
10211,-90.9090909090909,4,2,1,5,0,0
10279,-90.9090909090909,4,2,1,80,0,0
10484,-90.9090909090909,4,2,1,5,0,0
10552,-90.9090909090909,4,2,1,80,0,0
10756,-90.9090909090909,4,2,1,5,0,0
10825,-90.9090909090909,4,2,1,80,0,0
11370,-90.9090909090909,4,2,1,50,0,0
12325,-111.111111111111,4,2,1,65,0,0
18870,-133.333333333333,4,2,1,50,0,0
21052,-105.263157894737,4,2,1,65,0,0
27597,-133.333333333333,4,2,1,50,0,0
28961,-133.333333333333,4,2,1,65,0,0
29506,-111.111111111111,4,2,1,65,0,0
29779,-100,4,2,1,70,0,0
34143,-100,4,2,1,75,0,0
36325,-90.9090909090909,4,2,1,75,0,0
37825,-90.9090909090909,4,2,1,100,0,0
37859,-90.9090909090909,4,2,1,5,0,0
38234,-181.818181818181,4,2,1,60,0,0
38438,-181.818181818181,4,2,1,5,0,0
38506,-90.9090909090909,4,2,1,90,0,0
55415,-90.9090909090909,4,2,1,60,0,0
55961,-90.9090909090909,4,2,1,80,0,0
63665,-90.9090909090909,4,2,1,5,0,0
63734,-90.9090909090909,4,2,1,80,0,0
63938,-90.9090909090909,4,2,1,5,0,0
64006,-90.9090909090909,4,2,1,80,0,0
64211,-90.9090909090909,4,2,1,5,0,0
64279,-90.9090909090909,4,2,1,80,0,0
64552,-86.9565217391303,4,2,1,80,0,0
64756,-86.9565217391303,4,2,1,5,0,0
64825,-86.9565217391303,4,2,1,80,0,0
65643,-83.3333333333333,4,2,1,80,0,0
65847,-83.3333333333333,4,2,1,5,0,0
65915,-83.3333333333333,4,2,1,80,0,0
67279,-476.190476190476,4,2,1,80,0,0
67347,-476.190476190476,4,2,1,50,0,0
69052,-476.190476190476,4,2,1,45,0,0
69597,-476.190476190476,4,2,1,40,0,0
70143,-476.190476190476,4,2,1,35,0,0
70688,-476.190476190476,4,2,1,20,0,0
71234,-476.190476190476,4,2,1,15,0,0
71779,-476.190476190476,4,2,1,10,0,0
72325,-476.190476190476,4,2,1,5,0,0

[Colours]
Combo1 : 232,163,94
Combo2 : 94,125,157
Combo3 : 190,135,135
Combo4 : 190,128,198

[HitObjects]
47,331,1415,5,2,0:3:0:0:
65,326,1688,5,2,0:3:0:0:
85,320,1961,5,2,0:3:0:0:
165,351,2097,5,0,3:2:0:0:
176,355,2165,1,0,3:2:0:0:
186,358,2234,2,0,P|202:306|176:242,1,101.249996910095,8|0,0:0|0:0,0:0:0:0:
161,192,2506,6,0,L|71:213,1,82.5000025177003,6|2,3:2|0:0,0:0:0:0:
3,79,2779,1,10,0:0:0:0:
87,122,2915,1,2,0:0:0:0:
2,171,3052,1,2,3:2:0:0:
73,33,3188,2,0,L|178:57,1,82.5000025177003,2|8,3:2|0:0,0:0:0:0:
259,178,3461,6,0,B|307:192|345:164|325:149|365:108|421:131,1,165.000005035401,2|0,3:2|3:2,0:0:0:0:
488,235,3870,1,8,0:0:0:0:
400,208,4006,1,0,0:0:0:0:
473,69,4143,2,0,L|489:149,1,82.5000025177003,0|0,3:2|3:2,0:0:0:0:
428,284,4415,1,8,0:0:0:0:
424,297,4688,6,0,P|386:324|338:316,1,82.5000025177003,2|2,3:2|0:0,0:0:0:0:
235,222,4961,1,10,0:0:0:0:
319,243,5097,1,2,0:0:0:0:
255,306,5234,1,2,3:2:0:0:
297,162,5370,2,0,L|324:72,1,82.5000025177003,2|8,3:2|0:0,0:0:0:0:
219,14,5643,6,0,B|171:0|133:28|153:43|113:84|57:61,1,165.000005035401,2|0,3:2|3:2,0:0:0:0:
0,98,6052,1,8,0:0:0:0:
87,145,6188,1,2,3:2:0:0:
25,263,6325,2,0,L|8:158,1,82.5000025177003,0|8,3:2|3:0,0:0:0:0:
72,65,6597,1,8,0:0:0:0:
76,51,6870,6,0,P|116:45|168:17,1,82.5000025177003,6|2,3:2|0:0,0:0:0:0:
290,85,7143,1,10,0:0:0:0:
230,25,7279,1,2,0:0:0:0:
207,105,7415,1,2,3:2:0:0:
311,2,7552,2,0,P|348:19|388:25,1,82.5000025177003,2|8,3:2|0:0,0:0:0:0:
496,79,7825,6,0,P|436:87|376:170,1,165.000005035401,2|0,3:2|3:2,0:0:0:0:
409,259,8234,1,8,0:0:0:0:
472,187,8370,1,0,0:0:0:0:
376,166,8506,2,0,L|286:183,1,82.5000025177003,0|0,3:2|3:2,0:0:0:0:
272,300,8779,1,8,0:0:0:0:
278,315,9052,6,0,L|359:330,1,82.5000025177003,6|2,3:2|0:0,0:0:0:0:
204,260,9325,1,10,0:0:0:0:
229,372,9461,1,2,0:0:0:0:
275,213,9597,1,2,3:2:0:0:
158,327,9734,2,0,P|114:301|99:247,1,82.5000025177003,2|8,3:2|0:0,0:0:0:0:
183,180,10006,6,0,L|211:290,1,82.5000025177003,6|0,3:2|0:0,0:0:0:0:
112,102,10279,2,0,L|90:200,1,82.5000025177003,14|0,3:2|0:0,0:0:0:0:
239,56,10552,2,0,L|284:152,1,82.5000025177003,14|0,3:2|0:0,0:0:0:0:
60,2,10825,2,0,L|21:82,1,82.5000025177003,14|8,3:2|3:0,0:0:0:0:
30,94,11097,5,8,3:0:0:0:
443,39,12325,6,0,L|467:126,1,67.4999979400635,6|0,3:2|0:0,0:0:0:0:
493,184,12597,1,10,0:0:0:0:
408,210,12734,1,0,0:0:0:0:
471,272,12870,2,0,L|495:359,1,67.4999979400635,2|0,3:2|3:2,0:0:0:0:
408,377,13143,1,10,0:0:0:0:
408,377,13279,6,0,P|343:363|315:297,1,134.999995880127,2|0,0:0|0:0,0:0:0:0:
260,249,13688,2,0,P|266:199|279:163,1,67.4999979400635,8|0,0:0|3:2,0:0:0:0:
319,116,13961,2,0,P|313:66|300:30,1,67.4999979400635,2|0,0:0|3:2,0:0:0:0:
227,0,14234,1,10,0:0:0:0:
213,7,14506,6,0,L|132:20,1,67.4999979400635,2|0,3:2|0:0,0:0:0:0:
53,41,14779,1,10,0:0:0:0:
124,106,14915,2,0,B|156:146|156:146|115:250,1,134.999995880127,2|0,0:0|3:2,0:0:0:0:
41,265,15325,2,0,P|30:213|45:181,1,67.4999979400635,8|0,0:0|0:0,0:0:0:0:
116,308,15597,6,0,L|96:379,2,67.4999979400635,0|0|8,3:2|0:0|0:0,0:0:0:0:
125,223,16006,1,0,3:2:0:0:
188,356,16143,2,0,P|225:353|269:324,1,67.4999979400635,2|0,0:0|3:2,0:0:0:0:
319,267,16415,2,0,P|285:264|255:250,1,67.4999979400635,10|0,0:0|3:2,0:0:0:0:
193,138,16688,6,0,L|343:118,1,134.999995880127,2|10,3:2|0:0,0:0:0:0:
391,2,17097,2,0,P|346:29|334:59,1,67.4999979400635,2|0,0:0|3:2,0:0:0:0:
419,153,17370,2,0,P|419:100|399:74,1,67.4999979400635,2|8,3:2|0:0,0:0:0:0:
249,0,17643,6,0,L|275:159,1,134.999995880127,2|0,3:2|3:2,0:0:0:0:
382,220,18052,2,0,L|365:291,1,67.4999979400635,10|0,0:0|3:2,0:0:0:0:
293,355,18325,1,2,3:2:0:0:
266,261,18461,1,0,3:2:0:0:
376,364,18597,2,0,P|413:369|452:336,1,67.4999979400635,10|0,0:0|0:0,0:0:0:0:
512,243,18870,6,0,L|453:229,2,56.2500021457673,2|0|2,0:0|0:0|0:0,0:0:0:0:
362,174,19279,2,0,L|437:157,1,56.2500021457673,2|0,0:0|0:0,0:0:0:0:
512,101,19552,2,0,L|453:87,1,56.2500021457673,2|0,0:0|0:0,0:0:0:0:
350,23,19825,1,2,0:0:0:0:
350,23,19961,6,0,L|425:6,1,56.2500021457673,0|2,0:0|0:0,0:0:0:0:
285,78,20234,2,0,P|259:47|257:18,1,56.2500021457673,2|0,0:0|0:0,0:0:0:0:
360,109,20506,2,0,P|351:135|331:154,1,56.2500021457673,2|0,0:0|0:0,0:0:0:0:
264,209,20779,1,2,0:0:0:0:
264,209,20915,1,0,0:0:0:0:
167,85,21052,6,0,P|115:72|56:67,1,106.87499714613,6|0,3:2|0:0,0:0:0:0:
46,80,21325,2,0,L|65:163,1,71.2499980974198,10|0,0:0|0:0,0:0:0:0:
89,236,21597,1,2,3:2:0:0:
184,176,21734,2,0,L|168:245,1,71.2499980974198,0|10,3:2|0:0,0:0:0:0:
48,334,22006,6,0,B|124:313|102:381|207:335,1,142.49999619484,2|0,0:0|0:0,0:0:0:0:
302,304,22415,2,0,P|270:283|224:287,1,71.2499980974198,8|0,0:0|3:2,0:0:0:0:
353,372,22688,1,2,0:0:0:0:
379,265,22825,1,0,3:2:0:0:
432,340,22961,2,0,L|508:324,1,71.2499980974198,10|0,0:0|0:0,0:0:0:0:
426,189,23234,6,0,L|356:174,1,71.2499980974198,2|0,3:2|0:0,0:0:0:0:
510,130,23506,1,10,0:0:0:0:
427,55,23643,2,0,B|351:34|377:104|269:78,1,142.49999619484,2|0,0:0|3:2,0:0:0:0:
168,0,24052,2,0,P|212:17|231:47,1,71.2499980974198,8|0,0:0|0:0,0:0:0:0:
212,178,24325,6,0,L|190:89,1,71.2499980974198,0|0,3:2|0:0,0:0:0:0:
168,0,24597,1,8,0:0:0:0:
303,58,24734,1,0,3:2:0:0:
194,108,24870,2,0,P|157:111|107:92,1,71.2499980974198,2|0,0:0|3:2,0:0:0:0:
29,54,25143,1,10,0:0:0:0:
14,166,25279,6,0,L|53:314,1,142.49999619484,0|0,3:2|3:2,0:0:0:0:
136,375,25688,1,10,0:0:0:0:
196,285,25825,2,0,P|247:287|266:318,1,71.2499980974198,2|0,0:0|3:2,0:0:0:0:
177,178,26097,2,0,P|148:197|114:192,1,71.2499980974198,2|8,3:2|0:0,0:0:0:0:
251,107,26370,6,0,P|297:124|329:191,1,106.87499714613,2|0,3:2|0:0,0:0:0:0:
349,184,26643,2,0,L|332:262,1,71.2499980974198,0|10,3:2|0:0,0:0:0:0:
379,352,26915,1,0,3:2:0:0:
472,298,27052,2,0,L|460:214,1,71.2499980974198,2|0,3:2|3:2,0:0:0:0:
441,97,27325,1,10,0:0:0:0:
440,85,27597,6,0,P|433:51|436:17,1,56.2500021457673,2|0,0:0|0:0,0:0:0:0:
482,169,27870,1,2,0:0:0:0:
482,169,28006,2,0,P|448:176|414:173,1,56.2500021457673,2|0,0:0|0:0,0:0:0:0:
301,117,28279,2,0,P|329:116|356:123,1,56.2500021457673,2|0,0:0|0:0,0:0:0:0:
360,267,28552,1,2,0:0:0:0:
360,267,28688,6,0,P|353:233|356:199,1,56.2500021457673,0|2,0:0|0:0,0:0:0:0:
440,85,28961,2,0,P|446:57|446:29,1,56.2500021457673,2|0,0:0|0:0,0:0:0:0:
301,117,29234,1,2,1:2:0:0:
426,175,29370,1,0,1:0:0:0:
319,21,29506,2,0,L|232:35,1,67.4999979400635,2|0,1:2|1:0,0:0:0:0:
86,112,29779,6,0,B|144:119|144:119|170:144|170:144|239:154,1,150,6|8,3:2|0:0,0:0:0:0:
255,16,30188,2,0,P|219:45|214:81,1,75,2|2,0:0|3:2,0:0:0:0:
273,215,30461,1,2,3:2:0:0:
301,117,30597,1,10,0:0:0:0:
174,160,30734,2,0,P|191:243|195:315,1,150,2|0,3:2|3:2,0:0:0:0:
100,365,31143,6,0,P|61:352|23:340,1,75,8|0,0:0|0:0,0:0:0:0:
102,183,31415,2,0,P|138:171|174:160,1,75,2|0,3:2|3:2,0:0:0:0:
273,215,31688,1,10,0:0:0:0:
193,295,31825,6,0,B|267:289|249:352|344:334,1,150,2|0,0:0|0:0,0:0:0:0:
433,376,32234,1,8,0:0:0:0:
479,267,32370,2,0,L|500:173,1,75,2|2,0:0|3:2,0:0:0:0:
356,157,32643,1,2,3:2:0:0:
398,247,32779,1,10,0:0:0:0:
418,94,32915,6,0,P|369:71|281:102,1,150,2|0,3:2|3:2,0:0:0:0:
235,29,33325,2,0,B|188:69|188:69|218:168,2,150,10|2|10,0:0|3:2|0:0,0:0:0:0:
282,100,34006,1,2,0:0:0:0:
165,70,34143,5,6,3:2:0:0:
219,163,34279,2,0,L|192:323,1,150,0|0,3:2|3:2,0:0:0:0:
292,302,34688,2,0,L|310:218,1,75,8|0,0:0|3:2,0:0:0:0:
213,153,34961,5,0,0:0:0:0:
195,311,35097,2,0,P|201:347|212:383,1,75,8|0,0:0|0:0,0:0:0:0:
324,222,35370,1,0,3:2:0:0:
213,153,35506,2,0,L|128:175,1,75,8|0,0:0|3:2,0:0:0:0:
306,323,35779,2,0,L|391:345,1,75,8|0,0:0|3:2,0:0:0:0:
490,194,36052,1,8,0:0:0:0:
408,242,36188,1,0,3:2:0:0:
301,116,36325,6,0,P|295:73|285:28,1,82.5000025177003,8|0,0:0|3:2,0:0:0:0:
236,251,36597,2,0,P|227:291|221:332,1,82.5000025177003,8|0,0:0|3:2,0:0:0:0:
192,129,36870,5,8,0:0:0:0:
317,206,37006,1,0,3:2:0:0:
143,275,37143,2,0,L|65:246,1,82.5000025177003,0|0,3:2|3:2,0:0:0:0:
11,27,37415,5,12,3:2:0:0:
136,187,37552,1,12,3:2:0:0:
180,0,37688,1,12,3:2:0:0:
113,87,37825,1,2,0:1:0:0:
113,87,38234,6,0,P|145:94|177:100,1,61.8750018882752
227,153,38506,6,0,B|288:143|288:143|312:153|333:168|333:168|412:148,1,165.000005035401,6|8,3:2|0:0,0:0:0:0:
499,118,38915,1,0,0:0:0:0:
414,23,39052,2,0,P|370:38|348:78,1,82.5000025177003,2|0,3:2|3:2,0:0:0:0:
397,234,39325,1,8,0:0:0:0:
471,193,39461,6,0,B|410:183|410:183|386:193|365:208|365:208|286:188,1,165.000005035401,2|0,3:2|3:2,0:0:0:0:
208,234,39870,2,0,L|227:320,1,82.5000025177003,10|0,0:0|0:0,0:0:0:0:
292,384,40143,1,2,3:2:0:0:
314,282,40279,1,0,3:2:0:0:
379,354,40415,1,10,0:0:0:0:
408,263,40552,1,2,0:0:0:0:
225,314,40688,6,0,B|132:283|156:367|56:330,1,165.000005035401,0|8,3:2|0:0,0:0:0:0:
21,226,41097,2,0,P|57:227|99:278,1,82.5000025177003,2|0,0:0|3:2,0:0:0:0:
200,131,41370,1,2,3:2:0:0:
120,165,41506,1,10,0:0:0:0:
20,22,41643,6,0,P|90:24|194:74,1,165.000005035401,2|0,3:2|3:2,0:0:0:0:
277,155,42052,2,0,L|287:244,1,82.5000025177003,8|0,0:0|3:2,0:0:0:0:
384,84,42325,2,0,L|394:-5,1,82.5000025177003,0|0,0:0|3:2,0:0:0:0:
368,181,42597,1,10,0:0:0:0:
242,75,42734,1,8,3:0:0:0:
383,190,42870,6,0,P|445:192|481:97,1,165.000005035401,6|8,3:2|0:0,0:0:0:0:
466,0,43279,1,2,0:0:0:0:
320,27,43415,2,0,L|350:129,1,82.5000025177003,0|0,3:2|3:2,0:0:0:0:
404,198,43688,1,10,0:0:0:0:
289,280,43825,6,0,B|228:270|228:270|204:280|183:295|183:295|104:275,1,165.000005035401,2|0,3:2|3:2,0:0:0:0:
37,208,44234,2,0,P|98:195|127:187,1,82.5000025177003,10|0,0:0|0:0,0:0:0:0:
233,75,44506,1,2,3:2:0:0:
114,107,44643,1,0,3:2:0:0:
222,157,44779,1,10,0:0:0:0:
145,25,44915,6,0,P|84:26|26:117,1,165.000005035401,2|0,0:0|0:0,0:0:0:0:
37,208,45325,1,10,0:0:0:0:
132,269,45461,2,0,L|219:246,1,82.5000025177003,2|0,0:0|3:2,0:0:0:0:
114,378,45734,2,0,L|27:355,1,82.5000025177003,2|8,3:2|0:0,0:0:0:0:
125,247,46006,1,2,3:2:0:0:
215,346,46143,6,0,P|253:348|291:319,1,82.5000025177003,8|2,0:0|3:2,0:0:0:0:
273,145,46415,2,0,L|290:246,1,82.5000025177003,8|0,0:0|3:2,0:0:0:0:
353,372,46688,1,0,3:2:0:0:
380,241,46825,1,0,3:2:0:0:
458,360,46961,2,0,L|475:259,1,82.5000025177003,8|8,0:0|0:0,0:0:0:0:
480,247,47165,1,0,0:0:0:0:
480,247,47234,6,0,B|490:186|490:186|480:162|465:141|465:141|485:62,1,165.000005035401,6|8,3:2|0:0,0:0:0:0:
405,3,47643,1,2,0:0:0:0:
307,111,47779,2,0,L|387:93,1,82.5000025177003,0|0,3:2|3:2,0:0:0:0:
489,13,48052,1,10,0:0:0:0:
394,105,48188,6,0,P|334:91|223:75,1,165.000005035401,2|0,3:2|3:2,0:0:0:0:
114,10,48597,2,0,P|140:43|139:98,1,82.5000025177003,10|0,0:0|0:0,0:0:0:0:
10,186,48870,1,2,3:2:0:0:
64,77,49006,1,0,3:2:0:0:
162,191,49143,1,10,0:0:0:0:
143,82,49279,6,0,P|126:144|104:271,1,165.000005035401,2|0,0:0|0:0,0:0:0:0:
132,384,49688,1,8,0:0:0:0:
213,259,49825,2,0,P|252:237|311:246,1,82.5000025177003,2|0,0:0|3:2,0:0:0:0:
354,384,50097,1,2,3:2:0:0:
226,339,50234,1,10,0:0:0:0:
374,277,50370,6,0,P|388:197|400:109,1,165.000005035401,2|0,3:2|3:2,0:0:0:0:
254,9,50779,2,0,P|265:50|274:95,1,82.5000025177003,8|0,0:0|3:2,0:0:0:0:
241,227,51052,1,2,3:2:0:0:
370,180,51188,1,0,3:2:0:0:
273,89,51325,1,10,0:0:0:0:
294,170,51461,1,8,0:0:0:0:
353,33,51597,6,0,P|412:21|482:90,1,165.000005035401,6|8,3:2|0:0,0:0:0:0:
512,192,52006,1,2,0:0:0:0:
443,275,52143,2,0,L|340:254,1,82.5000025177003,0|0,3:2|3:2,0:0:0:0:
467,108,52415,1,10,0:0:0:0:
294,170,52552,6,0,P|312:226|336:346,1,165.000005035401,2|0,3:2|3:2,0:0:0:0:
234,376,52961,2,0,P|188:370|160:327,1,82.5000025177003,10|0,0:0|0:0,0:0:0:0:
208,190,53234,2,0,P|226:232|204:278,1,82.5000025177003,2|0,3:2|3:2,0:0:0:0:
74,378,53506,1,10,0:0:0:0:
34,221,53643,1,2,0:0:0:0:
165,344,53779,5,2,3:2:0:0:
208,190,53915,2,0,L|241:13,1,165.000005035401,0|0,3:2|0:0,0:0:0:0:
143,0,54325,1,0,3:2:0:0:
93,114,54461,1,2,3:2:0:0:
238,27,54597,2,0,L|344:47,1,82.5000025177003,10|2,0:0|3:2,0:0:0:0:
360,52,54802,1,0,0:0:0:0:
359,52,54870,5,8,3:0:0:0:
320,163,55006,1,8,3:0:0:0:
447,198,55143,1,4,3:0:0:0:
478,76,55279,1,4,3:0:0:0:
400,126,55415,5,2,0:0:0:0:
400,126,55961,6,0,P|357:135|310:147,1,82.5000025177003,6|2,3:2|0:0,0:0:0:0:
217,185,56234,1,10,0:0:0:0:
290,231,56370,1,2,0:0:0:0:
256,100,56507,1,2,3:2:0:0:
196,274,56643,2,0,L|225:371,1,82.5000025177003,2|8,3:2|0:0,0:0:0:0:
60,378,56915,6,0,P|90:304|90:200,1,165.000005035401,2|0,3:2|3:2,0:0:0:0:
73,108,57325,1,8,0:0:0:0:
11,212,57461,1,0,0:0:0:0:
148,146,57597,2,0,P|160:93|176:46,1,82.5000025177003,0|0,3:2|3:2,0:0:0:0:
247,4,57870,1,8,0:0:0:0:
260,9,58143,6,0,P|302:14|336:52,1,82.5000025177003,2|2,3:2|0:0,0:0:0:0:
305,188,58416,1,10,0:0:0:0:
267,86,58552,1,2,0:0:0:0:
366,115,58689,1,2,3:2:0:0:
219,160,58825,2,0,L|133:133,1,82.5000025177003,2|8,3:2|0:0,0:0:0:0:
268,290,59098,6,0,B|316:304|354:276|334:261|374:220|430:243,1,165.000005035401,2|0,3:2|3:2,0:0:0:0:
496,357,59507,1,8,0:0:0:0:
404,321,59643,1,2,3:2:0:0:
490,188,59780,2,0,L|503:269,1,82.5000025177003,0|8,3:2|3:0,0:0:0:0:
356,381,60052,1,8,0:0:0:0:
343,380,60325,6,0,L|256:362,1,82.5000025177003,6|2,3:2|0:0,0:0:0:0:
161,340,60598,1,10,0:0:0:0:
272,253,60734,1,2,0:0:0:0:
262,363,60870,1,2,3:2:0:0:
177,228,61006,2,0,P|169:181|192:140,1,82.5000025177003,2|8,3:2|0:0,0:0:0:0:
124,30,61279,6,0,B|172:16|210:44|190:59|230:100|286:77,1,165.000005035401,2|0,3:2|3:2,0:0:0:0:
405,78,61689,1,8,0:0:0:0:
329,13,61825,1,0,0:0:0:0:
348,144,61961,2,0,L|328:245,1,82.5000025177003,0|0,3:2|3:2,0:0:0:0:
270,81,62234,1,8,0:0:0:0:
264,68,62507,6,0,P|228:50|183:53,1,82.5000025177003,6|2,3:2|0:0,0:0:0:0:
83,175,62779,1,10,0:0:0:0:
211,130,62915,1,2,0:0:0:0:
92,70,63052,1,2,3:2:0:0:
180,210,63188,2,0,P|220:211|257:193,1,82.5000025177003,2|8,3:2|0:0,0:0:0:0:
108,261,63461,6,0,L|86:364,1,82.5000025177003,6|0,3:2|0:0,0:0:0:0:
228,290,63734,2,0,L|206:393,1,82.5000025177003,14|0,3:2|0:0,0:0:0:0:
401,128,64006,2,0,L|423:231,1,82.5000025177003,14|0,3:2|0:0,0:0:0:0:
281,157,64279,2,0,L|303:260,1,82.5000025177003,14|8,3:2|3:0,0:0:0:0:
163,81,64552,6,0,P|165:35|206:-7,1,86.2500016450882,8|0,0:0|0:0,0:0:0:0:
281,157,64825,1,6,3:2:0:0:
281,157,64893,1,0,3:2:0:0:
281,157,64961,1,0,3:2:0:0:
173,211,65097,2,0,L|72:232,1,86.2500016450882,14|0,3:2|0:0,0:0:0:0:
252,66,65370,2,0,L|351:84,1,86.2500016450882,14|0,3:2|0:0,0:0:0:0:
426,163,65643,6,0,P|424:209|372:253,1,89.9999972534181,14|0,3:2|3:2,0:0:0:0:
342,90,65915,1,14,3:2:0:0:
342,90,65984,1,0,3:2:0:0:
342,90,66052,1,0,3:2:0:0:
437,50,66188,2,0,L|499:68,2,44.999998626709,14|0|0,3:2|3:2|3:2,0:0:0:0:
351,179,66461,2,0,L|289:197,2,44.999998626709,14|0|0,3:2|3:2|3:2,0:0:0:0:
456,324,66734,1,2,3:2:0:0:
99,69,67279,6,0,B|249:42|249:42|304:31|322:114|261:123|261:123|49:166|49:166|-9:177|8:265|71:246|71:246|257:208,1,834.749974525452,4|0,3:1|0:0,0:0:0:0:
