osu file format v14

[General]
AudioFilename: audio.mp3
AudioLeadIn: 0
PreviewTime: 37790
Countdown: 0
SampleSet: Soft
StackLeniency: 0.7
Mode: 0
LetterboxInBreaks: 0
WidescreenStoryboard: 1

[Editor]
Bookmarks: 2506,12325,21052,29779,38506,47234,55961,66870,67279,74506
DistanceSpacing: 1
BeatDivisor: 4
GridSize: 8
TimelineZoom: 1

[Metadata]
Title:FRAGMENT. (feat. A.Dokuga)
TitleUnicode:FRAGMENT. (feat. A.Dokuga)
Artist:P4koo
ArtistUnicode:P4koo
Creator:Mimari
Version:HARD.
Source:
Tags:japanese electronic featured artist fa mappers' guild bellicose reisevia roda totsuki
BeatmapID:2735331
BeatmapSetID:1320376

[Difficulty]
HPDrainRate:4.5
CircleSize:3.5
OverallDifficulty:6
ApproachRate:8
SliderMultiplier:1.3
SliderTickRate:1

[Events]
//Background and Video events
0,0,"thumb-1920-884373.png",0,0
//Break Periods
//Storyboard Layer 0 (Background)
//Storyboard Layer 1 (Fail)
//Storyboard Layer 2 (Pass)
//Storyboard Layer 3 (Foreground)
//Storyboard Layer 4 (Overlay)
//Storyboard Sound Samples

[TimingPoints]
1416,272.727272727272,4,2,0,65,1,0
2097,-100,4,2,1,65,0,0
2506,-100,4,2,1,80,0,0
6665,-100,4,2,1,5,0,0
6734,-100,4,2,1,80,0,0
6750,-100,4,2,1,80,0,0
10211,-100,4,2,1,5,0,0
10279,-100,4,2,1,80,0,0
10484,-100,4,2,1,5,0,0
10552,-100,4,2,1,80,0,0
10756,-100,4,2,1,5,0,0
10825,-100,4,2,1,80,0,0
11370,-100,4,2,1,50,0,0
12325,-111.111111111111,4,2,1,65,0,0
18870,-125,4,2,1,50,0,0
21052,-100,4,2,1,65,0,0
27597,-125,4,2,1,50,0,0
28961,-125,4,2,1,65,0,0
29779,-100,4,2,1,70,0,0
34143,-100,4,2,1,75,0,0
37143,-90.9090909090909,4,2,1,75,0,0
37825,-90.9090909090909,4,2,1,100,0,0
37859,-90.9090909090909,4,2,1,5,0,0
38234,-90.9090909090909,4,2,1,60,0,0
38438,-90.9090909090909,4,2,1,5,0,0
38506,-90.9090909090909,4,2,1,90,0,0
55415,-90.9090909090909,4,2,1,60,0,0
55961,-100,4,2,1,80,0,0
63665,-100,4,2,1,5,0,0
63734,-100,4,2,1,80,0,0
63938,-100,4,2,1,5,0,0
64006,-100,4,2,1,80,0,0
64211,-100,4,2,1,5,0,0
64279,-100,4,2,1,80,0,0
64756,-100,4,2,1,5,0,0
64825,-100,4,2,1,80,0,0
65847,-100,4,2,1,5,0,0
65915,-100,4,2,1,80,0,0
67279,-285.714285714286,4,2,1,80,0,0
67347,-285.714285714286,4,2,1,50,0,0
69052,-285.714285714286,4,2,1,45,0,0
69597,-285.714285714286,4,2,1,40,0,0
70143,-285.714285714286,4,2,1,35,0,0
70688,-285.714285714286,4,2,1,20,0,0
71234,-285.714285714286,4,2,1,15,0,0
71779,-285.714285714286,4,2,1,10,0,0
72325,-285.714285714286,4,2,1,5,0,0

[Colours]
Combo1 : 232,163,94
Combo2 : 94,125,157
Combo3 : 190,135,135
Combo4 : 190,128,198

[HitObjects]
377,338,1415,5,2,0:3:0:0:
337,257,1688,1,2,0:3:0:0:
390,185,1961,2,0,P|420:179|460:192,1,65,2|0,0:3|3:2,0:0:0:0:
471,215,2165,1,0,3:2:0:0:
471,215,2234,1,8,0:0:0:0:
306,174,2506,6,0,L|291:27,1,130,6|10,3:2|0:0,0:0:0:0:
206,70,2915,1,2,0:0:0:0:
206,70,3052,1,2,3:2:0:0:
131,18,3188,2,0,P|95:19|67:35,1,65,2|8,3:2|0:0,0:0:0:0:
18,125,3461,6,0,B|65:131|65:131|88:155|88:155|156:165,1,130,2|0,3:2|3:2,0:0:0:0:
219,229,3870,2,0,L|232:305,1,65,8|0,0:0|0:0,0:0:0:0:
128,293,4143,2,0,L|117:357,1,65,0|0,3:2|3:2,0:0:0:0:
219,384,4415,1,8,0:0:0:0:
219,384,4688,6,0,P|279:375|331:313,1,130,2|10,3:2|0:0,0:0:0:0:
416,367,5097,1,2,0:0:0:0:
416,367,5234,1,2,3:2:0:0:
487,302,5370,2,0,L|474:219,1,65,2|8,3:2|0:0,0:0:0:0:
494,125,5643,6,0,B|447:131|447:131|424:155|424:155|356:165,1,130,2|0,3:2|3:2,0:0:0:0:
287,121,6052,2,0,P|283:85|314:47,1,65,8|2,0:0|3:2,0:0:0:0:
385,76,6325,2,0,P|412:52|461:55,1,65,0|8,3:2|3:0,0:0:0:0:
494,125,6597,1,8,0:0:0:0:
494,125,6870,6,0,L|469:273,1,130,6|10,3:2|0:0,0:0:0:0:
445,341,7279,1,2,0:0:0:0:
447,347,7415,1,2,3:2:0:0:
354,323,7552,2,0,P|333:297|326:266,1,65,2|8,3:2|0:0,0:0:0:0:
373,195,7825,6,0,B|304:188|324:239|242:233,1,130,2|0,3:2|3:2,0:0:0:0:
190,179,8234,2,0,L|210:97,1,65,8|0,0:0|0:0,0:0:0:0:
94,108,8506,2,0,L|74:26,1,65,0|0,3:2|3:2,0:0:0:0:
197,2,8779,1,8,0:0:0:0:
197,2,9052,6,0,P|257:11|309:73,1,130,6|10,3:2|0:0,0:0:0:0:
281,160,9461,1,2,0:0:0:0:
281,160,9597,1,2,3:2:0:0:
211,90,9734,1,2,3:2:0:0:
211,90,10006,5,6,3:2:0:0:
363,45,10279,1,14,3:2:0:0:
412,193,10552,1,14,3:2:0:0:
255,244,10825,1,14,3:2:0:0:
311,140,11097,5,8,3:0:0:0:
311,140,12325,6,0,L|338:261,1,116.999996429443,6|10,3:2|0:0,0:0:0:0:
421,292,12734,1,0,0:0:0:0:
421,292,12870,2,0,L|409:364,1,58.4999982147217,2|0,3:2|3:2,0:0:0:0:
330,380,13143,1,10,0:0:0:0:
330,380,13279,6,0,P|270:356|202:355,1,116.999996429443,2|0,0:0|0:0,0:0:0:0:
190,271,13688,2,0,P|152:293|137:328,1,58.4999982147217,8|0,0:0|3:2,0:0:0:0:
62,270,13961,2,0,P|49:312|63:347,1,58.4999982147217,2|0,0:0|3:2,0:0:0:0:
116,384,14234,1,10,0:0:0:0:
116,384,14506,6,0,L|247:360,1,116.999996429443,2|10,3:2|0:0,0:0:0:0:
296,301,14915,1,2,0:0:0:0:
296,301,15051,2,0,L|308:229,1,58.4999982147217,0|0,3:2|3:2,0:0:0:0:
368,180,15325,1,8,0:0:0:0:
368,180,15597,6,0,P|372:119|334:55,1,116.999996429443,0|8,3:2|0:0,0:0:0:0:
282,19,16006,1,0,3:2:0:0:
282,19,16143,2,0,L|217:29,1,58.4999982147217,2|0,0:0|3:2,0:0:0:0:
154,77,16415,2,0,L|89:67,1,58.4999982147217,10|0,0:0|3:2,0:0:0:0:
25,1,16688,6,0,P|0:53|5:111,1,116.999996429443,2|10,3:2|0:0,0:0:0:0:
55,173,17097,2,0,L|127:153,1,58.4999982147217,2|0,0:0|3:2,0:0:0:0:
184,208,17370,2,0,L|254:225,1,58.4999982147217,2|8,3:2|0:0,0:0:0:0:
311,167,17643,6,0,P|386:174|409:220,1,116.999996429443,2|0,3:2|3:2,0:0:0:0:
423,296,18052,1,10,0:0:0:0:
265,327,18325,1,2,3:2:0:0:
311,167,18597,1,10,0:0:0:0:
332,260,18870,6,0,L|345:320,2,52,2|0|2,0:0|0:0|0:0,0:0:0:0:
249,235,19279,2,0,L|130:215,2,104,2|2|2,0:0|0:0|0:0,0:0:0:0:
311,167,19961,1,0,0:0:0:0:
311,167,20234,6,0,L|299:116,2,52,2|0|2,0:0|0:0|0:0,0:0:0:0:
332,260,20643,1,0,0:0:0:0:
332,260,20779,2,0,L|343:310,1,52,2|0,0:0|0:0,0:0:0:0:
450,357,21052,6,0,P|477:318|456:248,1,97.5,6|0,3:2|0:0,0:0:0:0:
463,248,21325,2,0,L|440:175,1,65,10|0,0:0|0:0,0:0:0:0:
435,88,21597,2,0,P|468:88|500:113,2,65,2|0|10,3:2|3:2|0:0,0:0:0:0:
365,145,22006,2,0,B|318:151|318:151|295:175|295:175|227:185,1,130,2|0,0:0|0:0,0:0:0:0:
173,137,22415,6,0,L|191:52,1,65,8|0,0:0|3:2,0:0:0:0:
96,101,22688,2,0,L|114:16,1,65,2|0,0:0|3:2,0:0:0:0:
21,65,22961,2,0,L|39:-20,1,65,10|0,0:0|0:0,0:0:0:0:
96,101,23234,6,0,P|110:166|98:237,1,130,2|10,3:2|0:0,0:0:0:0:
72,305,23643,1,2,0:0:0:0:
72,305,23779,2,0,L|9:323,1,65,0|0,3:2|3:2,0:0:0:0:
112,379,24052,1,8,0:0:0:0:
112,379,24325,6,0,L|256:338,1,130,0|8,3:2|0:0,0:0:0:0:
319,312,24734,1,0,3:2:0:0:
319,312,24870,2,0,P|333:274|322:239,1,65,2|0,0:0|3:2,0:0:0:0:
315,163,25143,1,10,0:0:0:0:
315,163,25279,6,0,B|362:169|362:169|385:193|385:193|453:203,1,130,0|0,3:2|3:2,0:0:0:0:
500,148,25688,1,10,0:0:0:0:
500,148,25825,2,0,L|485:70,1,65,2|0,0:0|3:2,0:0:0:0:
413,21,26097,2,0,L|398:99,1,65,2|8,3:2|0:0,0:0:0:0:
317,37,26370,1,2,3:2:0:0:
317,37,26643,6,0,P|267:25|200:71,1,130,0|0,3:2|3:2,0:0:0:0:
174,154,27052,1,2,3:2:0:0:
174,154,27188,1,0,3:2:0:0:
267,183,27325,2,0,L|278:95,1,65,10|0,0:0|0:0,0:0:0:0:
203,64,27597,6,0,B|82:38|121:121|-2:83,2,208,2|0|0,0:0|0:0|0:0,0:0:0:0:
267,183,28961,5,2,0:0:0:0:
165,249,29234,2,0,L|104:238,1,52,2|0,1:2|1:0,0:0:0:0:
148,328,29506,2,0,L|87:317,1,52,2|0,1:2|1:0,0:0:0:0:
226,373,29779,6,0,B|273:367|273:367|296:343|296:343|364:333,1,130,6|8,3:2|0:0,0:0:0:0:
429,365,30188,1,2,0:0:0:0:
429,365,30325,2,0,L|448:279,1,65,2|2,3:2|3:2,0:0:0:0:
404,222,30597,1,10,0:0:0:0:
511,171,30734,6,0,B|462:163|462:163|439:139|439:139|392:133,1,130,2|0,3:2|3:2,0:0:0:0:
356,57,31143,2,0,P|329:76|313:105,1,65,8|0,0:0|0:0,0:0:0:0:
233,71,31415,2,0,P|226:103|235:135,1,65,2|0,3:2|3:2,0:0:0:0:
309,188,31688,1,10,0:0:0:0:
309,188,31825,6,0,B|260:169|260:169|174:197,1,130,2|0,0:0|0:0,0:0:0:0:
112,227,32234,1,8,0:0:0:0:
112,227,32370,2,0,L|96:295,1,65,2|2,0:0|3:2,0:0:0:0:
2,304,32643,2,0,L|16:240,1,65,2|10,3:2|0:0,0:0:0:0:
6,139,32915,6,0,P|67:145|120:96,1,130,2|0,3:2|3:2,0:0:0:0:
157,34,33325,1,10,0:0:0:0:
11,8,33597,2,0,L|47:75,1,65,2|0,3:2|3:2,0:0:0:0:
116,102,33870,2,0,L|152:169,1,65,10|2,0:0|0:0,0:0:0:0:
232,189,34143,6,0,B|304:175|290:224|368:199,1,130,6|8,3:2|0:0,0:0:0:0:
428,156,34552,1,0,3:2:0:0:
428,156,34688,2,0,P|440:112|400:43,2,130,8|0|0,0:0|0:0|0:0,0:0:0:0:
434,241,35370,1,0,3:2:0:0:
434,241,35506,2,0,L|503:226,1,65,8|0,0:0|3:2,0:0:0:0:
500,319,35779,6,0,L|436:332,1,65,8|0,0:0|3:2,0:0:0:0:
345,367,36052,1,8,0:0:0:0:
345,367,36188,1,0,3:2:0:0:
318,268,36325,6,0,L|333:184,1,65,8|0,0:0|3:2,0:0:0:0:
227,185,36597,2,0,L|212:101,1,65,8|0,0:0|3:2,0:0:0:0:
300,48,36870,5,8,0:0:0:0:
300,48,37006,1,0,3:2:0:0:
193,11,37143,2,0,P|153:6|108:45,1,71.5000021820069,0|0,3:2|3:2,0:0:0:0:
61,88,37415,5,12,3:2:0:0:
97,166,37552,1,12,3:2:0:0:
51,242,37688,2,0,L|69:321,1,71.5000021820069,12|2,3:2|0:1,0:0:0:0:
425,349,38506,6,0,B|431:294|431:294|455:273|455:273|466:200,1,143.000004364014,6|8,3:2|0:0,0:0:0:0:
507,137,38915,1,0,0:0:0:0:
452,67,39052,2,0,P|403:108|307:92,1,143.000004364014,2|8,3:2|0:0,0:0:0:0:
230,17,39461,2,0,P|290:37|326:128,1,143.000004364014,2|0,3:2|3:2,0:0:0:0:
286,206,39870,1,10,0:0:0:0:
286,206,40143,6,0,L|300:286,1,71.5000021820069,2|0,3:2|3:2,0:0:0:0:
380,338,40415,1,10,0:0:0:0:
288,381,40552,2,0,B|232:372|232:372|211:348|211:348|156:342,1,143.000004364014,2|0,0:0|0:0,0:0:0:0:
69,362,40961,1,8,0:0:0:0:
69,362,41097,6,0,L|48:273,1,71.5000021820069,2|0,0:0|3:2,0:0:0:0:
25,201,41370,1,2,3:2:0:0:
119,230,41506,1,10,0:0:0:0:
195,169,41643,6,0,P|211:103|177:21,1,143.000004364014,2|0,3:2|3:2,0:0:0:0:
97,8,42052,2,0,P|62:17|12:29,1,71.5000021820069,8|0,0:0|3:2,0:0:0:0:
51,111,42325,2,0,P|85:102|120:93,1,71.5000021820069,0|0,0:0|3:2,0:0:0:0:
195,169,42597,1,10,0:0:0:0:
195,169,42870,6,0,B|250:175|250:175|271:199|271:199|344:210,1,143.000004364014,6|8,3:2|0:0,0:0:0:0:
369,278,43279,2,0,P|451:251|510:239,1,143.000004364014,2|0,0:0|3:2,0:0:0:0:
512,159,43688,1,10,0:0:0:0:
417,124,43825,2,0,P|375:61|410:-15,1,143.000004364014,2|0,3:2|3:2,0:0:0:0:
452,52,44234,6,0,L|357:69,1,71.5000021820069,10|0,0:0|0:0,0:0:0:0:
316,135,44506,2,0,L|221:152,1,71.5000021820069,2|0,3:2|3:2,0:0:0:0:
163,91,44779,1,10,0:0:0:0:
222,14,44915,2,0,P|253:73|236:164,1,143.000004364014,2|0,0:0|0:0,0:0:0:0:
199,228,45325,1,10,0:0:0:0:
281,274,45461,6,0,L|366:255,1,71.5000021820069,2|0,0:0|3:2,0:0:0:0:
375,350,45734,2,0,L|305:365,1,71.5000021820069,2|8,3:2|0:0,0:0:0:0:
198,325,46006,2,0,B|112:306|146:373|41:346,1,143.000004364014,2|2,3:2|3:2,0:0:0:0:
9,287,46415,5,8,0:0:0:0:
104,253,46552,1,0,3:2:0:0:
31,191,46688,2,0,P|22:152|47:97,1,71.5000021820069,0|0,3:2|3:2,0:0:0:0:
68,43,46961,2,0,P|99:18|160:19,1,71.5000021820069,8|8,0:0|0:0,0:0:0:0:
156,26,47165,1,0,0:0:0:0:
156,26,47234,6,0,B|162:81|162:81|186:102|186:102|197:175,1,143.000004364014,6|8,3:2|0:0,0:0:0:0:
281,150,47643,2,0,B|275:205|275:205|251:226|251:226|240:299,1,143.000004364014,2|0,0:0|3:2,0:0:0:0:
284,365,48052,1,10,0:0:0:0:
339,286,48188,2,0,P|384:271|459:322,1,143.000004364014,2|0,3:2|3:2,0:0:0:0:
388,347,48597,6,0,L|414:259,1,71.5000021820069,10|0,0:0|0:0,0:0:0:0:
479,220,48870,2,0,L|453:132,1,71.5000021820069,2|0,3:2|3:2,0:0:0:0:
386,101,49143,1,10,0:0:0:0:
439,37,49279,2,0,B|353:18|387:85|282:58,1,143.000004364014,2|0,0:0|0:0,0:0:0:0:
217,47,49688,1,8,0:0:0:0:
217,47,49825,6,0,B|125:23|125:23|82:52,1,143.000004364014,2|2,0:0|3:2,0:0:0:0:
11,118,50234,1,10,0:0:0:0:
84,187,50370,2,0,B|123:213|123:213|215:189,1,143.000004364014,2|0,3:2|3:2,0:0:0:0:
270,129,50779,2,0,P|215:108|186:113,1,71.5000021820069,8|0,0:0|3:2,0:0:0:0:
216,188,51052,2,0,P|161:211|144:234,1,71.5000021820069,2|0,3:2|3:2,0:0:0:0:
178,304,51325,1,10,0:0:0:0:
178,304,51597,6,0,B|233:310|233:310|254:334|254:334|327:345,1,143.000004364014,6|8,3:2|0:0,0:0:0:0:
401,326,52006,1,2,0:0:0:0:
401,326,52143,2,0,P|396:289|388:245,1,71.5000021820069,0|0,3:2|3:2,0:0:0:0:
444,186,52415,1,10,0:0:0:0:
491,106,52552,6,0,P|424:99|324:84,1,143.000004364014,2|0,3:2|3:2,0:0:0:0:
290,27,52961,2,0,B|320:3|320:3|373:6,1,71.5000021820069,10|0,0:0|0:0,0:0:0:0:
349,88,53234,2,0,L|330:166,1,71.5000021820069,2|0,3:2|3:2,0:0:0:0:
306,245,53506,1,10,0:0:0:0:
306,245,53643,1,2,0:0:0:0:
267,335,53779,6,0,B|187:316|210:370|119:344,1,143.000004364014,2|10,3:2|0:0,0:0:0:0:
33,308,54188,1,0,0:0:0:0:
104,236,54325,2,0,L|181:259,1,71.5000021820069,0|2,3:2|3:2,0:0:0:0:
104,147,54597,2,0,L|35:167,1,71.5000021820069,10|2,0:0|3:2,0:0:0:0:
11,147,54802,1,0,0:0:0:0:
11,147,54870,6,0,L|26:67,2,71.5000021820069,8|8|4,3:0|3:0|3:0,0:0:0:0:
0,237,55279,1,4,3:0:0:0:
0,237,55415,1,2,0:0:0:0:
248,335,55961,6,0,B|317:310|310:374|403:340,1,130,6|10,3:2|0:0,0:0:0:0:
470,315,56370,1,2,0:0:0:0:
470,315,56507,1,2,3:2:0:0:
390,246,56643,2,0,L|409:163,1,65,2|8,3:2|0:0,0:0:0:0:
413,91,56916,6,0,B|366:97|366:97|343:121|343:121|275:131,1,130,2|0,3:2|3:2,0:0:0:0:
208,150,57325,2,0,P|207:113|218:85,1,65,8|0,0:0|0:0,0:0:0:0:
171,18,57597,2,0,P|204:2|233:1,1,65,0|0,3:2|3:2,0:0:0:0:
298,50,57870,1,8,0:0:0:0:
298,50,58143,6,0,L|438:29,1,130,2|10,3:2|0:0,0:0:0:0:
494,87,58552,1,2,0:0:0:0:
494,87,58689,1,2,3:2:0:0:
448,165,58825,2,0,L|437:229,1,65,2|8,3:2|0:0,0:0:0:0:
492,306,59098,6,0,B|445:312|445:312|422:336|422:336|354:346,1,130,2|0,3:2|3:2,0:0:0:0:
300,309,59506,2,0,L|318:219,1,65,8|2,0:0|3:2,0:0:0:0:
230,190,59779,2,0,L|217:253,1,65,0|8,3:2|3:0,0:0:0:0:
197,375,60052,1,8,0:0:0:0:
197,375,60325,6,0,P|130:336|66:331,1,130,6|10,3:2|0:0,0:0:0:0:
14,267,60734,1,2,0:0:0:0:
14,267,60870,1,2,3:2:0:0:
92,208,61007,2,0,P|113:182|120:151,1,65,2|8,3:2|0:0,0:0:0:0:
70,79,61279,6,0,B|117:85|117:85|140:109|140:109|208:119,1,130,2|0,3:2|3:2,0:0:0:0:
283,133,61689,2,0,L|263:51,1,65,8|0,0:0|0:0,0:0:0:0:
345,25,61961,2,0,L|360:88,1,65,0|0,3:2|3:2,0:0:0:0:
390,176,62234,1,8,0:0:0:0:
390,176,62506,6,0,P|380:227|354:315,1,130,6|10,3:2|0:0,0:0:0:0:
281,354,62916,1,2,0:0:0:0:
281,354,63052,1,2,3:2:0:0:
277,257,63189,1,2,3:2:0:0:
430,347,63461,6,0,L|506:326,1,65,6|0,3:2|0:0,0:0:0:0:
509,189,63734,1,14,3:2:0:0:
358,102,64007,1,14,3:2:0:0:
277,257,64280,1,14,3:2:0:0:
395,253,64552,6,0,L|405:172,1,65,8|0,0:0|0:0,0:0:0:0:
462,83,64825,1,6,3:2:0:0:
327,0,65098,1,14,3:2:0:0:
259,143,65371,1,14,3:2:0:0:
370,90,65643,6,0,L|295:77,1,65,14|0,3:2|3:2,0:0:0:0:
189,57,65915,1,14,3:2:0:0:
67,163,66188,1,14,3:2:0:0:
239,238,66461,1,14,3:2:0:0:
132,352,66734,5,2,3:2:0:0:
132,352,67279,6,0,B|91:384|18:374|-13:294|84:221|156:274|156:274|157:272|173:289|198:307|220:322|252:319|279:314|305:293|334:259|357:202|324:132|234:106|202:143|202:143|296:382|296:382|355:354|437:286|388:141,1,1205.74996320343,4|0,3:1|0:0,0:0:0:0:
