osu file format v14

[General]
AudioFilename: audio.mp3
AudioLeadIn: 0
PreviewTime: 37790
Countdown: 0
SampleSet: Soft
StackLeniency: 0.7
Mode: 0
LetterboxInBreaks: 0
WidescreenStoryboard: 1

[Editor]
Bookmarks: 2506,12325,21052,29779,38506,47234,55961,66870,67279,74506
DistanceSpacing: 2.3
BeatDivisor: 4
GridSize: 8
TimelineZoom: 1

[Metadata]
Title:FRAGMENT. (feat. A.Dokuga)
TitleUnicode:FRAGMENT. (feat. A.Dokuga)
Artist:P4koo
ArtistUnicode:P4koo
Creator:Mimari
Version:EXPERT.
Source:
Tags:japanese electronic featured artist fa mappers' guild bellicose reisevia roda totsuki
BeatmapID:2735330
BeatmapSetID:1320376

[Difficulty]
HPDrainRate:5.5
CircleSize:4.5
OverallDifficulty:8.4
ApproachRate:9.3
SliderMultiplier:1.8
SliderTickRate:1

[Events]
//Background and Video events
0,0,"thumb-1920-884373.png",0,0
//Break Periods
//Storyboard Layer 0 (Background)
//Storyboard Layer 1 (Fail)
//Storyboard Layer 2 (Pass)
//Storyboard Layer 3 (Foreground)
//Storyboard Layer 4 (Overlay)
//Storyboard Sound Samples

[TimingPoints]
1416,272.727272727272,4,2,0,65,1,0
2097,-100,4,2,1,65,0,0
2234,-250,4,2,1,65,0,0
2506,-100,4,2,1,80,0,0
6665,-100,4,2,1,5,0,0
6734,-100,4,2,1,80,0,0
10211,-100,4,2,1,5,0,0
10279,-100,4,2,1,80,0,0
10484,-100,4,2,1,5,0,0
10552,-90.9090909090909,4,2,1,80,0,0
10756,-90.9090909090909,4,2,1,5,0,0
10825,-125,4,2,1,80,0,0
11370,-125,4,2,1,50,0,0
12325,-111.111111111111,4,2,1,65,0,0
18870,-133.333333333333,4,2,1,50,0,0
21052,-105.263157894737,4,2,1,65,0,0
27597,-133.333333333333,4,2,1,50,0,0
28961,-133.333333333333,4,2,1,65,0,0
29779,-100,4,2,1,70,0,0
34143,-100,4,2,1,75,0,0
36870,-90.9090909090909,4,2,1,75,0,0
37825,-90.9090909090909,4,2,1,100,0,0
37859,-90.9090909090909,4,2,1,5,0,0
38234,-181.818181818181,4,2,1,60,0,0
38438,-181.818181818181,4,2,1,5,0,0
38506,-90.9090909090909,4,2,1,90,0,0
39870,-133.333333333333,4,2,1,90,0,0
40143,-90.9090909090909,4,2,1,90,0,0
55415,-90.9090909090909,4,2,1,60,0,0
55961,-100,4,2,1,80,0,0
60120,-100,4,2,1,5,0,0
60325,-100,4,2,1,80,0,0
63461,-90.9090909090909,4,2,1,80,0,0
63665,-90.9090909090909,4,2,1,5,0,0
63734,-90.9090909090909,4,2,1,80,0,0
63938,-90.9090909090909,4,2,1,5,0,0
64006,-90.9090909090909,4,2,1,80,0,0
64211,-90.9090909090909,4,2,1,5,0,0
64279,-90.9090909090909,4,2,1,80,0,0
64552,-90.9090909090909,4,2,1,80,0,0
64756,-90.9090909090909,4,2,1,5,0,0
64825,-90.9090909090909,4,2,1,80,0,0
65847,-90.9090909090909,4,2,1,5,0,0
65915,-90.9090909090909,4,2,1,80,0,0
67279,-666.666666666658,4,2,1,80,0,0
67347,-666.666666666658,4,2,1,50,0,0
69052,-666.666666666658,4,2,1,45,0,0
69597,-666.666666666658,4,2,1,40,0,0
70143,-666.666666666658,4,2,1,35,0,0
70688,-666.666666666658,4,2,1,20,0,0
71234,-666.666666666658,4,2,1,15,0,0
71779,-666.666666666658,4,2,1,10,0,0
72325,-666.666666666658,4,2,1,5,0,0

[Colours]
Combo1 : 232,163,94
Combo2 : 94,125,157
Combo3 : 190,135,135
Combo4 : 190,128,198

[HitObjects]
361,0,1415,5,2,0:3:0:0:
375,28,1688,5,2,0:3:0:0:
390,63,1961,5,2,0:3:0:0:
336,134,2097,5,0,3:2:0:0:
319,130,2165,1,0,3:2:0:0:
300,125,2234,2,0,P|278:130|263:160,1,54,8|0,0:0|0:0,0:0:0:0:
212,229,2506,6,0,B|256:223|256:223|259:225|259:225|330:214,1,90,6|2,3:2|0:0,0:0:0:0:
496,317,2779,5,10,0:0:0:0:
436,271,2915,1,2,0:0:0:0:
279,374,3052,5,2,3:2:0:0:
346,344,3188,2,0,B|372:303|372:303|339:253,1,90,2|8,3:2|0:0,0:0:0:0:
189,149,3461,6,0,B|141:141|141:141|117:169|117:169|115:174|115:174|88:202|88:202|6:185,1,180,2|0,3:2|3:2,0:0:0:0:
64,41,3870,2,0,B|80:74|80:74|69:92|69:92|63:125,1,90,8|0,0:0|0:0,0:0:0:0:
169,221,4143,2,0,B|153:254|153:254|164:272|164:272|170:305,1,90,0|0,3:2|3:2,0:0:0:0:
4,361,4415,2,0,B|-18:343|1:314|1:314|35:310|68:319|90:355,1,135,8|0,0:0|0:0,0:0:0:0:
139,370,4688,6,0,B|183:376|183:376|186:374|186:374|257:385,1,90,2|2,3:2|0:0,0:0:0:0:
344,184,4961,5,10,0:0:0:0:
300,252,5097,1,2,0:0:0:0:
452,365,5234,5,2,3:2:0:0:
428,290,5370,2,0,B|382:295|382:295|368:347,1,90,2|8,3:2|0:0,0:0:0:0:
486,201,5643,6,0,B|511:81|511:81|461:131,1,180,2|0,3:2|3:2,0:0:0:0:
413,21,6052,2,0,B|455:28|455:28|467:16|467:16|498:7,1,90,8|2,0:0|3:2,0:0:0:0:
317,111,6325,2,0,B|275:118|275:118|263:106|263:106|232:97,1,90,0|8,3:2|3:0,0:0:0:0:
485,200,6597,6,0,L|509:161,1,45,8|0,0:0|0:0,0:0:0:0:
256,23,6870,6,0,B|212:16|212:16|166:49,1,90,6|2,3:2|0:0,0:0:0:0:
163,233,7143,5,10,0:0:0:0:
237,200,7279,1,2,0:0:0:0:
108,83,7415,5,2,3:2:0:0:
24,64,7552,2,0,B|31:109|31:109|35:113|35:113|40:165,1,90,2|8,3:2|0:0,0:0:0:0:
131,329,7825,6,0,B|179:321|179:321|203:349|203:349|205:354|205:354|232:382|232:382|314:365,1,180,2|0,3:2|3:2,0:0:0:0:
345,249,8234,2,0,B|298:271|298:271|264:299,1,90,8|0,0:0|0:0,0:0:0:0:
468,361,8506,2,0,B|421:339|421:339|387:311,1,90,0|0,3:2|3:2,0:0:0:0:
465,106,8779,2,0,B|499:150|492:197|492:197|474:218|432:184,1,135,8|0,0:0|0:0,0:0:0:0:
401,158,9052,6,0,B|359:151|359:151|356:153|356:153|312:147,1,90,6|2,3:2|0:0,0:0:0:0:
222,33,9325,5,10,0:0:0:0:
306,14,9461,1,2,0:0:0:0:
262,201,9597,5,2,3:2:0:0:
185,175,9734,2,0,B|190:219|190:219|195:277,1,90,2|8,3:2|0:0,0:0:0:0:
8,107,10006,6,0,P|82:73|119:119,1,135,6|0,3:2|0:0,0:0:0:0:
114,129,10279,2,0,P|59:161|7:124,1,135,14|0,3:2|0:0,0:0:0:0:
7,82,10552,6,0,P|80:40|118:94,1,148.50000453186,14|0,3:2|0:0,0:0:0:0:
115,162,10825,2,0,P|58:201|3:151,1,144,14|8,3:2|3:0,0:0:0:0:
462,34,12325,6,0,B|454:77|454:77|456:80|456:80|445:130,1,80.9999975280763,6|0,3:2|0:0,0:0:0:0:
498,229,12597,2,0,B|474:264|474:264|448:234,1,80.9999975280763,10|0,0:0|0:0,0:0:0:0:
350,98,12870,1,2,3:2:0:0:
324,222,13006,1,0,3:2:0:0:
399,175,13143,1,10,0:0:0:0:
310,35,13279,6,0,B|248:3|248:3|212:26|212:26|204:26|204:26|152:58,1,161.999995056153,2|0,0:0|0:0,0:0:0:0:
74,109,13688,2,0,B|114:123|114:123|115:126|115:126|156:142,1,80.9999975280763,8|0,0:0|3:2,0:0:0:0:
240,210,13961,2,0,B|206:222|206:222|205:225|205:225|165:239,1,80.9999975280763,2|0,0:0|3:2,0:0:0:0:
28,369,14234,2,0,B|1:312|1:312|66:264,1,121.499996292114,10|0,0:0|0:0,0:0:0:0:
89,302,14506,6,0,B|110:345|110:345|63:367,1,80.9999975280763,2|0,3:2|0:0,0:0:0:0:
16,213,14779,1,10,0:0:0:0:
177,310,14915,2,0,L|269:333,2,80.9999975280763,2|0|0,0:0|3:2|3:2,0:0:0:0:
153,241,15325,1,8,0:0:0:0:
153,241,15461,1,0,0:0:0:0:
242,127,15597,5,0,3:2:0:0:
256,202,15734,1,0,0:0:0:0:
178,100,15870,1,8,0:0:0:0:
308,151,16006,1,0,3:2:0:0:
170,112,16143,6,0,B|147:78|147:78|157:29,1,80.9999975280763,2|0,0:0|3:2,0:0:0:0:
347,232,16415,2,0,B|354:271|354:271|331:305,1,80.9999975280763,10|0,0:0|3:2,0:0:0:0:
239,52,16688,6,0,B|292:42|292:42|314:56|314:56|319:56|319:56|339:68|339:68|412:53,1,161.999995056153,2|10,3:2|0:0,0:0:0:0:
512,157,17097,2,0,B|479:129|479:129|428:135,1,80.9999975280763,2|0,0:0|3:2,0:0:0:0:
395,264,17370,1,2,3:2:0:0:
479,237,17506,1,8,0:0:0:0:
314,155,17643,6,0,B|273:138|273:138|259:184|259:184|259:194|259:194|239:272,1,161.999995056153,2|0,3:2|3:2,0:0:0:0:
343,382,18052,2,0,B|331:348|331:348|328:347|328:347|314:307,1,80.9999975280763,10|0,0:0|3:2,0:0:0:0:
192,167,18325,2,0,B|180:201|180:201|177:202|177:202|163:242,1,80.9999975280763,2|0,3:2|3:2,0:0:0:0:
22,365,18597,2,0,B|65:322|65:322|148:358,1,121.499996292114,10|0,0:0|0:0,0:0:0:0:
134,354,18870,6,0,L|205:336,2,67.5000025749208,2|0|2,0:0|0:0|0:0,0:0:0:0:
218,266,19279,2,0,P|249:278|268:315,1,67.5000025749208,2|0,0:0|0:0,0:0:0:0:
130,365,19552,6,0,L|201:347,1,67.5000025749208,2|0,0:0|0:0,0:0:0:0:
223,251,19825,1,2,0:0:0:0:
122,218,19961,1,0,0:0:0:0:
112,213,20234,6,0,L|96:137,1,67.5000025749208,2|0,0:0|0:0,0:0:0:0:
224,157,20506,2,0,L|240:81,1,67.5000025749208,2|0,0:0|0:0,0:0:0:0:
103,208,20779,2,0,L|87:132,1,67.5000025749208,2|0,0:0|0:0,0:0:0:0:
1,6,21052,6,0,B|79:-4|79:-4|126:44,1,128.249996575356,6|0,3:2|0:0,0:0:0:0:
125,48,21325,2,0,B|115:74|115:74|56:68,1,85.4999977169037,10|0,0:0|0:0,0:0:0:0:
193,7,21597,1,2,3:2:0:0:
248,84,21734,1,0,3:2:0:0:
190,170,21870,1,10,0:0:0:0:
268,11,22006,6,0,B|316:16|316:16|341:44|341:44|343:51|343:51|366:77|366:77|432:90,1,170.999995433807,2|0,0:0|0:0,0:0:0:0:
512,0,22415,2,0,B|467:-4|467:-4|421:21,1,85.4999977169037,8|0,0:0|3:2,0:0:0:0:
447,144,22688,1,2,0:0:0:0:
509,94,22825,1,0,3:2:0:0:
437,155,22961,2,0,L|421:244,1,85.4999977169037,10|0,0:0|0:0,0:0:0:0:
326,363,23234,6,0,B|318:324|318:324|319:317|319:317|310:254,1,85.4999977169037,2|0,3:2|0:0,0:0:0:0:
432,347,23506,1,10,0:0:0:0:
301,203,23643,2,0,B|249:189|249:189|238:246|238:246|244:260|244:260|230:321,1,170.999995433807,2|0,0:0|3:2,0:0:0:0:
137,143,24052,2,0,L|157:245,1,85.4999977169037,8|0,0:0|0:0,0:0:0:0:
193,61,24325,5,0,3:2:0:0:
76,98,24461,1,0,0:0:0:0:
207,132,24597,1,8,0:0:0:0:
251,5,24734,1,0,3:2:0:0:
87,90,24870,6,0,B|67:48|67:48|113:-1,1,85.4999977169037,2|0,0:0|3:2,0:0:0:0:
269,80,25143,1,10,0:0:0:0:
186,225,25279,2,0,L|10:186,1,170.999995433807,0|0,3:2|3:2,0:0:0:0:
186,225,25688,1,10,0:0:0:0:
207,377,25825,6,0,B|227:335|227:335|181:286,1,85.4999977169037,2|0,0:0|3:2,0:0:0:0:
16,383,26097,2,0,B|-4:341|-4:341|42:292,1,85.4999977169037,2|8,3:2|0:0,0:0:0:0:
186,225,26370,2,0,L|345:264,1,128.249996575356,2|0,3:2|0:0,0:0:0:0:
329,244,26643,2,0,B|325:210|325:210|317:202|317:202|308:143,1,85.4999977169037,0|10,3:2|0:0,0:0:0:0:
443,48,26915,5,0,3:2:0:0:
403,130,27052,1,2,3:2:0:0:
327,17,27188,1,0,3:2:0:0:
478,124,27325,2,0,B|494:161|494:161|496:170|496:170|507:197|507:197|478:254,1,128.249996575356,10|0,0:0|0:0,0:0:0:0:
473,255,27597,6,0,L|395:244,1,67.5000025749208,2|0,0:0|0:0,0:0:0:0:
337,320,27870,1,2,0:0:0:0:
464,270,28006,2,0,L|386:259,1,67.5000025749208,2|0,0:0|0:0,0:0:0:0:
330,334,28279,2,0,L|188:358,1,135.000005149842,2|2,0:0|0:0,0:0:0:0:
130,317,28688,1,0,0:0:0:0:
112,300,28961,6,0,B|131:328|131:328|141:277,1,67.5000025749208,2|0,0:0|0:0,0:0:0:0:
114,224,29234,5,2,1:2:0:0:
1,286,29370,1,0,1:0:0:0:
65,383,29506,1,2,1:2:0:0:
120,207,29643,1,0,1:0:0:0:
228,369,29779,6,0,B|282:361|282:361|320:302|320:302|393:292,1,180,6|8,3:2|0:0,0:0:0:0:
440,331,30188,1,2,0:0:0:0:
302,278,30325,5,2,3:2:0:0:
405,217,30461,1,2,3:2:0:0:
374,294,30597,1,10,0:0:0:0:
325,120,30734,6,0,B|379:128|379:128|417:187|417:187|490:197,1,180,2|0,3:2|3:2,0:0:0:0:
467,34,31143,2,0,B|453:74|453:74|468:91|468:91|470:144,1,90,8|0,0:0|0:0,0:0:0:0:
303,196,31415,2,0,B|317:236|317:236|302:253|302:253|300:306,1,90,2|0,3:2|3:2,0:0:0:0:
398,135,31688,1,10,0:0:0:0:
268,38,31825,6,0,B|211:75|211:75|163:53|163:53|161:48|161:48|94:16,1,180,2|0,0:0|0:0,0:0:0:0:
8,120,32234,1,8,0:0:0:0:
116,191,32370,2,0,B|147:154|147:154|110:84,1,90,2|2,0:0|3:2,0:0:0:0:
49,256,32643,5,2,3:2:0:0:
220,204,32779,1,10,0:0:0:0:
80,355,32915,2,0,B|20:382|20:382|58:243,1,180,2|0,3:2|3:2,0:0:0:0:
132,105,33325,2,0,B|174:113|174:113|171:122|171:122|229:130,1,90,10|0,0:0|3:2,0:0:0:0:
316,32,33597,5,2,3:2:0:0:
232,57,33734,1,0,3:2:0:0:
329,40,33870,1,10,0:0:0:0:
224,45,34006,1,2,0:0:0:0:
379,124,34143,6,0,P|447:135|481:247,1,180,6|8,3:2|0:0,0:0:0:0:
486,229,34552,1,0,3:2:0:0:
328,333,34688,2,0,B|368:336|368:336|374:339|374:339|437:347,1,90,8|0,0:0|3:2,0:0:0:0:
243,380,34961,1,0,0:0:0:0:
401,272,35097,6,0,B|413:229|413:229|384:183,1,90,8|0,0:0|0:0,0:0:0:0:
252,91,35370,1,0,3:2:0:0:
208,214,35506,1,8,0:0:0:0:
158,140,35643,1,0,3:2:0:0:
269,4,35779,6,0,B|263:49|263:49|259:53|259:53|249:116,1,90,8|0,0:0|3:2,0:0:0:0:
81,158,36052,2,0,B|74:120|74:120|70:115|70:115|65:70,1,90,8|0,0:0|3:2,0:0:0:0:
208,214,36325,5,8,0:0:0:0:
58,254,36461,1,0,3:2:0:0:
158,140,36597,5,8,0:0:0:0:
287,177,36734,1,0,3:2:0:0:
116,358,36870,6,0,B|84:354|84:354|44:372|44:372|-8:361,1,99.0000030212403,8|0,0:0|3:2,0:0:0:0:
200,229,37143,5,0,3:2:0:0:
200,229,37279,1,0,3:2:0:0:
320,357,37415,5,12,3:2:0:0:
137,279,37552,1,12,3:2:0:0:
365,156,37688,1,12,3:2:0:0:
209,343,37825,6,0,L|203:369,1,24.7500007553101,2|0,0:1|0:0,0:0:0:0:
209,343,38234,6,0,P|216:301|242:277,1,74.2500022659302
297,242,38506,6,0,B|353:229|353:229|408:284|408:284|516:261,1,198.000006042481,6|8,3:2|0:0,0:0:0:0:
512,185,38915,1,0,0:0:0:0:
375,58,39052,2,0,B|367:106|367:106|370:111|370:111|362:175,1,99.0000030212403,2|0,3:2|3:2,0:0:0:0:
342,327,39325,1,8,0:0:0:0:
451,98,39461,6,0,B|395:85|395:85|340:140|340:140|232:117,1,198.000006042481,2|0,3:2|3:2,0:0:0:0:
99,13,39870,2,0,P|156:14|184:61,1,101.250003862381,10|0,0:0|0:0,0:0:0:0:
188,65,40143,6,0,L|164:180,1,99.0000030212403,2|0,3:2|3:2,0:0:0:0:
266,266,40415,1,10,0:0:0:0:
98,308,40552,6,0,B|85:279|85:279|81:276|81:276|68:254|68:254|129:239|129:239|148:242|148:242|208:228,1,198.000006042481,2|0,0:0|0:0,0:0:0:0:
344,194,40961,1,8,0:0:0:0:
257,40,41097,2,0,L|89:11,1,148.50000453186,2|0,0:0|0:0,0:0:0:0:
83,18,41370,5,2,3:2:0:0:
260,119,41506,1,10,0:0:0:0:
30,193,41643,2,0,P|59:128|184:132,1,198.000006042481,2|0,3:2|3:2,0:0:0:0:
284,251,42052,5,8,0:0:0:0:
257,372,42188,1,0,3:2:0:0:
114,384,42325,5,0,0:0:0:0:
93,252,42461,1,0,3:2:0:0:
294,184,42597,6,0,B|337:192|337:192|343:200|343:200|405:214,1,99.0000030212403,10|8,0:0|3:0,0:0:0:0:
512,19,42870,6,0,B|455:27|455:27|424:99|424:99|316:118,1,198.000006042481,6|8,3:2|0:0,0:0:0:0:
263,17,43279,1,2,0:0:0:0:
301,192,43415,2,0,B|344:200|344:200|350:208|350:208|412:222,1,99.0000030212403,0|0,3:2|3:2,0:0:0:0:
436,75,43688,1,10,0:0:0:0:
243,87,43825,6,0,B|231:143|231:143|222:152|222:152|214:204|214:204|220:219|220:219|203:296,1,198.000006042481,2|0,3:2|3:2,0:0:0:0:
337,370,44234,2,0,B|363:330|363:330|320:268,1,99.0000030212403,10|0,0:0|0:0,0:0:0:0:
141,224,44506,1,2,3:2:0:0:
179,372,44643,1,0,3:2:0:0:
207,276,44779,1,10,0:0:0:0:
39,369,44915,6,0,B|17:355|17:355|18:350|18:350|1:338|1:338|64:175,1,198.000006042481,2|0,0:0|0:0,0:0:0:0:
171,125,45325,1,10,0:0:0:0:
37,28,45461,2,0,B|6:28|6:28|38:120,1,99.0000030212403,2|0,0:0|3:2,0:0:0:0:
243,157,45734,2,0,B|266:93|266:93|235:93,1,99.0000030212403,2|8,3:2|0:0,0:0:0:0:
112,14,46006,1,2,3:2:0:0:
191,243,46143,6,0,B|238:231|238:231|244:234|244:234|306:217,1,99.0000030212403,8|2,0:0|3:2,0:0:0:0:
407,119,46415,5,8,0:0:0:0:
263,91,46552,1,0,3:2:0:0:
365,280,46688,5,0,3:2:0:0:
512,238,46825,1,0,3:2:0:0:
354,0,46961,6,0,B|334:33|334:33|339:51|339:51|340:97,1,99.0000030212403,8|8,0:0|0:0,0:0:0:0:
339,119,47165,1,0,0:0:0:0:
339,119,47234,6,0,B|282:112|282:112|204:145|204:145|125:131,1,198.000006042481,6|8,3:2|0:0,0:0:0:0:
1,43,47643,1,2,0:0:0:0:
83,173,47779,2,0,B|94:219|94:219|92:223|92:223|105:278,1,99.0000030212403,0|0,3:2|3:2,0:0:0:0:
217,308,48052,1,10,0:0:0:0:
6,365,48188,6,0,B|39:314|39:314|94:341|94:341|98:349|98:349|177:382,1,198.000006042481,2|0,3:2|3:2,0:0:0:0:
242,229,48597,2,0,B|188:223|188:223|140:265,1,99.0000030212403,10|0,0:0|0:0,0:0:0:0:
316,323,48870,1,2,3:2:0:0:
359,232,49006,1,0,3:2:0:0:
420,349,49143,1,10,0:0:0:0:
303,184,49279,6,0,B|286:123|286:123|336:138|336:138|343:147|343:147|427:175,1,198.000006042481,2|0,0:0|0:0,0:0:0:0:
497,101,49688,1,8,0:0:0:0:
428,0,49825,2,0,B|422:44|422:44|416:55|416:55|406:123,1,99.0000030212403,2|0,0:0|3:2,0:0:0:0:
448,246,50097,1,2,3:2:0:0:
503,188,50234,1,10,0:0:0:0:
338,59,50370,6,0,B|282:46|282:46|227:101|227:101|119:78,1,198.000006042481,2|0,3:2|3:2,0:0:0:0:
6,216,50779,5,8,0:0:0:0:
78,113,50915,1,0,3:2:0:0:
151,220,51052,5,2,3:2:0:0:
197,329,51188,1,0,3:2:0:0:
69,123,51325,6,0,B|48:79|48:79|88:3,1,99.0000030212403,10|8,0:0|0:0,0:0:0:0:
255,159,51597,6,0,B|242:215|242:215|297:270|297:270|274:378,1,198.000006042481,6|8,3:2|0:0,0:0:0:0:
133,376,52006,1,2,0:0:0:0:
64,211,52143,2,0,B|106:214|106:214|112:218|112:218|164:227,1,99.0000030212403,0|0,3:2|3:2,0:0:0:0:
273,252,52415,1,10,0:0:0:0:
287,0,52552,6,0,B|230:28|230:28|258:182,1,198.000006042481,2|0,3:2|3:2,0:0:0:0:
457,94,52961,2,0,B|408:101|408:101|402:106|402:106|359:112,1,99.0000030212403,10|0,0:0|0:0,0:0:0:0:
285,265,53234,2,0,B|333:272|333:272|339:277|339:277|383:283,1,99.0000030212403,2|0,3:2|3:2,0:0:0:0:
500,354,53506,1,10,0:0:0:0:
420,384,53643,1,2,0:0:0:0:
509,189,53779,6,0,B|509:228|509:228|493:246|493:246|494:270|491:291,1,99.0000030212403,2|0,3:2|3:2,0:0:0:0:
268,357,54052,2,0,B|269:345|268:321|268:321|284:303|284:303|284:264,1,99.0000030212403,10|0,0:0|0:0,0:0:0:0:
407,65,54325,5,0,3:2:0:0:
377,223,54461,1,2,3:2:0:0:
215,126,54597,1,10,0:0:0:0:
179,17,54734,2,0,L|250:9,1,49.5000015106202,2|0,3:2|0:0,0:0:0:0:
328,70,54870,5,8,3:0:0:0:
100,26,55006,1,8,3:0:0:0:
135,250,55143,5,4,3:0:0:0:
184,1,55279,1,4,3:0:0:0:
272,195,55415,5,2,0:0:0:0:
270,179,55961,6,0,B|265:138|265:138|261:133|261:133|250:63,1,90,6|2,3:2|0:0,0:0:0:0:
91,0,56234,5,10,0:0:0:0:
179,17,56370,1,2,0:0:0:0:
111,164,56507,5,2,3:2:0:0:
38,191,56643,2,0,B|12:150|12:150|45:100,1,90,2|8,3:2|0:0,0:0:0:0:
200,263,56916,6,0,B|152:255|152:255|128:283|128:283|126:288|126:288|99:316|99:316|17:299,1,180,2|0,3:2|3:2,0:0:0:0:
182,98,57325,2,0,B|191:143|191:143|190:151|190:151|199:200,1,90,8|0,0:0|0:0,0:0:0:0:
178,364,57597,1,0,3:2:0:0:
104,315,57734,1,0,3:2:0:0:
262,221,57870,2,0,B|307:226|307:226|329:258|329:258|393:269,1,135,8|0,0:0|0:0,0:0:0:0:
418,331,58143,6,0,B|462:337|462:337|465:335|465:335|536:346,1,90,2|2,3:2|0:0,0:0:0:0:
406,117,58416,5,10,0:0:0:0:
377,187,58552,1,2,0:0:0:0:
418,331,58689,5,2,3:2:0:0:
379,266,58825,2,0,B|278:284,1,90,2|8,3:2|0:0,0:0:0:0:
115,96,59097,6,0,B|168:114|168:114|171:120|171:120|228:142|228:142|291:112,1,180,2|0,3:2|3:2,0:0:0:0:
276,4,59506,2,0,B|232:22|232:22|223:86,1,90,8|2,0:0|3:2,0:0:0:0:
304,185,59779,1,0,3:2:0:0:
347,65,59915,1,8,3:0:0:0:
245,242,60052,6,0,L|262:328,1,45,8|0,0:0|0:0,0:0:0:0:
0,3,60325,6,0,B|28:6|28:6|59:23|59:23|120:34,1,90,6|2,3:2|0:0,0:0:0:0:
166,142,60598,5,10,0:0:0:0:
140,225,60734,1,2,0:0:0:0:
43,334,60870,5,2,3:2:0:0:
14,261,61007,2,0,B|10:222|10:222|6:218|6:218|0:173,1,90,2|8,3:2|0:0,0:0:0:0:
146,329,61280,6,0,B|194:321|194:321|218:349|218:349|220:354|220:354|247:382|247:382|329:365,1,180,2|0,3:2|3:2,0:0:0:0:
382,303,61688,2,0,L|269:280,1,90,8|0,0:0|0:0,0:0:0:0:
120,220,61961,1,0,3:2:0:0:
273,115,62097,1,0,3:2:0:0:
283,119,62165,1,0,0:0:0:0:
296,127,62234,2,0,B|320:153|320:153|438:114,1,135,8|0,0:0|0:0,0:0:0:0:
481,160,62507,6,0,B|488:118|488:118|486:115|486:115|492:71,1,90,6|2,3:2|0:0,0:0:0:0:
297,9,62780,5,10,0:0:0:0:
378,40,62916,1,2,0:0:0:0:
478,257,63052,5,2,3:2:0:0:
373,312,63188,2,0,B|366:270|366:270|368:267|368:267|362:223,1,90,2|8,3:2|0:0,0:0:0:0:
222,42,63461,6,0,P|158:45|138:138,1,148.50000453186,6|0,3:2|0:0,0:0:0:0:
142,195,63734,2,0,P|177:248|269:213,1,148.50000453186,14|0,3:2|0:0,0:0:0:0:
311,191,64006,2,0,P|338:133|264:69,1,148.50000453186,14|0,3:2|0:0,0:0:0:0:
222,142,64279,6,0,L|207:242,1,99.0000030212403,14|8,3:2|3:0,0:0:0:0:
212,24,64552,6,0,P|148:27|128:120,1,148.50000453186,8|0,0:0|0:0,0:0:0:0:
136,121,64825,5,6,3:2:0:0:
136,121,64893,1,0,3:2:0:0:
136,121,64961,1,0,3:2:0:0:
69,242,65097,5,14,3:2:0:0:
43,156,65234,1,0,0:0:0:0:
182,324,65370,5,14,3:2:0:0:
211,239,65507,1,0,0:0:0:0:
0,383,65643,6,0,P|42:314|114:331,1,148.50000453186,14|0,3:2|0:0,0:0:0:0:
117,345,65915,1,14,3:2:0:0:
114,358,65984,1,0,3:2:0:0:
111,374,66052,1,0,3:2:0:0:
211,239,66188,5,14,3:2:0:0:
206,212,66257,1,0,3:2:0:0:
199,184,66325,1,0,3:2:0:0:
326,298,66461,5,14,3:2:0:0:
319,339,66530,1,0,3:2:0:0:
311,384,66598,1,0,3:2:0:0:
197,176,66734,5,2,3:2:0:0:
509,3,67279,6,0,P|436:-7|10:384,1,715.499978164674,4|0,3:1|0:0,0:0:0:0:
