osu file format v14

[General]
AudioFilename: audio.mp3
AudioLeadIn: 0
PreviewTime: 37790
Countdown: 0
SampleSet: Soft
StackLeniency: 0.7
Mode: 0
LetterboxInBreaks: 0
WidescreenStoryboard: 1

[Editor]
Bookmarks: 2506,12325,21052,29779,38506,47234,55961,66870,67279,74506
DistanceSpacing: 1.1
BeatDivisor: 4
GridSize: 8
TimelineZoom: 1

[Metadata]
Title:FRAGMENT. (feat. A.Dokuga)
TitleUnicode:FRAGMENT. (feat. A.Dokuga)
Artist:P4koo
ArtistUnicode:P4koo
Creator:Mimari
Version:EASY.
Source:
Tags:japanese electronic featured artist fa mappers' guild bellicose reisevia roda totsuki
BeatmapID:2735328
BeatmapSetID:1320376

[Difficulty]
HPDrainRate:2.5
CircleSize:2
OverallDifficulty:2.5
ApproachRate:3.5
SliderMultiplier:0.799999999999999
SliderTickRate:1

[Events]
//Background and Video events
0,0,"thumb-1920-884373.png",0,0
//Break Periods
//Storyboard Layer 0 (Background)
//Storyboard Layer 1 (Fail)
//Storyboard Layer 2 (Pass)
//Storyboard Layer 3 (Foreground)
//Storyboard Layer 4 (Overlay)
//Storyboard Sound Samples

[TimingPoints]
1416,272.727272727272,4,2,0,65,1,0
2097,-100,4,2,1,65,0,0
2506,-100,4,2,1,80,0,0
6665,-100,4,2,1,5,0,0
6734,-100,4,2,1,80,0,0
10211,-100,4,2,1,5,0,0
10279,-100,4,2,1,80,0,0
10484,-100,4,2,1,5,0,0
10552,-100,4,2,1,80,0,0
10756,-100,4,2,1,5,0,0
10825,-100,4,2,1,80,0,0
11370,-100,4,2,1,50,0,0
12325,-100,4,2,1,65,0,0
18870,-100,4,2,1,50,0,0
21052,-100,4,2,1,65,0,0
27597,-100,4,2,1,50,0,0
28961,-100,4,2,1,65,0,0
29779,-100,4,2,1,70,0,0
34143,-100,4,2,1,75,0,0
37825,-100,4,2,1,100,0,0
37859,-100,4,2,1,5,0,0
38234,-100,4,2,1,60,0,0
38250,-100,4,2,1,60,0,0
38438,-100,4,2,1,5,0,0
38506,-100,4,2,1,90,0,0
55415,-100,4,2,1,60,0,0
55961,-100,4,2,1,80,0,0
63665,-100,4,2,1,5,0,0
63734,-100,4,2,1,80,0,0
63938,-100,4,2,1,5,0,0
64006,-100,4,2,1,80,0,0
64211,-100,4,2,1,5,0,0
64279,-100,4,2,1,80,0,0
64756,-100,4,2,1,5,0,0
64825,-100,4,2,1,80,0,0
65847,-100,4,2,1,5,0,0
65915,-100,4,2,1,80,0,0
67347,-100,4,2,1,50,0,0
69052,-100,4,2,1,45,0,0
69597,-100,4,2,1,40,0,0
70143,-100,4,2,1,35,0,0
70688,-100,4,2,1,20,0,0
71234,-100,4,2,1,15,0,0
71779,-100,4,2,1,10,0,0
72325,-100,4,2,1,5,0,0

[Colours]
Combo1 : 232,163,94
Combo2 : 94,125,157
Combo3 : 190,135,135
Combo4 : 190,128,198

[HitObjects]
124,47,1415,6,0,L|36:69,2,79.9999999999999,2|2|2,0:3|0:3|0:3,0:0:0:0:
202,87,2234,1,8,0:0:0:0:
278,43,2506,6,0,P|338:33|416:101,1,160,6|2,3:2|3:2,0:0:0:0:
495,193,3461,2,0,B|426:204|426:204|404:229|385:247|385:247|300:258,1,200,2|0,3:2|3:2,0:0:0:0:
231,283,4415,1,8,0:0:0:0:
167,222,4688,6,0,B|150:183|171:138|190:164|205:113|179:64,1,160,2|2,3:2|3:2,0:0:0:0:
61,16,5643,2,0,B|34:76|34:76|77:124,1,120,2|8,3:2|0:0,0:0:0:0:
36,197,6325,1,0,3:2:0:0:
75,275,6597,1,8,0:0:0:0:
33,352,6870,6,0,P|89:309|181:316,1,160,6|2,3:2|3:2,0:0:0:0:
296,365,7825,2,0,B|321:334|350:306|350:306|290:187,1,200,2|0,3:2|3:2,0:0:0:0:
246,126,8779,1,8,0:0:0:0:
294,52,9052,6,0,B|383:36|357:105|454:78,1,160,6|2,3:2|3:2,0:0:0:0:
502,199,10006,1,6,3:2:0:0:
474,282,10279,1,14,3:2:0:0:
400,331,10552,2,0,L|305:357,2,79.9999999999999,14|14|8,3:2|3:2|3:0,0:0:0:0:
400,331,12325,6,0,P|408:288|417:241,2,79.9999999999999,6|10|2,3:2|0:0|3:2,0:0:0:0:
270,356,13279,2,0,P|215:341|147:333,1,120,2|8,0:0|0:0,0:0:0:0:
105,258,13961,1,2,0:0:0:0:
145,179,14234,1,10,0:0:0:0:
184,100,14506,6,0,B|166:64|166:64|121:47|86:86,2,120,2|2|8,3:2|0:0|0:0,0:0:0:0:
270,117,15597,2,0,B|285:176|285:176|275:197|269:216|269:216|285:277,1,160,0|2,3:2|0:0,0:0:0:0:
273,357,16415,1,10,0:0:0:0:
360,362,16688,6,0,P|433:362|499:293,1,160,2|0,3:2|3:2,0:0:0:0:
499,173,17643,2,0,P|485:122|478:55,1,120,2|10,3:2|0:0,0:0:0:0:
401,11,18325,1,2,3:2:0:0:
318,42,18597,1,10,0:0:0:0:
231,23,18870,6,0,B|156:23|111:99|153:178|153:178|206:288,2,320,2|0|6,0:0|0:0|3:2,0:0:0:0:
318,42,21325,2,0,L|408:25,1,79.9999999999999,10|2,0:0|3:2,0:0:0:0:
479,129,22006,6,0,B|467:146|453:164|453:164|482:243,1,120,2|8,0:0|0:0,0:0:0:0:
438,313,22688,1,2,0:0:0:0:
354,291,22961,1,10,0:0:0:0:
274,328,23234,1,2,3:2:0:0:
181,234,23643,6,0,B|194:187|237:144|237:144|244:87|179:60,1,200,2|0,0:0|3:2,0:0:0:0:
44,158,24870,2,0,B|29:217|29:217|39:238|45:257|45:257|29:318,1,160,2|2,0:0|3:2,0:0:0:0:
96,369,25688,6,0,L|179:349,1,79.9999999999999,10|0,0:0|3:2,0:0:0:0:
244,238,26370,2,0,B|248:281|288:303|288:303|411:334,1,200,2|2,3:2|3:2,0:0:0:0:
466,271,27325,1,10,0:0:0:0:
436,188,27597,6,0,B|408:112|465:57|465:57|365:105|297:39,1,320,2|0,0:0|0:0,0:0:0:0:
234,101,28961,2,0,L|259:178,2,79.9999999999999,2|2|2,0:0|1:2|1:2,0:0:0:0:
164,47,29779,6,0,P|98:31|13:82,1,160,6|2,3:2|3:2,0:0:0:0:
70,194,30734,2,0,P|91:250|105:309,1,120,2|8,3:2|0:0,0:0:0:0:
175,360,31415,1,2,3:2:0:0:
237,298,31688,1,10,0:0:0:0:
218,211,31961,6,0,B|202:178|187:155|187:155|234:63,1,160,0|2,3:2|3:2,0:0:0:0:
352,19,32915,2,0,P|408:21|451:72,1,120,2|10,3:2|0:0,0:0:0:0:
416,147,33597,1,2,3:2:0:0:
455,225,33870,1,10,0:0:0:0:
428,308,34143,6,0,B|369:300|369:300|349:306|328:313|328:313|259:301,1,160,6|8,3:2|0:0,0:0:0:0:
138,187,35234,2,0,P|86:188|36:276,1,160,0|8,0:0|0:0,0:0:0:0:
72,353,36052,1,8,0:0:0:0:
159,346,36325,6,0,P|173:312|199:261,1,79.9999999999999,8|8,0:0|0:0,0:0:0:0:
262,220,36870,2,0,P|248:186|222:135,1,79.9999999999999,8|0,0:0|3:2,0:0:0:0:
176,76,37415,1,12,3:2:0:0:
233,8,37688,1,12,3:2:0:0:
485,85,38506,6,0,B|399:63|426:143|322:112,2,160,6|2|0,3:2|3:2|0:0,0:0:0:0:
502,171,39870,1,10,0:0:0:0:
447,240,40143,2,0,L|468:321,1,79.9999999999999,2|10,3:2|0:0,0:0:0:0:
390,361,40688,6,0,L|260:337,1,120,0|2,3:2|0:0,0:0:0:0:
96,358,41643,2,0,P|75:301|86:239,1,120,2|8,3:2|0:0,0:0:0:0:
129,168,42325,1,0,0:0:0:0:
86,91,42597,1,10,0:0:0:0:
137,19,42870,1,6,3:2:0:0:
266,46,43279,6,0,L|433:17,1,160,2|2,0:0|3:2,0:0:0:0:
486,135,44234,1,10,0:0:0:0:
427,200,44506,2,0,L|440:289,2,79.9999999999999,2|10|0,3:2|0:0|3:2,0:0:0:0:
312,135,45461,5,2,0:0:0:0:
230,102,45734,1,2,3:2:0:0:
152,144,46006,2,0,P|106:158|28:140,1,120,2|8,3:2|0:0,0:0:0:0:
17,58,46688,1,0,3:2:0:0:
91,10,46961,1,8,0:0:0:0:
174,37,47234,6,0,L|334:11,1,160,6|0,3:2|3:2,0:0:0:0:
418,110,48188,2,0,P|415:174|394:226,1,120,2|10,3:2|0:0,0:0:0:0:
313,259,48870,1,2,3:2:0:0:
247,200,49143,1,10,0:0:0:0:
160,188,49415,6,0,L|35:221,1,120,0|2,3:2|0:0,0:0:0:0:
167,344,50370,2,0,P|218:345|294:363,1,120,2|8,3:2|0:0,0:0:0:0:
359,312,51052,1,2,3:2:0:0:
437,351,51325,1,10,0:0:0:0:
493,284,51597,6,0,P|498:199|466:129,1,160,6|0,3:2|3:2,0:0:0:0:
351,68,52552,2,0,B|296:76|296:76|284:71|284:71|220:80,1,120,2|10,3:2|0:0,0:0:0:0:
182,150,53234,1,2,3:2:0:0:
236,218,53506,1,10,0:0:0:0:
195,296,53779,6,0,P|146:306|39:254,1,160,2|0,3:2|3:2,0:0:0:0:
33,132,54734,2,0,L|51:39,2,79.9999999999999,2|8|4,3:2|3:0|3:0,0:0:0:0:
96,342,55961,6,0,L|257:309,1,160,6|2,3:2|3:2,0:0:0:0:
376,354,56915,2,0,P|393:261|431:151,1,200,2|0,3:2|3:2,0:0:0:0:
480,91,57870,1,8,0:0:0:0:
414,32,58143,6,0,P|358:22|303:104,1,160,2|2,3:2|3:2,0:0:0:0:
186,160,59097,2,0,B|196:217|196:217|203:225|203:225|212:289,1,120,2|8,3:2|0:0,0:0:0:0:
144,334,59780,1,0,3:2:0:0:
63,298,60052,1,8,0:0:0:0:
19,221,60325,6,0,P|22:140|46:66,1,160,6|2,3:2|3:2,0:0:0:0:
168,16,61279,2,0,B|237:27|237:27|259:52|278:70|278:70|363:81,1,200,2|0,3:2|3:2,0:0:0:0:
405,145,62234,1,8,0:0:0:0:
351,214,62507,6,0,B|262:230|288:161|191:188,1,160,6|2,3:2|3:2,0:0:0:0:
106,278,63461,1,6,3:2:0:0:
162,345,63734,1,14,3:2:0:0:
249,336,64006,2,0,L|327:352,1,79.9999999999999,14|14,3:2|3:2,0:0:0:0:
408,316,64552,5,8,0:0:0:0:
458,243,64825,1,6,3:2:0:0:
403,174,65097,2,0,P|390:119|393:86,1,79.9999999999999,14|14,3:2|3:2,0:0:0:0:
435,19,65643,6,0,L|522:44,2,79.9999999999999,14|14|14,3:2|3:2|3:2,0:0:0:0:
347,14,66461,1,14,3:2:0:0:
267,51,66734,1,2,3:2:0:0:
93,23,67279,5,4,3:1:0:0:
256,192,67552,12,0,74506,0:0:0:0:
