osu file format v14

[General]
AudioFilename: audio.mp3
AudioLeadIn: 0
PreviewTime: 37790
Countdown: 0
SampleSet: Soft
StackLeniency: 0.6
Mode: 0
LetterboxInBreaks: 0
WidescreenStoryboard: 0

[Editor]
Bookmarks: 2506,12325,21052,29779,38506,47234,55961,66870,67279,74506
DistanceSpacing: 2.3
BeatDivisor: 4
GridSize: 8
TimelineZoom: 1.9

[Metadata]
Title:FRAGMENT. (feat. A.Dokuga)
TitleUnicode:FRAGMENT. (feat. A.Dokuga)
Artist:P4koo
ArtistUnicode:P4koo
Creator:Mimari
Version:BELLICOSE'S EXTREME.
Source:
Tags:japanese electronic featured artist fa mappers' guild bellicose reisevia roda totsuki
BeatmapID:2770287
BeatmapSetID:1320376

[Difficulty]
HPDrainRate:6
CircleSize:4.2
OverallDifficulty:8.5
ApproachRate:9.5
SliderMultiplier:2
SliderTickRate:1

[Events]
//Background and Video events
0,0,"thumb-1920-884373.png",0,0
//Break Periods
//Storyboard Layer 0 (Background)
//Storyboard Layer 1 (Fail)
//Storyboard Layer 2 (Pass)
//Storyboard Layer 3 (Foreground)
//Storyboard Layer 4 (Overlay)
//Storyboard Sound Samples

[TimingPoints]
1416,272.727272727272,4,2,0,65,1,0
2097,-100,4,2,1,65,0,0
2506,-100,4,2,1,80,0,0
6665,-100,4,2,1,5,0,0
6734,-100,4,2,1,80,0,0
10211,-100,4,2,1,5,0,0
10279,-90.9090909090909,4,2,1,80,0,0
10484,-90.9090909090909,4,2,1,5,0,0
10552,-83.3333333333333,4,2,1,80,0,0
10756,-83.3333333333333,4,2,1,5,0,0
10825,-76.9230769230769,4,2,1,80,0,0
11097,-125,4,2,1,80,0,0
11370,-125,4,2,1,50,0,0
12325,-125,4,2,1,65,0,0
12597,-111.111111111111,4,2,1,65,0,0
18870,-111.111111111111,4,2,1,50,0,0
19143,-166.666666666666,4,2,1,50,0,0
21052,-111.111111111111,4,2,1,65,0,0
27597,-166.666666666666,4,2,1,50,0,0
28961,-166.666666666666,4,2,1,65,0,0
29779,-90.9090909090909,4,2,1,70,0,0
30052,-105.263157894737,4,2,1,70,0,0
34143,-105.263157894737,4,2,1,75,0,0
34688,-111.111111111111,4,2,1,75,0,0
36325,-105.263157894737,4,2,1,75,0,0
37825,-250,4,2,1,100,0,0
37859,-250,4,2,1,5,0,0
37961,-200,4,2,1,5,0,0
38234,-200,4,2,1,60,0,0
38438,-200,4,2,1,5,0,0
38506,-90.9090909090909,4,2,1,90,0,0
55415,-90.9090909090909,4,2,1,60,0,0
55961,-100,4,2,1,80,0,0
63665,-100,4,2,1,5,0,0
63734,-90.9090909090909,4,2,1,80,0,0
63938,-90.9090909090909,4,2,1,5,0,0
64006,-83.3333333333333,4,2,1,80,0,0
64211,-83.3333333333333,4,2,1,5,0,0
64279,-76.9230769230769,4,2,1,80,0,0
64552,-100,4,2,1,80,0,0
64756,-100,4,2,1,5,0,0
64825,-90.9090909090909,4,2,1,80,0,0
65097,-83.3333333333333,4,2,1,80,0,0
65370,-76.9230769230769,4,2,1,80,0,0
65643,-100,4,2,1,80,0,0
65847,-100,4,2,1,5,0,0
65915,-90.9090909090909,4,2,1,80,0,0
66188,-83.3333333333333,4,2,1,80,0,0
66461,-76.9230769230769,4,2,1,80,0,0
67279,-250,4,2,1,80,0,0
67347,-250,4,2,1,50,0,0
69052,-250,4,2,1,45,0,0
69597,-250,4,2,1,40,0,0
70143,-250,4,2,1,35,0,0
70688,-250,4,2,1,20,0,0
71234,-250,4,2,1,15,0,0
71779,-250,4,2,1,10,0,0
72325,-250,4,2,1,5,0,0
74506,-250,4,2,1,5,0,0

[Colours]
Combo1 : 232,163,94
Combo2 : 94,125,157
Combo3 : 190,135,135
Combo4 : 190,128,198

[HitObjects]
96,92,1415,5,2,0:3:0:0:
95,73,1688,1,2,0:3:0:0:
93,53,1961,1,2,0:3:0:0:
116,209,2097,5,0,3:2:0:0:
116,209,2165,1,0,3:2:0:0:
116,209,2233,1,8,0:0:0:0:
380,36,2506,5,6,3:2:0:0:
284,161,2643,1,2,0:0:0:0:
262,73,2779,5,10,0:0:0:0:
427,209,2915,1,2,0:0:0:0:
508,154,3052,5,2,3:2:0:0:
334,321,3188,2,0,P|385:341|432:351,1,100,2|8,3:2|0:0,0:0:0:0:
213,274,3461,6,0,B|78:285|170:345|0:334,1,200,2|0,3:2|3:2,0:0:0:0:
191,171,3870,2,0,P|204:81|212:49,1,100,8|0,0:0|0:0,0:0:0:0:
122,15,4143,5,0,3:2:0:0:
300,122,4279,1,0,3:2:0:0:
60,229,4415,1,8,0:0:0:0:
60,229,4688,5,2,3:2:0:0:
144,112,4825,1,2,0:0:0:0:
231,33,4961,5,10,0:0:0:0:
331,233,5097,1,2,0:0:0:0:
221,176,5234,5,2,3:2:0:0:
458,115,5370,2,0,P|446:42|442:-10,1,100,2|8,3:2|0:0,0:0:0:0:
341,253,5643,6,0,B|391:259|421:217|421:217|492:226|498:306,1,200,2|0,3:2|3:2,0:0:0:0:
276,339,6052,2,0,P|200:353|168:364,1,100,8|2,0:0|3:2,0:0:0:0:
346,158,6325,5,0,3:2:0:0:
238,84,6461,1,8,3:0:0:0:
165,15,6597,5,8,0:0:0:0:
16,143,6734,1,4,3:0:0:0:
185,0,6870,5,6,3:2:0:0:
254,165,7006,1,2,0:0:0:0:
144,133,7143,5,10,0:0:0:0:
95,337,7279,1,2,0:0:0:0:
12,249,7415,5,2,3:2:0:0:
249,361,7552,2,0,P|275:296|251:259,1,100,2|8,3:2|0:0,0:0:0:0:
116,63,7825,6,0,P|135:148|154:278,1,200,2|0,3:2|3:2,0:0:0:0:
308,84,8234,2,0,P|369:99|413:104,1,100,8|0,0:0|0:0,0:0:0:0:
503,180,8506,5,0,3:2:0:0:
369,5,8643,1,0,3:2:0:0:
369,5,8711,1,0,0:0:0:0:
369,5,8779,1,8,0:0:0:0:
369,5,9052,5,6,3:2:0:0:
232,134,9188,1,2,0:0:0:0:
249,11,9325,5,10,0:0:0:0:
398,205,9461,1,2,0:0:0:0:
429,100,9597,5,2,3:2:0:0:
142,234,9734,2,0,P|174:276|231:272,1,100,2|8,3:2|0:0,0:0:0:0:
447,382,10006,6,0,P|445:311|504:208,1,150,6|0,3:2|0:0,0:0:0:0:
470,195,10279,6,0,B|446:231|406:248|406:248|358:223|288:235,1,165.000005035401,14|0,3:2|0:0,0:0:0:0:
250,178,10552,6,0,B|212:123|253:78|253:78|303:79|316:11,1,179.999994506836,14|0,3:2|0:0,0:0:0:0:
445,64,10825,6,0,B|448:46|471:29|471:29|414:36|406:108,2,129.999994049073,14|8|8,3:2|3:0|3:0,0:0:0:0:
294,175,11415,6,0,P|348:187|366:251,2,106.666666666667
248,294,11915,1,0,0:0:0:0:
248,294,12052,2,0,P|311:314|352:332,1,80
94,375,12325,5,6,3:2:0:0:
94,375,12597,2,0,P|115:286|128:200,1,134.999995880127,10|0,0:0|0:0,0:0:0:0:
123,223,12870,2,0,P|71:217|33:253,1,89.9999972534181,2|0,3:2|3:2,0:0:0:0:
238,71,13143,5,10,0:0:0:0:
143,116,13279,1,2,0:0:0:0:
228,182,13415,2,0,B|345:180|271:119|416:110,1,179.999994506836,0|8,3:2|0:0,0:0:0:0:
499,90,13825,2,0,P|474:48|483:0,1,89.9999972534181,0|2,3:2|0:0,0:0:0:0:
404,215,14097,1,0,3:2:0:0:
404,215,14234,2,0,P|460:224|512:242,1,89.9999972534181,10|0,0:0|0:0,0:0:0:0:
320,366,14506,5,2,3:2:0:0:
320,366,14779,1,10,0:0:0:0:
268,306,14915,1,2,0:0:0:0:
207,379,15052,5,0,3:2:0:0:
367,286,15188,1,0,3:2:0:0:
251,199,15325,2,0,P|266:124|271:81,1,89.9999972534181,8|0,0:0|0:0,0:0:0:0:
119,19,15597,6,0,P|88:101|-9:94,1,179.999994506836,0|8,3:2|0:0,0:0:0:0:
67,18,16006,2,0,P|121:-3|170:6,1,89.9999972534181,0|2,3:2|0:0,0:0:0:0:
104,212,16279,1,0,3:2:0:0:
104,212,16415,2,0,P|45:234|7:256,1,89.9999972534181,10|0,0:0|3:2,0:0:0:0:
205,149,16688,5,2,3:2:0:0:
300,233,16825,1,0,3:2:0:0:
390,201,16961,1,10,0:0:0:0:
171,305,17097,6,0,P|211:353|258:356,1,89.9999972534181,2|0,0:0|3:2,0:0:0:0:
298,206,17370,2,0,P|291:143|278:100,1,89.9999972534181,2|8,3:2|0:0,0:0:0:0:
390,292,17643,2,0,P|452:309|512:216,1,179.999994506836,2|0,3:2|3:2,0:0:0:0:
373,43,18052,5,10,0:0:0:0:
497,118,18188,1,0,3:2:0:0:
495,23,18325,5,2,3:2:0:0:
381,158,18461,1,0,3:2:0:0:
277,215,18597,6,0,B|274:98|207:167|208:52,1,179.999994506836,10|2,0:0|0:0,0:0:0:0:
283,5,19006,5,0,0:0:0:0:
283,5,19143,2,0,P|305:48|298:80,1,59.9999981689454,2|2,0:0|0:0,0:0:0:0:
208,143,19415,1,0,0:0:0:0:
208,143,19552,2,0,P|197:202|191:224,1,59.9999981689454,2|0,0:0|0:0,0:0:0:0:
305,253,19825,1,2,0:0:0:0:
305,253,19962,2,0,P|316:312|322:334,1,59.9999981689454,0|2,0:0|0:0,0:0:0:0:
213,375,20234,5,2,0:0:0:0:
103,284,20370,1,0,0:0:0:0:
40,377,20506,2,0,P|80:364|110:360,1,59.9999981689454,2|0,0:0|0:0,0:0:0:0:
207,260,20779,2,0,P|202:230|196:200,1,59.9999981689454,2|0,0:0|0:0,0:0:0:0:
35,52,21052,5,6,3:2:0:0:
35,52,21325,2,0,P|100:51|129:124,1,134.999995880127,10|0,0:0|0:0,0:0:0:0:
133,127,21597,2,0,P|85:140|43:149,1,89.9999972534181,2|0,3:2|3:2,0:0:0:0:
327,21,21870,5,10,0:0:0:0:
235,80,22006,1,2,0:0:0:0:
323,148,22143,2,0,B|267:232|363:225|283:332,1,179.999994506836,0|8,3:2|0:0,0:0:0:0:
184,371,22552,2,0,P|182:319|224:273,1,89.9999972534181,0|2,3:2|0:0,0:0:0:0:
431,219,22825,1,0,3:2:0:0:
431,219,22961,2,0,P|418:278|411:318,1,89.9999972534181,10|0,0:0|0:0,0:0:0:0:
235,103,23234,5,2,3:2:0:0:
235,103,23506,1,10,0:0:0:0:
301,59,23643,1,2,0:0:0:0:
222,24,23779,5,0,3:2:0:0:
357,129,23915,1,0,3:2:0:0:
208,220,24052,2,0,P|162:243|108:224,1,89.9999972534181,8|0,0:0|0:0,0:0:0:0:
312,369,24325,6,0,P|455:349|521:348,1,179.999994506836,0|8,3:2|0:0,0:0:0:0:
347,257,24734,1,0,3:2:0:0:
347,257,24870,2,0,P|369:188|386:159,1,89.9999972534181,2|0,0:0|3:2,0:0:0:0:
496,149,25143,1,10,0:0:0:0:
324,9,25279,6,0,P|290:65|167:61,1,179.999994506836,0|0,3:2|3:2,0:0:0:0:
237,0,25688,2,0,P|256:76|278:199,1,179.999994506836,10|0,0:0|3:2,0:0:0:0:
362,253,26097,1,2,3:2:0:0:
401,139,26234,1,8,0:0:0:0:
190,248,26370,6,0,P|175:205|184:162,1,89.9999972534181,2|0,3:2|0:0,0:0:0:0:
376,344,26643,2,0,P|459:364|483:372,1,89.9999972534181,0|10,3:2|0:0,0:0:0:0:
384,236,26915,5,0,3:2:0:0:
278,331,27052,1,2,3:2:0:0:
185,376,27188,5,0,3:2:0:0:
81,238,27325,2,0,P|18:258|22:377,1,179.999994506836,10|2,0:0|0:0,0:0:0:0:
98,384,27734,5,0,0:0:0:0:
98,384,27870,2,0,P|108:329|112:314,1,59.9999981689454,2|2,0:0|0:0,0:0:0:0:
233,287,28143,5,0,0:0:0:0:
233,287,28279,2,0,P|239:257|243:228,1,59.9999981689454,2|0,0:0|0:0,0:0:0:0:
371,212,28552,5,2,0:0:0:0:
371,212,28688,2,0,P|375:182|381:153,1,59.9999981689454,0|2,0:0|0:0,0:0:0:0:
244,11,28961,6,0,P|200:25|169:31,1,59.9999981689454,2|0,0:0|0:0,0:0:0:0:
330,84,29234,2,0,P|375:113|444:81,1,119.999996337891,2|2,1:2|1:2,0:0:0:0:
505,27,29643,1,0,1:0:0:0:
330,84,29779,6,0,P|397:99|404:217,1,165.000005035401,6|0,3:2|0:0,0:0:0:0:
400,264,30052,2,0,P|488:243|506:235,1,94.9999974632264,8|2,0:0|0:0,0:0:0:0:
263,193,30325,5,2,3:2:0:0:
149,332,30461,1,2,3:2:0:0:
85,264,30597,5,10,0:0:0:0:
278,353,30734,2,0,B|180:341|214:396|86:381,1,189.999994926453,2|0,3:2|3:2,0:0:0:0:
278,353,31143,2,0,B|248:297|288:248|288:248|342:258|362:180,1,189.999994926453,8|2,0:0|3:2,0:0:0:0:
394,109,31552,1,0,3:2:0:0:
211,13,31688,2,0,P|139:33|83:40,1,94.9999974632264,10|2,0:0|0:0,0:0:0:0:
0,241,31961,6,0,B|41:229|77:252|77:252|130:246|142:187,1,142.49999619484,0|0,3:2|0:0,0:0:0:0:
140,205,32234,2,0,P|126:157|68:145,1,94.9999974632264,8|2,0:0|0:0,0:0:0:0:
152,345,32506,2,0,P|233:366|262:379,1,94.9999974632264,2|2,3:2|3:2,0:0:0:0:
489,266,32779,1,10,0:0:0:0:
432,330,32915,6,0,P|375:272|435:180,1,189.999994926453,2|0,3:2|3:2,0:0:0:0:
253,265,33325,2,0,P|240:181|232:132,1,94.9999974632264,10|0,0:0|3:2,0:0:0:0:
385,2,33597,5,2,3:2:0:0:
495,112,33734,1,0,3:2:0:0:
303,87,33870,5,10,0:0:0:0:
141,242,34006,1,2,0:0:0:0:
141,242,34075,1,0,0:0:0:0:
141,242,34143,1,6,3:2:0:0:
0,308,34279,6,0,B|120:313|46:373|200:370,1,189.999994926453,0|0,3:2|3:2,0:0:0:0:
280,376,34688,2,0,P|302:319|342:296,1,89.9999972534181,8|0,0:0|3:2,0:0:0:0:
197,272,34961,1,0,0:0:0:0:
197,272,35097,2,0,P|186:212|150:86,1,179.999994506836,8|0,0:0|3:2,0:0:0:0:
242,14,35506,1,8,0:0:0:0:
318,53,35643,1,0,3:2:0:0:
190,169,35779,6,0,P|147:196|100:189,1,89.9999972534181,8|0,0:0|3:2,0:0:0:0:
26,102,36052,2,0,P|47:34|57:-8,1,89.9999972534181,8|0,0:0|3:2,0:0:0:0:
154,97,36325,5,8,0:0:0:0:
29,233,36461,1,0,3:2:0:0:
140,68,36597,5,8,0:0:0:0:
226,278,36734,1,0,3:2:0:0:
322,367,36870,5,8,0:0:0:0:
459,136,37006,1,0,3:2:0:0:
492,248,37143,5,0,3:2:0:0:
281,190,37279,1,0,3:2:0:0:
324,26,37415,5,12,3:2:0:0:
409,344,37552,1,12,3:2:0:0:
324,26,37688,1,12,3:2:0:0:
81,252,37825,2,0,L|114:262,1,20,2|0,0:1|0:0,0:0:0:0:
103,355,38234,6,0,P|160:351|182:331,1,75
9,341,38506,6,0,B|101:300|94:383|196:309,1,165.000005035401,6|0,3:2|0:0,0:0:0:0:
228,275,38779,2,0,P|212:203|209:150,1,110.000003356934,8|0,0:0|0:0,0:0:0:0:
29,41,39052,5,2,3:2:0:0:
106,209,39188,1,0,3:2:0:0:
8,164,39325,5,8,0:0:0:0:
192,51,39461,2,0,P|281:58|320:185,1,220.000006713867,2|0,3:2|3:2,0:0:0:0:
438,365,39870,2,0,P|451:278|478:197,1,165.000005035401,10|0,0:0|0:0,0:0:0:0:
488,184,40143,5,2,3:2:0:0:
347,295,40279,1,0,3:2:0:0:
263,234,40415,5,10,0:0:0:0:
139,174,40552,1,2,0:0:0:0:
10,355,40688,6,0,P|82:316|218:312,1,220.000006713867,0|8,3:2|0:0,0:0:0:0:
114,384,41097,1,2,0:0:0:0:
114,384,41165,1,0,0:0:0:0:
114,384,41234,2,0,P|89:287|76:259,1,110.000003356934,0|2,3:2|3:2,0:0:0:0:
235,111,41506,1,10,0:0:0:0:
44,24,41643,2,0,P|48:112|190:130,1,220.000006713867,2|0,3:2|3:2,0:0:0:0:
352,26,42052,5,8,0:0:0:0:
249,198,42188,1,0,3:2:0:0:
228,74,42325,5,0,0:0:0:0:
407,208,42461,1,0,3:2:0:0:
508,246,42597,5,10,0:0:0:0:
316,384,42734,1,8,3:0:0:0:
508,246,42870,6,0,P|489:310|385:311,1,165.000005035401,6|0,3:2|0:0,0:0:0:0:
382,298,43143,2,0,P|306:283|253:276,1,110.000003356934,8|2,0:0|0:0,0:0:0:0:
129,372,43415,5,0,3:2:0:0:
267,250,43552,1,0,3:2:0:0:
201,154,43688,5,10,0:0:0:0:
83,17,43825,2,0,B|43:49|6:65|6:65|2:162|93:158,1,220.000006713867,2|0,3:2|3:2,0:0:0:0:
276,77,44234,2,0,P|381:97|463:109,1,165.000005035401,10|0,0:0|0:0,0:0:0:0:
462,102,44506,5,2,3:2:0:0:
344,2,44643,1,0,3:2:0:0:
452,18,44779,5,10,0:0:0:0:
291,170,44915,1,2,0:0:0:0:
498,275,45052,6,0,B|392:346|421:246|278:336,1,220.000006713867,0|10,3:2|0:0,0:0:0:0:
392,368,45461,1,2,0:0:0:0:
392,368,45529,1,0,0:0:0:0:
392,368,45597,2,0,P|401:276|417:222,1,110.000003356934,0|2,3:2|3:2,0:0:0:0:
129,315,45870,2,0,P|163:368|215:369,1,110.000003356934,8|2,0:0|3:2,0:0:0:0:
319,144,46143,5,8,0:0:0:0:
317,127,46211,1,0,0:0:0:0:
315,110,46279,1,2,3:2:0:0:
193,5,46415,1,8,0:0:0:0:
191,22,46483,1,0,0:0:0:0:
189,39,46551,1,0,3:2:0:0:
321,25,46688,5,0,3:2:0:0:
158,125,46825,1,0,3:2:0:0:
34,178,46961,5,8,0:0:0:0:
309,313,47097,2,0,L|321:238,1,55.0000016784668,8|0,0:0|0:0,0:0:0:0:
239,369,47234,6,0,B|347:354|291:315|423:315,1,165.000005035401,6|0,3:2|0:0,0:0:0:0:
468,330,47506,2,0,P|511:283|501:238,1,110.000003356934,8|2,0:0|0:0,0:0:0:0:
340,48,47779,5,0,3:2:0:0:
494,140,47915,1,0,3:2:0:0:
470,34,48052,5,10,0:0:0:0:
282,237,48188,2,0,P|298:136|298:101,1,110.000003356934,2|0,3:2|0:0,0:0:0:0:
70,89,48461,1,0,3:2:0:0:
70,89,48597,2,0,P|158:96|187:4,1,165.000005035401,10|0,0:0|0:0,0:0:0:0:
189,6,48870,5,2,3:2:0:0:
74,190,49006,1,0,3:2:0:0:
179,140,49143,5,10,0:0:0:0:
211,267,49279,1,2,0:0:0:0:
81,381,49415,6,0,P|188:358|301:341,1,220.000006713867,0|8,3:2|0:0,0:0:0:0:
116,282,49825,1,2,0:0:0:0:
116,282,49893,1,0,0:0:0:0:
116,282,49961,5,0,3:2:0:0:
261,172,50097,1,2,3:2:0:0:
367,218,50234,5,10,0:0:0:0:
264,0,50370,2,0,B|261:136|178:41|172:198,1,220.000006713867,2|0,3:2|3:2,0:0:0:0:
27,101,50779,5,8,0:0:0:0:
175,17,50915,1,0,3:2:0:0:
324,112,51052,5,2,3:2:0:0:
492,205,51188,1,0,3:2:0:0:
468,87,51325,5,10,0:0:0:0:
321,324,51461,1,8,0:0:0:0:
196,372,51597,6,0,B|117:361|117:361|73:311|73:311|-12:297,2,220.000006713867,6|8|0,3:2|0:0|3:2,0:0:0:0:
355,306,52279,1,0,3:2:0:0:
244,127,52415,5,10,0:0:0:0:
133,5,52552,2,0,P|119:111|102:222,1,220.000006713867,2|0,3:2|3:2,0:0:0:0:
25,129,52961,2,0,B|141:127|62:75|210:81,1,165.000005035401,10|0,0:0|0:0,0:0:0:0:
244,127,53234,2,0,P|281:83|273:27,1,110.000003356934,2|0,3:2|3:2,0:0:0:0:
406,236,53506,2,0,P|468:254|525:267,1,110.000003356934,10|2,0:0|0:0,0:0:0:0:
405,84,53779,5,2,3:2:0:0:
318,318,53915,1,0,3:2:0:0:
199,380,54052,5,10,0:0:0:0:
133,145,54188,1,0,0:0:0:0:
11,329,54325,5,0,3:2:0:0:
251,244,54461,1,2,3:2:0:0:
476,175,54597,5,10,0:0:0:0:
166,53,54734,1,2,3:2:0:0:
253,4,54870,5,8,3:0:0:0:
309,156,55006,5,8,3:0:0:0:
228,276,55143,5,4,3:0:0:0:
263,374,55279,5,4,3:0:0:0:
263,374,55961,5,6,3:2:0:0:
411,255,56097,1,2,0:0:0:0:
434,352,56234,5,10,0:0:0:0:
301,199,56370,1,2,0:0:0:0:
204,245,56506,5,2,3:2:0:0:
383,109,56643,2,0,P|370:54|360:-17,1,100,2|8,3:2|0:0,0:0:0:0:
196,162,56915,6,0,B|193:268|95:211|116:356,1,200,2|0,3:2|3:2,0:0:0:0:
43,122,57325,2,0,P|45:69|90:33,1,100,8|0,0:0|0:0,0:0:0:0:
206,74,57597,5,0,3:2:0:0:
9,202,57734,1,0,3:2:0:0:
222,316,57870,1,8,0:0:0:0:
222,316,58143,5,2,3:2:0:0:
153,186,58279,1,2,0:0:0:0:
109,263,58415,5,10,0:0:0:0:
368,313,58552,1,2,0:0:0:0:
342,197,58688,5,2,3:2:0:0:
188,384,58825,2,0,P|207:292|214:243,1,100,2|8,3:2|0:0,0:0:0:0:
412,59,59097,6,0,P|466:54|492:185,1,200,2|0,3:2|3:2,0:0:0:0:
315,98,59506,2,0,P|296:6|289:-43,1,100,8|2,0:0|3:2,0:0:0:0:
483,184,59779,5,0,3:2:0:0:
413,320,59915,1,8,3:0:0:0:
324,381,60052,5,8,0:0:0:0:
256,182,60188,1,4,3:0:0:0:
144,335,60325,5,6,3:2:0:0:
352,254,60461,1,2,0:0:0:0:
457,166,60597,5,10,0:0:0:0:
324,64,60734,1,2,0:0:0:0:
196,0,60870,5,2,3:2:0:0:
22,187,61006,2,0,P|82:169|89:105,1,100,2|8,3:2|0:0,0:0:0:0:
254,292,61279,6,0,B|302:259|348:284|348:284|371:353|455:332,1,200,2|0,3:2|3:2,0:0:0:0:
271,115,61688,2,0,P|282:66|291:17,1,100,8|0,0:0|0:0,0:0:0:0:
393,111,61961,5,0,3:2:0:0:
160,247,62097,1,0,3:2:0:0:
160,247,62165,1,0,0:0:0:0:
160,247,62234,1,8,0:0:0:0:
160,247,62506,5,6,3:2:0:0:
322,351,62643,1,2,0:0:0:0:
203,378,62779,5,10,0:0:0:0:
398,281,62915,1,2,0:0:0:0:
318,190,63052,5,2,3:2:0:0:
230,5,63188,2,0,B|192:40|192:40|210:91,1,100,2|8,3:2|0:0,0:0:0:0:
143,284,63461,6,0,B|126:322|91:336|91:336|6:317,1,150,6|0,3:2|0:0,0:0:0:0:
4,278,63734,6,0,P|9:196|85:167,1,165.000005035401,14|0,3:2|0:0,0:0:0:0:
165,186,64006,6,0,B|254:237|244:148|350:238,1,179.999994506836,14|0,3:2|0:0,0:0:0:0:
270,333,64279,6,0,B|243:349|236:375|236:375|223:328|268:294,1,129.999994049073,14|8,3:2|3:0,0:0:0:0:
509,115,64552,6,0,P|502:45|407:42,1,150,8|0,0:0|0:0,0:0:0:0:
394,54,64825,6,0,P|389:26|381:0,2,55.0000016784668,6|0|0,3:2|3:2|3:2,0:0:0:0:
245,195,65097,6,0,B|201:224|201:224|184:306|265:330,1,179.999994506836,14|0,3:2|0:0,0:0:0:0:
336,373,65370,6,0,B|402:362|402:362|428:327|428:327|529:301,1,194.999991073609,14|0,3:2|0:0,0:0:0:0:
501,186,65643,6,0,B|512:165|512:165|449:140|449:140|413:186,1,150,14|0,3:2|0:0,0:0:0:0:
346,240,65915,5,14,3:2:0:0:
350,262,65983,1,0,3:2:0:0:
354,283,66052,1,0,3:2:0:0:
87,366,66188,5,14,3:2:0:0:
81,336,66256,1,0,3:2:0:0:
75,306,66325,1,0,3:2:0:0:
153,25,66461,5,14,3:2:0:0:
162,71,66530,1,0,3:2:0:0:
172,116,66598,1,0,3:2:0:0:
234,367,66734,5,2,3:2:0:0:
256,193,67279,5,4,3:1:0:0:
256,192,67347,12,0,74506,0:0:0:0:
