osu file format v14

[General]
AudioFilename: audio.mp3
AudioLeadIn: 0
PreviewTime: 87637
Countdown: 0
SampleSet: Soft
StackLeniency: 0.7
Mode: 0
LetterboxInBreaks: 0
WidescreenStoryboard: 1

[Editor]
Bookmarks: 9809,18037,26266,34494,38609,42723,46837,59094,67409,75637,87294,100323,104437,116780,121152
DistanceSpacing: 1
BeatDivisor: 4
GridSize: 4
TimelineZoom: 2.900005

[Metadata]
Title:Crystal Illusion
TitleUnicode:Crystal Illusion
Artist:P4koo
ArtistUnicode:P4koo
Creator:aigoh
Version:OMC submission
Source:
Tags:O2Jam
BeatmapID:1896850
BeatmapSetID:798838

[Difficulty]
HPDrainRate:6
CircleSize:4.2
OverallDifficulty:6
ApproachRate:9
SliderMultiplier:1.8
SliderTickRate:1

[Events]
//Background and Video events
0,0,"67002381_p0.png",0,0
//Break Periods
2,51152,58580
//Storyboard Layer 0 (Background)
//Storyboard Layer 1 (Fail)
//Storyboard Layer 2 (Pass)
//Storyboard Layer 3 (Foreground)
//Storyboard Sound Samples

[TimingPoints]
552,342.857142857143,3,2,1,15,1,0
1666,-100,3,2,1,30,0,0
5694,-100,3,2,1,15,0,0
5780,-100,3,2,1,35,0,0
6723,-100,3,2,1,20,0,0
6809,-100,3,2,1,35,0,0
7752,-100,3,2,1,15,0,0
7837,-100,3,2,1,35,0,0
9466,-100,3,2,99,40,0,0
13923,-58.8235294117647,3,2,99,48,0,0
14266,-100,3,2,99,45,0,0
14952,-58.8235294117647,3,2,99,48,0,0
15294,-100,3,2,99,45,0,0
16152,-50,3,2,99,45,0,0
16494,-100,3,2,99,45,0,0
16666,-33.3333333333333,3,2,99,45,0,0
17009,-100,3,2,99,45,0,0
18037,-166.666666666667,3,2,44,35,0,0
18123,-166.666666666667,3,2,99,45,0,0
18380,-250,3,2,99,40,0,0
18723,-500,3,2,99,35,0,0
19409,-250,3,2,99,30,0,0
20094,-166.666666666667,3,2,99,30,0,0
22494,-125,3,2,99,30,0,0
23180,-100,3,2,99,35,0,0
23866,-83.3333333333333,3,2,99,38,0,0
24209,-71.4285714285714,3,2,99,40,0,0
24552,-62.5,3,2,99,42,0,0
24894,-55.5555555555556,3,2,99,44,0,0
25409,-100,3,2,99,50,0,0
30380,-55.5555555555556,3,2,99,40,0,0
31409,-50,3,2,99,50,0,0
32437,-100,3,2,99,40,0,0
33294,-100,3,2,99,50,0,0
34494,-50,3,2,99,55,0,0
34666,-100,3,2,99,55,0,0
35523,-50,3,2,99,55,0,0
35694,-100,3,2,99,55,0,0
36552,-50,3,2,99,55,0,0
36723,-100,3,2,99,55,0,0
37580,-50,3,2,99,55,0,0
37752,-100,3,2,99,55,0,0
38609,-66.6666666666667,3,2,99,55,0,0
38780,-100,3,2,99,55,0,0
39637,-50,3,2,99,55,0,0
39809,-100,3,2,99,55,0,0
40666,-40,3,2,99,55,0,0
40837,-100,3,2,99,55,0,0
42723,-83.3333333333333,3,2,99,55,0,0
46837,-66.6666666666667,3,2,99,55,0,0
47866,-50,3,2,99,55,0,0
48209,-83.3333333333333,3,2,99,55,0,0
48894,-40,3,2,99,55,0,0
49066,-83.3333333333333,3,2,99,55,0,0
50266,-83.3333333333333,3,2,99,28,0,0
50952,-100,3,2,44,45,0,0
59180,-125,3,2,1,35,0,0
63294,-125,3,2,44,35,0,0
63380,-125,3,2,1,35,0,0
64323,-125,3,2,44,35,0,0
64409,-125,3,2,1,35,0,0
65352,-125,3,2,44,35,0,0
65437,-125,3,2,1,35,0,0
67066,-100,3,2,99,30,0,0
67409,-100,3,2,55,30,0,0
67494,-100,3,2,99,20,0,0
67752,-100,3,2,99,30,0,0
75637,-100,3,2,99,40,0,0
75980,-100,3,2,99,35,0,0
80780,-83.3333333333333,3,2,99,38,0,0
81809,-71.4285714285714,3,2,99,45,0,0
82152,-71.4285714285714,3,2,99,50,0,0
82494,-71.4285714285714,3,2,99,60,0,0
82837,-62.5,3,2,99,65,0,0
83866,-62.5,3,2,55,30,0,0
83952,-62.5,3,2,99,20,0,0
84209,-62.5,3,2,99,25,0,0
84552,-62.5,3,2,99,30,0,0
84894,-62.5,3,2,99,35,0,0
85237,-62.5,3,2,99,40,0,0
85580,-62.5,3,2,99,45,0,0
85923,-62.5,3,2,99,50,0,0
86266,-62.5,3,2,99,55,0,0
86609,-62.5,3,2,99,60,0,0
86952,-100,3,2,1,35,0,0
87637,-100,3,2,99,35,0,0
87980,-50,3,2,44,35,0,1
88023,-50,3,2,99,65,0,1
88152,-83.3333333333333,3,2,99,65,0,1
94152,-71.4285714285714,3,2,99,65,0,1
94494,-62.5,3,2,99,65,0,1
94837,-55.5555555555556,3,2,99,65,0,1
95180,-83.3333333333333,3,2,99,65,0,1
96209,-50,3,2,44,35,0,1
96252,-50,3,2,99,65,0,1
96466,-83.3333333333333,3,2,99,65,0,1
101352,-83.3333333333333,3,2,99,70,0,1
102380,-71.4285714285714,3,2,99,65,0,1
102723,-62.5,3,2,99,65,0,1
103066,-55.5555555555556,3,2,99,65,0,1
103409,-50,3,2,99,65,0,1
103666,-71.4285714285714,3,2,99,65,0,1
103923,-83.3333333333333,3,2,99,65,0,1
104437,-166.666666666667,3,2,55,30,0,0
104480,-166.666666666667,3,2,99,40,0,0
104952,-100,3,2,99,20,0,0
105123,-100,3,2,99,40,0,0
106494,-166.666666666667,3,2,100,40,0,0
106837,-100,3,2,99,40,0,0
108552,-166.666666666667,3,2,100,40,0,0
108894,-100,3,2,99,40,0,0
110609,-166.666666666667,3,2,100,40,0,0
110952,-100,3,2,99,40,0,0
111637,-166.666666666667,3,2,55,20,0,0
112152,-166.666666666667,3,2,99,20,0,0
112323,-100,3,2,99,40,0,0
112666,-166.666666666667,3,2,100,40,0,0
113009,-100,3,2,99,40,0,0
114723,-166.666666666667,3,2,100,40,0,0
115066,-100,3,2,99,40,0,0
116780,-50,3,2,99,50,0,0
117123,-100,3,2,99,45,0,0
117809,-50,3,2,99,50,0,0
118152,-100,3,2,99,45,0,0
118837,-100,3,2,99,45,0,0
120809,-33.3333333333333,3,2,99,45,0,0
121237,-166.666666666667,3,2,99,20,0,0
122952,-166.666666666667,3,2,99,15,0,0
123980,-166.666666666667,3,2,99,10,0,0
125009,-166.666666666667,3,2,99,5,0,0
126380,-166.666666666667,3,2,1,5,0,0

[Colours]
Combo1 : 182,208,248
Combo2 : 142,247,248
Combo3 : 176,176,255
Combo4 : 102,160,225

[HitObjects]
15,278,1237,5,2,0:0:0:0:
38,275,1323,1,0,0:0:0:0:
60,273,1409,1,2,0:0:0:0:
84,271,1494,1,0,0:0:0:0:
119,254,1580,6,0,B|131:301|127:343,1,90,4|0,0:1|0:0,0:0:0:0:
303,384,1923,2,0,B|299:342|312:292,1,90
344,164,2266,1,0,0:0:0:0:
207,231,2437,2,0,P|229:226|251:220,1,45
261,199,2609,6,0,P|217:193|175:178,1,90,2|0,0:0|0:0,0:0:0:0:
382,246,2952,2,0,P|426:240|468:225,1,90
410,100,3294,1,0,0:0:0:0:
344,164,3465,1,0,0:0:0:0:
469,225,3637,6,0,P|485:269|476:329,1,90,2|0,0:0|0:0,0:0:0:0:
342,340,3980,1,0,0:0:0:0:
285,271,4152,1,0,0:0:0:0:
181,293,4323,1,0,0:0:0:0:
156,380,4495,1,0,0:0:0:0:
217,210,4666,5,2,0:0:0:0:
252,206,5352,5,0,0:0:0:0:
309,275,5523,1,0,0:0:0:0:
123,299,5694,2,0,P|137:256|162:219,1,90,12|0,0:3|0:0,0:0:0:0:
68,309,6037,2,0,P|43:271|9:242,1,90
17,384,6380,1,0,0:0:0:0:
191,358,6552,1,2,0:0:0:0:
130,136,6723,6,0,P|170:115|214:107,1,90,4|0,0:3|0:0,0:0:0:0:
51,90,7066,2,0,P|40:46|18:7,1,90,2|0,0:0|0:0,0:0:0:0:
7,167,7409,1,0,0:0:0:0:
83,213,7580,1,0,0:0:0:0:
273,171,7752,6,0,L|361:194,1,90,12|0,0:3|0:0,0:0:0:0:
352,49,8094,1,0,0:0:0:0:
267,81,8266,1,0,0:0:0:0:
360,193,8437,1,0,0:0:0:0:
408,119,8609,1,0,0:0:0:0:
269,202,8780,5,2,0:0:0:0:
384,279,8951,1,0,0:0:0:0:
243,339,9123,5,0,0:0:0:0:
337,363,9294,1,0,0:0:0:0:
195,262,9466,5,2,2:0:0:0:
154,248,9551,1,0,2:0:0:0:
115,262,9638,1,2,2:0:0:0:
83,236,9724,1,0,2:0:0:0:
40,236,9809,6,0,B|31:193|31:193|43:148,1,90,12|0,1:2|0:0,0:0:0:0:
116,91,10066,1,0,0:0:0:0:
139,98,10152,2,0,B|148:55|148:55|136:10,1,90,8|2,1:0|0:0,0:0:0:0:
33,56,10494,1,0,1:0:0:0:
239,48,10666,2,0,P|262:41|282:37,1,45
395,72,10837,6,0,P|354:64|301:51,1,90,0|2,1:0|0:0,0:0:0:0:
451,1,11179,1,0,1:0:0:0:
478,37,11265,1,0,0:0:0:0:
484,81,11351,1,0,0:0:0:0:
469,123,11436,1,0,0:0:0:0:
436,152,11523,2,0,P|423:197|421:245,1,90,8|2,0:1|0:0,0:0:0:0:
445,368,11866,6,0,P|412:334|296:353,1,135,0|0,1:0|0:0,0:0:0:0:
323,335,12209,2,0,P|302:294|292:251,1,90,8|2,0:1|0:0,0:0:0:0:
316,155,12552,1,0,1:0:0:0:
341,164,12723,1,0,0:0:0:0:
221,290,12894,5,0,1:0:0:0:
405,239,13066,1,8,1:0:0:0:
328,329,13237,5,0,1:0:0:0:
219,171,13409,1,8,1:0:0:0:
137,339,13580,5,0,1:0:0:0:
248,381,13752,1,8,1:0:0:0:
208,161,13923,6,0,B|163:149|163:149|70:174|70:174|52:199|52:199|121:180,1,229.500004377365,4|0,1:0|0:0,0:0:0:0:
123,192,14266,6,0,B|99:103,1,90,8|2,0:1|0:0,0:0:0:0:
76,18,14609,1,0,1:0:0:0:
235,29,14780,2,0,L|226:73,1,45
274,220,14952,6,0,B|306:236|306:236|362:208|362:208|426:220|426:220|422:192|422:192|386:168,1,229.500004377365,4|0,1:0|0:0,0:0:0:0:
376,159,15294,6,0,L|370:255,1,90,8|0,0:1|0:0,0:0:0:0:
478,288,15637,2,0,L|484:384,1,90,0|2,1:0|0:0,0:0:0:0:
280,344,15980,5,4,0:1:0:0:
182,356,16152,2,0,B|139:396|83:373|83:373|-12:457|4:172|133:302,1,360,8|0,0:1|1:0,0:0:0:0:
207,239,16666,6,0,B|212:264|212:264|269:287|280:344|280:344|277:286|328:252|328:252|329:227,1,270.000010299683,0|8,1:0|0:1,0:0:0:0:
196,154,17009,6,0,L|208:97,1,45,0|0,1:0|0:0,0:0:0:0:
323,141,17180,2,0,L|296:87,1,45,8|0,0:1|0:0,0:0:0:0:
153,108,17352,6,0,L|196:68,1,45,0|0,1:0|0:0,0:0:0:0:
356,86,17523,2,0,L|304:57,1,45,8|0,0:1|0:0,0:0:0:0:
112,35,17694,6,0,L|155:25,1,45,0|0,1:0|0:0,0:0:0:0:
382,6,17866,2,0,L|337:6,1,45,8|0,0:1|0:0,0:0:0:0:
400,179,18037,6,0,L|479:162,1,80.9999975280763,4|0,0:3|0:0,0:0:0:0:
419,208,18380,6,0,L|471:196,1,54,0|0,1:0|0:0,0:0:0:0:
439,237,18723,6,0,L|465:231,1,27,0|0,1:0|0:0,0:0:0:0:
457,262,19066,5,0,1:0:0:0:
266,358,19237,5,0,0:0:0:0:
275,334,19323,1,0,0:0:0:0:
283,310,19409,1,8,0:1:0:0:
76,221,19580,5,0,0:0:0:0:
117,208,19665,1,0,0:0:0:0:
158,195,19752,1,0,1:0:0:0:
266,223,19923,5,2,0:0:0:0:
175,282,20094,1,0,1:0:0:0:
59,134,20266,5,0,0:0:0:0:
53,101,20351,1,0,0:0:0:0:
71,74,20437,1,8,0:1:0:0:
183,110,20609,5,0,0:0:0:0:
205,76,20694,1,0,0:0:0:0:
244,69,20780,1,0,1:0:0:0:
323,155,20952,5,0,0:0:0:0:
379,157,21037,1,0,0:0:0:0:
414,199,21123,1,0,1:0:0:0:
414,84,21294,1,2,0:0:0:0:
368,282,21466,6,0,P|339:269|311:247,1,53.9999983520508,8|0,1:0|0:0,0:0:0:0:
454,292,21809,2,0,P|457:321|452:356,1,53.9999983520508,0|2,1:0|0:0,0:0:0:0:
420,209,22152,2,0,P|443:189|476:176,1,53.9999983520508,0|0,1:0|0:0,0:0:0:0:
270,334,22494,6,0,B|244:358|244:358|210:369,1,72,8|0,0:1|0:0,0:0:0:0:
105,349,22837,2,0,P|140:352|173:366,1,72,0|0,1:0|0:0,0:0:0:0:
185,253,23180,6,0,B|139:251|139:251|99:230,1,90,0|0,1:0|0:0,0:0:0:0:
0,79,23523,2,0,P|27:114|43:157,1,90,8|0,0:1|0:0,0:0:0:0:
133,42,23866,6,0,B|185:39|185:39|184:35|184:35|235:32,1,107.999996704102,0|2,1:0|0:0,0:0:0:0:
132,138,24209,6,0,B|194:134|194:134|192:130|192:130|251:127,1,125.999996154785,0|0,1:0|0:0,0:0:0:0:
103,228,24466,5,0,0:0:0:0:
130,234,24552,2,0,B|201:230|201:230|199:225|199:225|266:221,1,144,8|0,0:1|0:0,0:0:0:0:
94,323,24809,5,0,0:0:0:0:
131,331,24894,2,0,B|211:326|211:326|209:321|209:321|284:317,2,161.999995056153,0|0|0,1:0|0:0|1:0,0:0:0:0:
363,357,25409,5,0,1:0:0:0:
197,208,25580,5,8,0:1:0:0:
215,296,25752,1,0,1:0:0:0:
344,151,25923,5,8,0:1:0:0:
112,172,26094,1,0,1:0:0:0:
284,237,26266,6,0,P|369:252|437:196,1,180,4|2,1:2|1:2,0:0:0:0:
425,104,26780,1,0,0:0:0:0:
344,151,26952,1,0,1:0:0:0:
400,11,27123,1,0,0:0:0:0:
394,7,27209,1,0,0:0:0:0:
388,3,27294,6,0,P|348:23|303:28,1,90,0|0,1:0|0:0,0:0:0:0:
50,39,27637,2,0,P|94:43|135:64,1,90,8|0,1:0|0:0,0:0:0:0:
250,158,27980,2,0,P|238:113|225:70,1,90,0|2,1:0|0:0,0:0:0:0:
171,207,28323,6,0,P|139:240|111:275,1,90,0|0,1:0|0:0,0:0:0:0:
107,365,28666,1,8,1:0:0:0:
32,319,28837,2,0,P|25:290|23:251,2,45,0|0|0,0:0|0:0|1:0,0:0:0:0:
184,325,29180,2,0,P|206:327|228:332,1,45
404,299,29352,6,0,B|386:338|404:372|404:372|437:353|465:354,1,135,0|0,1:0|0:0,0:0:0:0:
458,225,29694,2,0,B|503:220|517:188|517:188|469:130,1,135,8|0,1:0|0:0,0:0:0:0:
367,216,30037,2,0,B|327:207|302:183|302:183|281:254,1,135,2|0,1:2|0:0,0:0:0:0:
370,121,30380,5,0,1:0:0:0:
399,120,30552,2,0,L|392:40,1,80.9999975280763
206,152,30723,1,8,1:0:0:0:
177,151,30895,2,0,L|184:71,1,80.9999975280763
225,329,31066,1,2,1:2:0:0:
254,328,31238,2,0,L|247:248,1,80.9999975280763
123,264,31409,5,0,1:0:0:0:
87,255,31580,2,0,B|53:249|53:249|-11:267,1,90
247,247,31752,1,8,1:0:0:0:
283,256,31923,2,0,B|317:262|317:262|381:244,1,90
512,345,32094,1,2,1:2:0:0:
474,337,32266,2,0,B|440:331|440:331|376:349,1,90
508,236,32437,6,0,B|517:171|517:171|502:138|502:138|497:97|497:97|481:144,2,180,4|0|0,1:2|1:0|1:0,0:0:0:0:
388,151,33294,6,0,B|363:112,1,45,2|0,1:2|0:0,0:0:0:0:
283,51,33466,5,2,0:0:0:0:
268,73,33552,1,0,0:0:0:0:
260,98,33637,1,2,0:0:0:0:
260,124,33723,1,0,0:0:0:0:
268,145,33809,5,2,0:0:0:0:
288,186,33894,1,0,0:0:0:0:
286,231,33980,1,2,0:0:0:0:
262,268,34066,1,0,0:0:0:0:
222,290,34152,5,2,0:0:0:0:
198,240,34237,1,0,0:0:0:0:
147,217,34323,1,2,0:0:0:0:
95,232,34409,1,0,0:0:0:0:
59,267,34494,6,0,B|82:201|79:178|74:156|30:102,1,180,4|0,1:2|0:0,0:0:0:0:
158,82,34837,5,2,1:2:0:0:
243,60,35009,1,0,0:0:0:0:
149,85,35180,5,2,1:2:0:0:
85,23,35352,1,0,0:0:0:0:
307,122,35523,6,0,B|373:145|395:143|395:143|418:137|469:95,1,180,0|0,1:0|0:0,0:0:0:0:
458,212,35866,5,10,1:2:0:0:
380,46,36037,1,0,0:0:0:0:
345,226,36209,5,2,1:2:0:0:
469,95,36380,1,0,0:0:0:0:
307,308,36552,6,0,B|237:300|220:287|220:287|206:304|140:328,1,180,0|0,1:0|0:0,0:0:0:0:
82,260,36894,5,2,1:2:0:0:
117,176,37066,1,0,0:0:0:0:
61,106,37237,1,2,1:2:0:0:
97,22,37409,1,0,0:0:0:0:
182,99,37580,6,0,B|213:60|212:17|212:17|227:57|276:78,1,180,0|0,1:0|0:0,0:0:0:0:
420,112,37923,5,10,1:2:0:0:
360,45,38094,1,0,0:0:0:0:
398,200,38266,5,2,1:2:0:0:
501,75,38437,1,0,0:0:0:0:
477,240,38609,6,0,L|463:324,1,67.5000025749208,4|0,1:2|0:0,0:0:0:0:
386,344,38780,6,0,L|361:291,1,45,0|0,1:0|0:0,0:0:0:0:
239,216,38952,1,8,1:0:0:0:
213,304,39124,1,2,0:0:0:0:
327,230,39294,1,0,1:0:0:0:
221,187,39466,1,2,0:0:0:0:
446,219,39637,6,0,L|429:316,1,90,4|0,1:2|0:0,0:0:0:0:
362,369,39809,6,0,L|330:301,1,45,0|0,1:0|0:0,0:0:0:0:
221,187,39980,1,8,1:0:0:0:
189,292,40152,1,2,0:0:0:0:
327,204,40323,1,0,1:0:0:0:
198,152,40494,1,2,0:0:0:0:
159,281,40666,6,4,P|101:273|32:263,1,112.5,4|0,1:2|0:0,0:0:0:0:
0,341,40837,6,0,P|7:364|11:391,1,45,0|0,1:0|0:0,0:0:0:0:
121,363,41009,1,8,1:0:0:0:
159,281,41180,1,2,0:0:0:0:
127,192,41352,1,0,1:0:0:0:
36,172,41523,1,2,0:0:0:0:
36,172,41609,1,0,0:0:0:0:
36,172,41694,6,0,P|44:129|77:84,1,90,8|0,0:3|0:0,0:0:0:0:
172,45,42037,2,0,P|186:88|195:133,1,90,4|0,0:3|0:0,0:0:0:0:
327,52,42294,1,0,0:0:0:0:
339,64,42380,2,0,P|325:107|317:152,1,90,4|0,0:3|0:0,0:0:0:0:
327,250,42723,6,0,P|380:261|430:279,1,107.999996704102,4|0,1:2|0:0,0:0:0:0:
498,210,43066,1,8,1:0:0:0:
451,373,43237,1,0,0:0:0:0:
288,338,43409,6,0,P|260:350|233:357,1,53.9999983520508,4|0,0:3|0:0,0:0:0:0:
231,259,43580,2,0,P|233:229|241:201,1,53.9999983520508
150,314,43752,6,0,P|104:339|51:332,1,107.999996704102,0|0,1:0|0:0,0:0:0:0:
15,226,44009,1,0,0:0:0:0:
27,215,44094,2,0,P|80:205|133:195,1,107.999996704102,8|0,1:0|0:0,0:0:0:0:
151,82,44437,6,0,P|124:80|98:85,1,53.9999983520508,4|0,0:3|0:0,0:0:0:0:
309,106,44609,2,0,P|284:97|258:93,1,53.9999983520508
456,79,44780,5,0,1:0:0:0:
499,166,44952,1,0,0:0:0:0:
330,221,45123,1,8,1:0:0:0:
315,125,45294,1,0,0:0:0:0:
423,213,45466,6,0,P|426:238|434:264,1,53.9999983520508,4|0,0:3|0:0,0:0:0:0:
418,365,45637,2,0,P|444:371|468:382,1,53.9999983520508
324,334,45809,6,0,P|298:340|211:368,1,107.999996704102,0|0,1:0|0:0,0:0:0:0:
101,256,46066,1,0,0:0:0:0:
113,244,46152,2,0,P|139:250|226:278,1,107.999996704102,8|0,1:0|0:0,0:0:0:0:
38,331,46494,6,0,P|37:357|33:384,1,53.9999983520508,4|0,0:3|0:0,0:0:0:0:
3,170,46666,2,0,P|4:197|8:224,1,53.9999983520508
103,147,46837,6,0,P|165:41|272:99,1,270.000010299683,4|0,1:2|0:0,0:0:0:0:
436,182,47352,1,0,1:0:0:0:
362,245,47523,1,2,0:0:0:0:
270,210,47694,1,0,1:0:0:0:
188,126,47866,6,0,P|211:33|344:150,1,360,4|0,1:2|0:0,0:0:0:0:
452,179,48380,1,0,1:0:0:0:
363,254,48552,1,2,0:0:0:0:
253,212,48723,1,0,1:0:0:0:
483,324,48894,6,0,B|395:338|395:338|376:351|376:351|354:344|354:344|266:358,1,225,4|0,1:2|0:0,0:0:0:0:
124,379,49237,1,2,0:0:0:0:
87,244,49409,1,0,1:0:0:0:
33,337,49580,1,2,0:0:0:0:
178,286,49752,1,0,1:0:0:0:
178,286,49837,1,0,0:0:0:0:
178,286,49923,6,0,P|184:259|188:229,1,53.9999983520508,4|0,1:2|0:0,0:0:0:0:
65,150,50094,2,0,P|59:123|55:93,1,53.9999983520508,2|0,1:2|0:0,0:0:0:0:
186,131,50266,5,8,3:0:0:0:
216,139,50351,1,8,3:0:0:0:
246,130,50437,1,4,3:0:0:0:
268,106,50523,1,4,3:0:0:0:
273,75,50608,5,12,3:0:0:0:
298,44,50694,1,8,3:0:0:0:
336,31,50780,1,6,3:0:0:0:
375,40,50866,1,6,3:0:0:0:
425,91,50952,5,4,0:0:0:0:
228,160,59180,6,0,P|259:187|342:86,1,216,2|0,0:0|0:0,0:0:0:0:
338,81,59866,1,0,0:0:0:0:
132,166,60209,2,0,B|142:281|142:281|109:263,2,144,0|0|2,0:0|0:0|0:0,0:0:0:0:
224,326,61237,6,0,P|272:277|399:340,1,216,2|0,0:0|0:0,0:0:0:0:
470,269,61923,1,0,0:0:0:0:
394,333,62094,1,0,0:0:0:0:
403,198,62266,6,0,P|401:167|392:116,1,72,2|0,0:0|0:0,0:0:0:0:
304,139,62609,2,0,B|308:103|308:103|321:69,1,72
208,139,62952,6,0,B|204:103|204:103|190:69,1,72
109,196,63294,2,0,P|111:160|117:125,1,72,6|0,0:0|0:0,0:0:0:0:
53,273,63637,1,0,0:0:0:0:
17,187,63809,1,0,0:0:0:0:
146,322,63980,5,0,0:0:0:0:
0,353,64152,1,0,0:0:0:0:
232,273,64323,6,0,P|267:278|300:292,1,72,6|0,0:0|0:0,0:0:0:0:
391,287,64666,2,0,P|358:299|327:317,1,72
287,123,65009,6,0,P|313:146|335:177,1,72
467,125,65352,2,0,P|398:140|360:199,1,144,6|0,0:0|0:0,0:0:0:0:
452,218,65866,1,0,0:0:0:0:
476,124,66037,6,0,P|480:88|472:53,1,72
361,200,66380,1,2,0:0:0:0:
454,229,66552,1,0,0:0:0:0:
254,364,66723,5,2,0:0:0:0:
347,336,66894,1,0,0:0:0:0:
191,292,67066,5,2,1:2:0:0:
194,270,67151,1,0,0:0:0:0:
196,247,67237,1,2,1:2:0:0:
198,225,67323,1,0,0:0:0:0:
201,202,67409,6,0,B|146:218|146:218|224:147|193:71,1,180,4|4,1:2|0:3,0:0:0:0:
68,37,67923,1,0,0:0:0:0:
99,121,68094,1,10,0:3:0:0:
171,28,68266,1,0,0:0:0:0:
164,35,68352,1,0,0:0:0:0:
157,43,68437,6,0,P|238:76|321:46,1,180,4|0,0:3|0:0,0:0:0:0:
404,9,68952,1,4,0:3:0:0:
475,62,69123,2,0,L|464:151,1,90,10|4,0:3|0:3,0:0:0:0:
379,322,69466,6,0,P|374:277|369:233,1,90,4|2,0:3|0:0,0:0:0:0:
455,241,69809,2,0,P|374:277|287:259,1,180,4|10,0:3|0:3,0:0:0:0:
119,254,70323,1,0,0:0:0:0:
116,244,70409,1,0,0:0:0:0:
115,235,70494,6,0,P|157:220|201:228,1,90,4|2,0:3|0:0,0:0:0:0:
165,307,70837,2,0,L|31:271,1,135,8|0,0:3|0:0,0:0:0:0:
34,361,71180,2,0,L|158:394,1,90,6|2,0:3|0:0,0:0:0:0:
281,217,71523,5,4,0:3:0:0:
326,293,71694,1,2,0:0:0:0:
253,336,71866,5,4,0:3:0:0:
403,250,72037,1,2,0:0:0:0:
367,367,72209,2,0,L|468:354,1,90,10|2,0:3|0:0,0:0:0:0:
501,274,72467,1,0,0:0:0:0:
493,263,72552,6,0,P|481:212|523:127,1,135,4|0,0:3|0:0,0:0:0:0:
327,147,72894,2,0,P|339:96|297:11,1,135,4|0,0:3|0:0,0:0:0:0:
239,96,73237,2,0,P|194:99|149:101,1,90,10|4,0:3|0:3,0:0:0:0:
4,246,73580,6,0,P|49:248|93:251,1,90,4|2,0:3|0:0,0:0:0:0:
69,334,73923,2,0,P|47:247|80:165,1,180,4|2,0:3|0:3,0:0:0:0:
149,101,74437,1,0,0:0:0:0:
304,225,74609,2,0,B|387:212|387:212|391:217|395:220|395:220|479:209,1,180,4|2,0:3|0:0,0:0:0:0:
405,306,75123,5,4,0:3:0:0:
391,217,75294,1,10,0:3:0:0:
377,128,75466,1,4,0:3:0:0:
155,341,75637,5,4,1:0:0:0:
169,349,75980,5,10,0:3:0:0:
207,268,76151,1,0,0:0:0:0:
288,307,76323,1,4,0:3:0:0:
178,179,76494,1,0,0:0:0:0:
178,179,76580,1,0,0:0:0:0:
178,179,76666,6,0,P|213:151|256:140,2,90,4|2|0,0:3|0:0|0:0,0:0:0:0:
126,252,77180,1,4,0:3:0:0:
40,224,77352,1,10,0:3:0:0:
40,134,77523,1,4,0:3:0:0:
125,106,77694,6,0,P|128:62|112:19,1,90,4|2,0:3|0:0,0:0:0:0:
40,133,78037,2,0,P|125:106|214:94,1,180,10|0,0:3|0:0,0:0:0:0:
337,51,78552,1,0,0:0:0:0:
314,46,78637,1,0,0:0:0:0:
291,41,78723,1,4,0:3:0:0:
428,64,78894,2,0,P|433:42|436:20,1,45,2|0,0:0|0:0,0:0:0:0:
447,91,79066,5,8,0:3:0:0:
457,123,79152,1,0,0:0:0:0:
455,156,79238,1,2,0:0:0:0:
441,187,79323,1,0,0:0:0:0:
480,299,79409,5,6,0:3:0:0:
436,304,79494,1,0,0:0:0:0:
395,294,79580,1,2,0:0:0:0:
358,269,79666,1,0,0:0:0:0:
332,234,79752,6,0,P|286:248|242:265,1,90,6|2,0:0|0:0,0:0:0:0:
122,272,80094,1,8,0:3:0:0:
170,215,80266,1,0,0:0:0:0:
147,342,80437,5,4,0:3:0:0:
48,258,80609,1,0,0:0:0:0:
44,262,80694,1,0,0:0:0:0:
40,266,80780,6,0,P|19:214|26:158,1,107.999996704102,6|0,0:0|0:0,0:0:0:0:
132,59,81123,1,8,0:3:0:0:
42,73,81294,1,0,0:0:0:0:
331,101,81466,5,4,0:3:0:0:
205,120,81637,1,0,0:0:0:0:
209,124,81723,1,0,0:0:0:0:
213,128,81809,6,0,B|226:67|226:67|230:63|230:63|242:4,1,125.999996154785,6|4,0:0|0:3,0:0:0:0:
442,82,82152,1,8,0:3:0:0:
506,192,82323,1,4,0:3:0:0:
316,110,82494,5,8,0:3:0:0:
419,286,82666,1,4,0:3:0:0:
415,290,82752,1,0,0:0:0:0:
411,294,82837,5,6,0:0:0:0:
275,249,83009,2,0,B|240:245|240:245|244:248|244:248|211:243,1,72,4|0,0:3|0:0,0:0:0:0:
280,281,83180,2,0,B|293:312|293:312|294:308|294:308|306:338,1,72,8|0,0:3|0:0,0:0:0:0:
305,259,83352,2,0,B|325:231|325:231|321:232|321:232|341:207,1,72,4|0,0:3|0:0,0:0:0:0:
5,369,83523,5,10,0:3:0:0:
49,361,83609,1,2,0:3:0:0:
93,355,83694,1,6,0:3:0:0:
137,349,83780,1,2,0:3:0:0:
183,343,83866,5,6,1:2:0:0:
256,192,83952,12,0,86952,0:0:0:0:
282,215,87466,6,0,L|275:260,1,45,2|0,0:0|0:0,0:0:0:0:
311,342,87637,6,0,P|333:343|355:346,1,45,0|0,1:0|0:0,0:0:0:0:
189,281,87809,2,0,P|166:279|144:277,1,45,0|0,1:0|0:0,0:0:0:0:
359,163,87980,6,0,P|357:53|296:7,1,180,4|0,0:3|0:0,0:0:0:0:
224,91,88237,1,0,0:0:0:0:
192,79,88323,6,0,P|163:84|139:94,1,53.9999983520508,8|0,1:0|0:0,0:0:0:0:
2,201,88494,2,0,P|28:196|53:186,1,53.9999983520508
39,72,88666,6,0,P|29:46|24:20,1,53.9999983520508,2|0,1:2|0:0,0:0:0:0:
138,215,88837,1,0,0:0:0:0:
148,205,88923,1,0,0:0:0:0:
158,195,89009,6,0,P|176:245|186:298,1,107.999996704102,0|0,1:0|0:0,0:0:0:0:
325,355,89266,2,0,P|332:302|352:252,1,107.999996704102,0|0,1:0|0:0,0:0:0:0:
405,156,89523,5,2,1:2:0:0:
493,219,89694,1,8,1:0:0:0:
379,51,89866,1,2,1:2:0:0:
199,140,90037,6,0,B|168:151|168:151|94:135,1,107.999996704102,0|0,1:0|0:0,0:0:0:0:
54,24,90294,1,0,0:0:0:0:
84,10,90380,2,0,B|158:26,1,53.9999983520508,8|0,1:0|0:0,0:0:0:0:
243,44,90552,5,2,1:2:0:0:
288,216,90723,1,0,1:0:0:0:
207,148,90894,1,2,1:2:0:0:
252,320,91066,6,0,B|277:329|277:329|329:322|329:322|351:305,1,107.999996704102,0|0,1:0|0:0,0:0:0:0:
453,307,91323,1,0,0:0:0:0:
486,303,91409,6,0,P|493:330|499:356,1,53.9999983520508,8|0,1:0|0:0,0:0:0:0:
457,222,91580,2,0,P|463:195|470:169,1,53.9999983520508,0|0,1:0|0:0,0:0:0:0:
431,71,91752,5,2,1:2:0:0:
444,69,91837,1,0,0:0:0:0:
457,68,91923,1,2,1:2:0:0:
471,67,92009,1,0,0:0:0:0:
484,66,92094,6,0,L|323:53,2,161.999995056153,4|0|0,1:0|0:0|0:0,0:0:0:0:
319,157,92780,2,0,P|322:184|325:211,1,53.9999983520508,2|0,1:2|0:0,0:0:0:0:
205,105,92952,1,0,0:0:0:0:
219,104,93038,1,0,0:0:0:0:
232,103,93123,6,0,L|88:91,1,107.999996704102,8|0,1:0|0:0,0:0:0:0:
0,179,93380,2,0,L|107:187,1,107.999996704102,0|0,1:0|0:0,0:0:0:0:
245,248,93637,5,2,1:2:0:0:
122,195,93809,1,8,1:0:0:0:
219,139,93980,1,2,1:2:0:0:
148,304,94152,6,0,P|152:336|158:366,1,62.9999980773926,8|0,0:3|0:0,0:0:0:0:
259,346,94323,2,0,P|291:350|321:356,1,62.9999980773926,8|0,0:3|0:0,0:0:0:0:
512,309,94494,6,0,B|506:258|506:258|491:231,1,72,4|0,0:3|0:0,0:0:0:0:
401,267,94666,2,0,B|350:261|350:261|323:246,1,72,4|0,0:3|0:0,0:0:0:0:
440,170,94837,6,0,B|435:130|435:130|415:95,1,80.9999975280763,12|0,0:3|0:0,0:0:0:0:
309,102,95009,2,0,B|314:62|314:62|334:27,1,80.9999975280763,12|0,0:3|0:0,0:0:0:0:
201,168,95180,6,0,P|152:190|100:180,1,107.999996704102,6|0,1:2|0:0,0:0:0:0:
86,97,95437,2,0,P|139:89|193:82,1,107.999996704102,0|0,1:0|0:0,0:0:0:0:
219,265,95694,1,0,1:0:0:0:
228,255,95779,1,0,0:0:0:0:
237,245,95866,2,0,B|163:278|163:278|82:264,1,161.999995056153,2|0,1:2|0:0,0:0:0:0:
153,190,96209,6,0,L|128:2,1,180,4|0,0:3|0:0,0:0:0:0:
315,12,96466,5,0,0:0:0:0:
345,26,96552,2,0,L|338:79,1,53.9999983520508,8|0,1:0|0:0,0:0:0:0:
248,145,96723,2,0,L|240:88,1,53.9999983520508
428,116,96894,2,0,L|407:166,1,53.9999983520508,2|0,1:2|0:0,0:0:0:0:
364,253,97066,1,0,1:0:0:0:
355,243,97152,1,0,0:0:0:0:
346,233,97237,6,0,P|404:227|472:217,1,107.999996704102,0|0,1:0|0:0,0:0:0:0:
289,307,97494,2,0,P|237:297|190:321,1,107.999996704102,0|0,1:0|0:0,0:0:0:0:
225,212,97752,5,8,1:0:0:0:
248,380,97923,1,2,1:2:0:0:
346,233,98094,1,8,1:0:0:0:
116,264,98266,6,0,P|104:207|130:140,1,107.999996704102,0|0,1:0|0:0,0:0:0:0:
216,150,98523,1,0,0:0:0:0:
241,129,98609,2,0,P|251:68|238:28,1,53.9999983520508,0|0,1:0|0:0,0:0:0:0:
155,82,98780,5,2,1:2:0:0:
23,150,98952,1,8,1:0:0:0:
5,66,99123,1,2,1:2:0:0:
241,129,99294,6,0,P|296:133|362:151,1,107.999996704102,0|0,1:0|0:0,0:0:0:0:
399,73,99552,2,0,P|451:85|505:89,1,107.999996704102,0|0,1:0|0:0,0:0:0:0:
487,176,99809,1,2,0:0:0:0:
481,218,99894,1,0,0:0:0:0:
450,248,99980,1,2,0:0:0:0:
437,290,100066,1,0,0:0:0:0:
395,280,100152,1,2,0:0:0:0:
353,292,100237,1,0,0:0:0:0:
314,275,100323,5,12,1:2:0:0:
159,372,100494,1,0,1:0:0:0:
189,236,100666,1,8,1:0:0:0:
263,353,100837,1,2,1:2:0:0:
187,228,101009,5,8,1:0:0:0:
85,315,101180,1,2,0:0:0:0:
166,116,101352,5,12,1:2:0:0:
49,190,101523,1,0,1:0:0:0:
185,220,101694,1,8,1:0:0:0:
88,65,101866,1,2,1:2:0:0:
45,183,102037,5,0,1:0:0:0:
84,58,102209,1,8,1:0:0:0:
291,148,102380,6,0,P|311:124|339:109,1,62.9999980773926,12|0,0:3|0:0,0:0:0:0:
446,162,102552,2,0,P|431:135|407:115,1,62.9999980773926,8|0,0:3|0:0,0:0:0:0:
276,244,102723,6,0,P|285:210|301:178,1,72,4|0,0:3|0:0,0:0:0:0:
443,261,102894,2,0,P|441:225|432:191,1,72,4|0,0:3|0:0,0:0:0:0:
303,349,103066,6,0,L|302:268,1,80.9999975280763,12|0,0:3|0:0,0:0:0:0:
400,359,103237,2,0,L|416:279,1,80.9999975280763,12|0,0:3|0:0,0:0:0:0:
186,236,103409,6,0,B|126:233|126:233|77:254|77:254|-1:250,1,180,4|0,1:0|0:0,0:0:0:0:
28,339,103666,6,0,B|92:342|92:342|150:317,1,125.999996154785,2|0,1:2|0:0,0:0:0:0:
63,165,103923,6,0,L|49:91,1,53.9999983520508,0|0,1:0|0:0,0:0:0:0:
126,45,104094,5,2,0:0:0:0:
160,52,104179,1,0,0:0:0:0:
193,68,104265,1,2,0:0:0:0:
222,47,104352,1,0,0:0:0:0:
255,33,104437,6,0,B|264:24|264:24|268:28|268:28|280:17|280:17|281:22|281:22|311:11|311:11|309:17|309:17|344:17|344:17|340:21|340:21|375:35|375:35|369:38|369:38,1,161.999995056153,4|0,1:2|0:0,0:0:0:0:
395,208,105123,6,0,L|412:120,1,90,0|0,1:0|0:0,0:0:0:0:
467,270,105380,1,0,0:0:0:0:
467,270,105466,6,0,P|486:230|477:187,1,90,2|0,1:2|0:0,0:0:0:0:
381,301,105809,2,0,P|340:282|320:243,1,90,0|0,1:0|0:0,0:0:0:0:
328,151,106152,2,0,P|370:135|412:120,1,90,8|0,1:0|0:0,0:0:0:0:
198,259,106494,6,0,B|221:245|221:245|184:232|139:244,1,107.999996704102,4|0,1:3|0:0,0:0:0:0:
14,266,107009,5,0,0:0:0:0:
63,189,107180,1,0,1:0:0:0:
39,98,107352,1,0,0:0:0:0:
39,98,107437,1,0,0:0:0:0:
39,98,107523,6,0,P|83:91|121:68,1,90,2|0,1:2|0:0,0:0:0:0:
209,35,107866,2,0,P|218:81|224:124,1,90,0|0,1:0|0:0,0:0:0:0:
305,200,108209,2,0,P|311:155|319:111,1,90,8|0,1:0|0:0,0:0:0:0:
415,189,108552,6,0,B|475:140|489:218,1,107.999996704102,4|0,1:3|0:0,0:0:0:0:
365,271,109066,5,0,0:0:0:0:
377,364,109237,2,0,P|420:347|448:313,1,90,0|0,1:0|0:0,0:0:0:0:
187,319,109580,5,2,1:2:0:0:
288,198,109752,1,0,0:0:0:0:
283,377,109923,2,0,L|272:287,1,90,0|0,1:0|0:0,0:0:0:0:
139,160,110266,2,0,L|128:249,1,90,8|0,1:0|0:0,0:0:0:0:
153,68,110609,6,0,B|116:50|78:41|78:41|101:23,1,107.999996704102,4|0,1:3|0:0,0:0:0:0:
253,54,111123,5,0,0:0:0:0:
231,165,111294,1,2,1:2:0:0:
360,91,111466,1,0,0:0:0:0:
292,233,111637,6,4,B|294:220|294:220|300:221|300:221|304:206|304:206|308:209|308:209|327:184|327:184|329:190|329:190|358:172|358:172|357:177|357:177|394:171|394:171|391:176|391:176,1,161.999995056153,4|2,0:2|0:0,0:0:0:0:
349,302,112323,5,2,0:0:0:0:
307,320,112408,1,0,0:0:0:0:
263,317,112494,1,2,0:0:0:0:
226,293,112580,1,0,0:0:0:0:
203,255,112666,6,0,B|139:255|121:271|121:271|146:283,1,107.999996704102,4|0,1:3|0:0,0:0:0:0:
0,217,113180,5,0,0:0:0:0:
60,364,113352,1,0,1:0:0:0:
84,187,113523,2,0,L|94:109,1,45
16,68,113694,6,0,P|94:109|179:88,1,180,2|0,1:2|1:0,0:0:0:0:
261,49,114209,1,0,0:0:0:0:
343,95,114380,2,0,P|354:52|345:9,1,90,8|0,1:0|0:0,0:0:0:0:
386,172,114723,6,0,B|402:166|439:168|439:168|441:205|435:221,1,107.999996704102,4|0,1:3|0:0,0:0:0:0:
465,307,115237,5,0,0:0:0:0:
404,378,115409,1,0,1:0:0:0:
240,313,115580,1,0,0:0:0:0:
240,313,115666,1,0,0:0:0:0:
240,313,115752,6,0,L|236:223,1,90,2|0,1:2|0:0,0:0:0:0:
337,316,116094,2,0,L|349:226,1,90,0|0,1:0|0:0,0:0:0:0:
167,364,116437,2,0,L|87:321,1,90,8|0,1:0|0:0,0:0:0:0:
138,173,116780,6,0,B|161:170|161:170|166:158|166:158|113:163|113:163|79:145|79:145|28:149,1,180,4|0,1:2|0:0,0:0:0:0:
61,239,117123,5,8,1:0:0:0:
132,70,117294,1,0,0:0:0:0:
209,18,117466,2,0,L|308:9,1,90,0|2,1:0|0:0,0:0:0:0:
387,93,117809,6,0,B|359:88|359:88|352:78|352:78|471:99|471:99|439:69,1,180,4|0,1:2|0:0,0:0:0:0:
510,13,118152,5,8,1:0:0:0:
332,165,118323,1,0,0:0:0:0:
480,182,118494,2,0,L|485:277,1,90,0|2,1:0|0:0,0:0:0:0:
421,350,118837,5,4,1:2:0:0:
331,335,119009,1,0,0:0:0:0:
292,253,119180,1,0,1:0:0:0:
387,218,119352,6,0,L|392:262,1,45,8|0,1:3|0:0,0:0:0:0:
311,164,119523,2,0,L|305:119,1,45,8|0,1:3|0:0,0:0:0:0:
401,217,119694,2,0,L|407:262,1,45,4|0,1:3|0:0,0:0:0:0:
212,177,119866,6,0,L|168:182,1,45,12|0,1:2|0:0,0:0:0:0:
193,266,120037,2,0,L|149:271,1,45,2|0,1:2|0:0,0:0:0:0:
78,352,120209,5,8,0:3:0:0:
57,311,120294,1,8,0:3:0:0:
48,268,120380,1,4,0:3:0:0:
67,228,120466,1,4,0:3:0:0:
87,188,120551,5,8,0:3:0:0:
85,144,120637,1,8,0:3:0:0:
72,101,120723,1,4,0:3:0:0:
53,60,120809,6,0,L|76:326,1,135.000005149842,4|0,0:3|0:0,0:0:0:0:
247,251,121237,6,0,B|140:252|154:381|137:357|154:337|129:285|183:229|183:229|203:211|246:191|246:191|270:126|383:126|470:94|524:29|524:29|469:190|321:227|321:227|479:195|514:227|514:227|492:270|373:293|373:293|469:340|469:340|385:317|275:323,1,1619.99995056152,4|0,1:0|0:0,0:0:0:0:
