osu file format v14

[General]
AudioFilename: audio.mp3
AudioLeadIn: 0
PreviewTime: 86952
Countdown: 0
SampleSet: Soft
StackLeniency: 0.2
Mode: 0
LetterboxInBreaks: 0
EpilepsyWarning: 1
WidescreenStoryboard: 1

[Editor]
Bookmarks: 3894,9809,10152,12209,14523,15552,18037,20737,26266,33123,34494,50952,52323,67409,83866,87980,104437,112709,121237
DistanceSpacing: 1.2
BeatDivisor: 4
GridSize: 16
TimelineZoom: 2.400006

[Metadata]
Title:Crystal Illusion
TitleUnicode:Crystal Illusion
Artist:P4koo
ArtistUnicode:P4koo
Creator:Riana
Version:Skymin's Extra
Source:
Tags:omc#3 dailycare morinaga skymin [_-scarlet-_] scarlet [ -scarlet- ] instrumental electronic
BeatmapID:2035966
BeatmapSetID:791944

[Difficulty]
HPDrainRate:6
CircleSize:4.5
OverallDifficulty:8.9
ApproachRate:9.5
SliderMultiplier:1.4
SliderTickRate:1

[Events]
//Background and Video events
0,0,"bg.jpg",0,0
//Break Periods
2,18245,21635
//Storyboard Layer 0 (Background)
//Storyboard Layer 1 (Fail)
//Storyboard Layer 2 (Pass)
//Storyboard Layer 3 (Foreground)
//Storyboard Layer 4 (Overlay)
//Storyboard Sound Samples

[TimingPoints]
560,342.857142857143,3,2,1,40,1,0
1588,-100,4,2,1,40,0,0
3645,-100,4,2,1,40,0,0
4331,-100,4,2,1,40,0,0
7760,-100,4,2,1,40,0,0
9817,-37.037037037037,4,2,1,50,0,0
10160,-43.4782608695652,4,2,1,50,0,0
10331,-43.4782608695652,4,2,1,50,0,0
10502,-40,4,2,1,50,0,0
10845,-50,4,2,1,50,0,0
11017,-43.4782608695652,4,2,1,50,0,0
11274,-55.5555555555556,4,2,1,50,0,0
11531,-40,4,2,1,50,0,0
11702,-37.037037037037,4,2,1,50,0,0
11874,-37.037037037037,4,2,1,50,0,0
12217,-40,4,2,1,50,0,0
12388,-40,4,2,1,50,0,0
12560,-40,4,2,1,50,0,0
13074,-55.5555555555556,4,2,1,50,0,0
13245,-43.4782608695652,4,2,1,50,0,0
13588,-40,4,2,1,50,0,0
13760,-37.037037037037,4,2,1,50,0,0
13931,-37.037037037037,4,2,1,50,0,0
14274,-43.4782608695652,4,2,1,50,0,0
14617,-40,4,2,1,50,0,0
14960,-37.037037037037,4,2,1,50,0,0
15302,-41.6666666666667,4,2,1,50,0,0
15645,-40,4,2,1,50,0,0
15988,-43.4782608695652,4,2,1,50,0,0
16331,-50,4,2,1,50,0,0
16845,-55.5555555555556,4,2,1,50,0,0
17017,-52.6315789473684,4,2,1,50,0,0
17702,-50,4,2,1,50,0,0
18045,-66.6666666666667,4,2,1,40,0,0
24988,-58.8235294117647,4,2,1,40,0,0
25417,-47.6190476190476,4,2,1,40,0,0
25502,-43.4782608695652,4,2,1,40,0,0
25760,-40,4,2,1,40,0,0
26274,-43.4782608695652,4,2,1,40,0,0
26617,-40,4,2,1,40,0,0
27988,-45.4545454545455,4,2,1,40,0,0
28331,-40,4,2,1,40,0,0
32445,-52.6315789473684,4,2,1,40,0,0
34160,-50,4,2,1,40,0,0
34502,-100,4,2,2,40,0,1
34588,-100,4,2,2,35,0,0
34845,-66.6666666666667,4,2,2,45,0,0
35017,-58.8235294117647,4,2,2,60,0,0
35188,-40,4,2,2,65,0,0
35360,-28.5714285714286,4,2,2,70,0,0
35531,-100,4,2,2,40,0,1
35617,-100,4,2,2,35,0,0
35874,-66.6666666666667,4,2,2,45,0,0
36045,-58.8235294117647,4,2,2,60,0,0
36217,-40,4,2,2,65,0,0
36388,-28.5714285714286,4,2,2,70,0,0
36560,-100,4,2,2,40,0,1
36645,-100,4,2,2,35,0,0
36902,-66.6666666666667,4,2,2,45,0,0
37074,-58.8235294117647,4,2,2,60,0,0
37245,-40,4,2,2,65,0,0
37417,-28.5714285714286,4,2,2,70,0,0
37588,-100,4,2,2,40,0,1
37674,-100,4,2,2,35,0,0
37931,-66.6666666666667,4,2,2,45,0,0
38102,-58.8235294117647,4,2,2,60,0,0
38274,-40,4,2,2,65,0,0
38445,-28.5714285714286,4,2,2,70,0,0
38617,-100,4,2,2,40,0,1
38702,-100,4,2,2,35,0,0
38960,-66.6666666666667,4,2,2,45,0,0
39131,-58.8235294117647,4,2,2,60,0,0
39302,-40,4,2,2,65,0,0
39474,-28.5714285714286,4,2,2,70,0,0
39645,-100,4,2,2,40,0,1
39731,-100,4,2,2,35,0,0
39988,-66.6666666666667,4,2,2,45,0,0
40160,-58.8235294117647,4,2,2,60,0,0
40331,-40,4,2,2,65,0,0
40502,-28.5714285714286,4,2,2,70,0,0
40674,-100,4,2,2,40,0,1
40760,-100,4,2,2,35,0,0
41017,-66.6666666666667,4,2,2,45,0,0
41360,-58.8235294117647,4,2,2,60,0,0
41702,-58.8235294117647,4,2,2,80,0,0
42217,-33.3333333333333,4,2,2,80,0,0
42560,-33.3333333333333,4,2,2,80,0,0
42731,-100,4,2,2,40,0,1
42817,-100,4,2,2,35,0,0
43074,-66.6666666666667,4,2,2,45,0,0
43245,-58.8235294117647,4,2,2,60,0,0
43417,-40,4,2,2,65,0,0
43588,-28.5714285714286,4,2,2,70,0,0
43760,-100,4,2,2,40,0,1
43845,-100,4,2,2,30,0,0
44102,-66.6666666666667,4,2,2,45,0,0
44274,-58.8235294117647,4,2,2,60,0,0
44445,-40,4,2,2,65,0,0
44617,-28.5714285714286,4,2,2,70,0,0
44788,-100,4,2,2,40,0,1
44874,-100,4,2,2,35,0,0
45131,-66.6666666666667,4,2,2,45,0,0
45302,-58.8235294117647,4,2,2,60,0,0
45474,-40,4,2,2,65,0,0
45645,-28.5714285714286,4,2,2,70,0,0
45817,-100,4,2,2,40,0,1
45902,-100,4,2,2,35,0,0
46160,-66.6666666666667,4,2,2,45,0,0
46331,-58.8235294117647,4,2,2,60,0,0
46502,-40,4,2,2,65,0,0
46674,-28.5714285714286,4,2,2,70,0,0
46845,-100,4,2,2,40,0,1
46931,-100,4,2,2,35,0,0
47188,-66.6666666666667,4,2,2,45,0,0
47360,-58.8235294117647,4,2,2,60,0,0
47531,-40,4,2,2,65,0,0
47702,-28.5714285714286,4,2,2,70,0,0
47874,-100,4,2,2,40,0,1
47960,-100,4,2,2,35,0,0
48217,-66.6666666666667,4,2,2,45,0,0
48388,-58.8235294117647,4,2,2,60,0,0
48560,-40,4,2,2,65,0,0
48731,-28.5714285714286,4,2,2,70,0,0
48902,-100,4,2,2,40,0,1
48988,-100,4,2,2,35,0,0
49245,-66.6666666666667,4,2,2,45,0,0
49417,-58.8235294117647,4,2,2,60,0,0
49588,-40,4,2,2,65,0,0
49760,-28.5714285714286,4,2,2,70,0,0
49931,-28.5714285714286,4,2,2,85,0,0
50274,-100,4,2,2,80,0,0
50360,-100,4,2,2,60,0,0
50960,-117.647058823529,4,2,1,40,0,0
53017,-117.647058823529,4,2,1,40,0,0
53702,-117.647058823529,4,2,1,40,0,0
57131,-117.647058823529,4,2,1,40,0,0
57817,-117.647058823529,4,2,1,40,0,0
61245,-117.647058823529,4,2,1,40,0,0
61931,-117.647058823529,4,2,1,40,0,0
64331,-100,4,2,1,40,0,0
65360,-117.647058823529,4,2,1,40,0,0
66045,-117.647058823529,4,2,1,40,0,0
67417,-83.3333333333333,4,2,1,50,0,0
67760,-62.5,4,2,1,50,0,0
68102,-83.3333333333333,4,2,1,50,0,0
68617,-100,4,2,1,50,0,0
68960,-83.3333333333333,4,2,1,50,0,0
69474,-83.3333333333333,4,2,1,50,0,0
69817,-62.5,4,2,1,50,0,0
70160,-83.3333333333333,4,2,1,50,0,0
70502,-66.6666666666667,4,2,1,50,0,0
71531,-83.3333333333333,4,2,1,50,0,0
71874,-62.5,4,2,1,50,0,0
72388,-83.3333333333333,4,2,1,50,0,0
72560,-66.6666666666667,4,2,1,50,0,0
73588,-100,4,2,1,50,0,0
76674,-83.3333333333333,4,2,1,50,0,0
77702,-66.6666666666667,4,2,1,50,0,0
81817,-58.8235294117647,4,2,1,60,0,0
83531,-50,4,2,1,60,0,0
87302,-66.6666666666667,4,2,1,50,0,0
87474,-76.9230769230769,4,2,1,50,0,0
87645,-68.9655172413793,4,2,1,50,0,0
87817,-62.5,4,2,1,50,0,0
87988,-43.4782608695652,4,2,2,70,0,1
100331,-43.4782608695652,4,2,2,70,0,1
100674,-50,4,2,2,70,0,1
101017,-58.8235294117647,4,2,2,70,0,1
101360,-43.4782608695652,4,2,2,70,0,1
101702,-50,4,2,2,70,0,1
102045,-58.8235294117647,4,2,2,70,0,1
102388,-43.4782608695652,4,2,2,70,0,1
104102,-43.4782608695652,4,2,2,40,0,0
104445,-76.9230769230769,4,2,2,65,0,1
104531,-100,4,2,2,55,0,0
104788,-50,4,2,2,75,0,0
104960,-39.2156862745098,4,2,2,75,0,0
105131,-32.258064516129,4,2,2,75,0,0
105302,-32.258064516129,4,2,2,75,0,0
105474,-50,4,2,2,75,0,1
105560,-50,4,2,2,55,0,0
105817,-50,4,2,2,75,0,0
106502,-76.9230769230769,4,2,2,75,0,1
106588,-100,4,2,2,55,0,0
106845,-50,4,2,2,75,0,0
107017,-39.2156862745098,4,2,2,75,0,0
107188,-32.258064516129,4,2,2,75,0,0
107531,-50,4,2,2,75,0,1
107617,-50,4,2,2,55,0,0
107874,-50,4,2,2,75,0,0
108560,-76.9230769230769,4,2,2,75,0,1
108645,-100,4,2,2,55,0,0
108902,-50,4,2,2,75,0,0
109074,-39.2156862745098,4,2,2,75,0,0
109245,-50,4,2,2,75,0,0
110617,-76.9230769230769,4,2,2,75,0,1
110702,-100,4,2,2,55,0,0
110960,-58.8235294117647,4,2,2,75,0,0
111131,-50,4,2,2,75,0,0
111302,-35.7142857142857,4,2,2,75,0,0
111474,-27.027027027027,4,2,2,75,0,0
111645,-76.9230769230769,4,2,2,75,0,1
111731,-100,4,2,2,55,0,0
111988,-58.8235294117647,4,2,2,75,0,0
112160,-50,4,2,2,75,0,0
112331,-35.7142857142857,4,2,2,50,0,0
112417,-35.7142857142857,4,2,2,50,0,0
112502,-27.027027027027,4,2,2,50,0,0
112674,-76.9230769230769,4,2,2,75,0,1
112760,-100,4,2,2,55,0,0
113017,-50,4,2,2,75,0,0
113188,-39.2156862745098,4,2,2,75,0,0
113360,-32.258064516129,4,2,2,75,0,0
113702,-50,4,2,2,75,0,1
113788,-50,4,2,2,55,0,0
114045,-50,4,2,2,75,0,0
114731,-76.9230769230769,4,2,2,75,0,1
114817,-100,4,2,2,55,0,0
115074,-50,4,2,2,75,0,0
115245,-39.2156862745098,4,2,2,75,0,0
115417,-32.258064516129,4,2,2,75,0,0
115760,-50,4,2,2,75,0,1
115845,-50,4,2,2,55,0,0
116102,-50,4,2,2,75,0,0
116788,-58.8235294117647,4,2,2,65,0,1
116874,-58.8235294117647,4,2,2,65,0,0
117474,-125,4,2,2,65,0,0
117560,-125,4,2,2,50,0,0
117817,-54.054054054054,4,2,2,75,0,1
117902,-54.054054054054,4,2,2,75,0,0
118502,-125,4,2,2,75,0,0
118588,-125,4,2,2,50,0,0
118845,-50,4,2,2,85,0,1
118974,-50,4,2,2,85,0,0
120902,-133.333333333333,4,2,2,40,0,0
120988,-133.333333333333,4,2,2,20,0,0
121245,-133.333333333333,4,2,2,95,0,0

[Colours]
Combo1 : 131,98,185
Combo2 : 83,179,181
Combo3 : 141,152,228
Combo4 : 56,165,143

[HitObjects]
44,114,1245,5,0,0:2:0:0:
61,112,1331,1,0,0:2:0:0:
78,111,1417,1,0,0:2:0:0:
96,109,1502,1,0,0:2:0:0:
113,108,1588,5,2,0:2:0:0:
237,161,1760,1,0,0:2:0:0:
121,200,1931,2,0,P|150:218|184:229,1,70,2|0,0:2|0:2,0:0:0:0:
195,80,2274,1,0,0:2:0:0:
392,207,2445,1,0,0:2:0:0:
392,207,2531,1,0,0:2:0:0:
392,207,2617,5,2,0:2:0:0:
268,260,2788,1,0,0:2:0:0:
327,138,2960,1,2,0:2:0:0:
288,384,3131,1,0,0:0:0:0:
385,305,3302,1,0,0:0:0:0:
182,236,3474,1,0,0:2:0:0:
481,296,3645,6,0,P|454:233|391:206,1,140,2|0,0:2|0:2,0:0:0:0:
433,71,4160,1,0,0:2:0:0:
473,143,4331,2,0,P|502:119|512:86,1,70,2|0,0:2|0:2,0:0:0:0:
441,373,4674,5,2,0:2:0:0:
441,363,5360,5,0,0:2:0:0:
357,295,5531,1,0,0:2:0:0:
259,317,5702,1,2,0:2:0:0:
261,328,5874,1,0,0:2:0:0:
263,339,6045,1,0,0:2:0:0:
172,383,6217,1,0,0:2:0:0:
102,311,6388,1,0,0:2:0:0:
146,222,6560,1,0,0:2:0:0:
246,238,6731,5,2,0:2:0:0:
248,249,6902,1,0,0:2:0:0:
206,140,7074,1,2,0:2:0:0:
204,151,7245,1,0,0:2:0:0:
246,42,7417,1,2,0:2:0:0:
248,53,7588,1,0,0:2:0:0:
146,222,7760,6,0,P|94:175|26:153,1,140,2|0,0:2|0:2,0:0:0:0:
93,21,8274,1,0,0:2:0:0:
99,136,8445,1,2,0:2:0:0:
110,124,8617,1,0,0:2:0:0:
182,186,8788,5,2,0:2:0:0:
121,353,8960,1,0,0:2:0:0:
190,200,9131,1,2,0:2:0:0:
195,311,9302,1,0,0:2:0:0:
199,214,9474,5,2,0:2:0:0:
209,287,9560,1,2,0:2:0:0:
278,315,9645,1,2,0:2:0:0:
336,270,9731,1,2,0:2:0:0:
331,195,9817,6,0,B|346:144|395:137|395:137|447:123|456:65,1,189.000000720978,6|0,0:0|0:3,0:0:0:0:
376,57,10074,1,0,0:2:0:0:
298,90,10160,6,0,P|288:56|303:12,1,80.5000015354157,10|0,0:2|0:2,0:0:0:0:
428,158,10331,2,0,P|440:193|431:234,1,80.5000015354157,2|0,0:2|0:2,0:0:0:0:
375,57,10502,6,0,P|425:-12|509:9,1,175,0|0,0:0|0:0,0:0:0:0:
510,146,10760,1,0,0:0:0:0:
495,156,10845,6,0,P|460:165|424:156,1,70,2|0,0:2|0:2,0:0:0:0:
375,57,11017,2,0,L|389:222,1,161.000003070831,10|0,0:2|0:2,0:0:0:0:
509,235,11274,5,0,0:2:0:0:
489,309,11360,2,0,L|476:380,1,62.9999980773926,2|0,0:2|0:2,0:0:0:0:
348,355,11531,6,0,P|323:330|316:278,1,87.5,2|0,0:2|0:2,0:0:0:0:
228,279,11702,2,0,P|233:232|264:198,1,94.5000003604889,10|0,0:2|0:2,0:0:0:0:
269,104,11874,6,0,B|234:80|234:80|178:82|153:128|153:128|109:112,1,189.000000720978,6|0,0:2|0:2,0:0:0:0:
16,81,12131,1,0,0:2:0:0:
27,176,12217,6,0,L|36:263,1,87.5,10|0,0:2|0:2,0:0:0:0:
45,350,12388,2,0,L|36:263,1,87.5,2|0,0:2|0:2,0:0:0:0:
109,112,12560,6,0,L|127:286,1,175,2|0,0:2|0:2,0:0:0:0:
141,379,12817,1,0,0:0:0:0:
141,379,12902,1,0,0:2:0:0:
261,204,13074,6,0,L|268:141,1,62.9999980773926,10|0,0:2|0:2,0:0:0:0:
346,105,13245,6,0,P|290:55|212:78,1,161.000003070831,2|0,0:2|0:2,0:0:0:0:
261,204,13502,1,0,0:2:0:0:
319,267,13588,6,0,P|357:265|399:231,1,87.5,10|0,0:2|0:2,0:0:0:0:
501,106,13760,2,0,P|465:75|418:71,1,94.5000003604889,8|0,0:2|0:2,0:0:0:0:
346,105,13931,6,0,B|363:156|363:156|441:133|481:204,1,189.000000720978,6|0,0:0|0:0,0:0:0:0:
467,275,14188,1,0,0:0:0:0:
459,351,14274,6,0,P|392:311|395:236,1,161.000003070831,10|0,0:2|0:2,0:0:0:0:
467,275,14531,5,0,0:0:0:0:
367,335,14617,2,0,P|327:352|283:347,1,87.5,2|0,0:2|0:2,0:0:0:0:
114,323,14788,5,8,0:0:0:0:
104,339,14874,1,0,0:2:0:0:
32,361,14960,6,0,P|2:272|26:182,1,189.000000720978,6|0,0:2|0:2,0:0:0:0:
103,158,15217,1,0,0:2:0:0:
182,129,15302,6,0,P|178:205|101:242,1,167.999994873047,10|0,0:2|0:2,0:0:0:0:
86,79,15560,1,0,0:2:0:0:
66,0,15645,6,0,P|109:-1|145:21,1,87.5,2|0,0:2|0:2,0:0:0:0:
103,158,15817,2,0,P|59:159|23:136,1,87.5,10|0,0:2|0:2,0:0:0:0:
264,0,15988,6,0,L|255:91,1,80.5000015354157,6|0,0:2|0:2,0:0:0:0:
339,9,16160,2,0,L|331:92,1,80.5000015354157,2|0,0:2|0:2,0:0:0:0:
127,294,16331,6,0,L|120:224,1,70,10|0,0:2|0:2,0:0:0:0:
200,284,16502,2,0,L|193:214,1,70,2|0,0:2|0:2,0:0:0:0:
248,153,16674,6,0,L|241:229,1,70,2|0,0:2|0:2,0:0:0:0:
324,163,16845,2,0,L|317:239,1,62.9999980773926,10|0,0:2|0:2,0:0:0:0:
467,211,17017,5,2,0:2:0:0:
423,198,17102,1,2,0:2:0:0:
382,204,17188,1,10,0:2:0:0:
346,230,17274,1,2,0:2:0:0:
324,266,17360,5,2,0:2:0:0:
302,303,17445,1,2,0:2:0:0:
266,329,17531,1,2,0:2:0:0:
225,335,17617,1,2,0:2:0:0:
183,324,17702,6,0,L|193:241,1,70,10|0,0:2|0:2,0:0:0:0:
114,208,17874,2,0,L|97:123,1,70,10|0,0:2|0:2,0:0:0:0:
48,320,18045,5,6,0:2:0:0:
256,192,22160,12,0,24902,0:0:0:0:
209,53,25245,5,0,3:2:0:0:
209,53,25417,6,0,P|191:22|152:24,1,73.4999977569581,8|0,0:2|0:2,0:0:0:0:
47,153,25588,2,0,P|82:133|121:134,1,80.5000015354157,0|0,0:2|0:2,0:0:0:0:
268,247,25760,2,0,P|230:225|187:226,1,87.5,0|0,0:2|0:2,0:0:0:0:
146,102,25931,6,0,P|155:167|137:277,1,175,10|0,0:2|0:2,0:0:0:0:
27,341,26188,1,0,0:2:0:0:
20,352,26274,6,0,B|57:327|96:349|96:349|131:371|181:351,1,161.000003070831,2|0,3:2|0:2,0:0:0:0:
268,247,26531,1,0,0:2:0:0:
319,180,26617,2,0,P|246:159|186:234,1,175,10|0,0:2|0:2,0:0:0:0:
469,355,26960,6,0,P|487:315|476:268,1,87.5,2|0,0:2|0:2,0:0:0:0:
374,296,27131,1,0,0:2:0:0:
386,299,27217,1,0,0:2:0:0:
398,302,27302,1,0,3:2:0:0:
256,331,27474,1,2,0:2:0:0:
489,179,27645,6,0,B|439:170|439:170|377:188|377:188|318:179,1,175,10|0,0:2|0:2,0:0:0:0:
287,82,27902,1,0,0:2:0:0:
238,160,27988,2,0,P|234:195|253:233,1,77.0000023498536,2|0,0:2|0:2,0:0:0:0:
371,104,28160,2,0,P|375:69|356:31,1,77.0000023498536,10|0,0:2|0:2,0:0:0:0:
162,106,28331,6,0,B|144:169|144:169|162:205|162:205|148:273,1,175,2|0,0:2|0:2,0:0:0:0:
137,358,28588,1,0,0:2:0:0:
148,272,28674,2,0,B|128:227|128:227|57:204|57:204|10:222,1,175,10|0,0:2|0:2,0:0:0:0:
132,24,29017,6,0,P|175:17|218:39,1,87.5,2|0,0:2|0:2,0:0:0:0:
249,233,29188,1,0,0:2:0:0:
246,245,29274,1,0,0:2:0:0:
243,257,29360,1,0,3:2:0:0:
84,189,29531,1,10,0:2:0:0:
331,13,29702,6,0,B|377:66|347:137|347:137|387:126,1,175,2|0,0:2|0:2,0:0:0:0:
419,227,29960,1,0,0:2:0:0:
410,242,30045,2,0,L|321:270,1,87.5,8|0,0:2|0:2,0:0:0:0:
388,126,30217,2,0,L|479:99,1,87.5,8|0,0:2|0:2,0:0:0:0:
249,233,30388,6,0,B|181:225|181:225|160:203|160:203|63:186,1,175,2|0,3:2|0:2,0:0:0:0:
161,14,30645,1,0,0:2:0:0:
161,14,30731,2,0,L|170:105,1,87.5,10|0,0:2|0:2,0:0:0:0:
79,277,30902,2,0,L|85:188,1,87.5,2|0,0:2|0:2,0:0:0:0:
143,326,31074,2,0,P|59:363|6:310,1,175,2|8,0:2|0:2,0:0:0:0:
305,346,31417,6,0,L|287:167,1,175,2|0,3:2|0:2,0:0:0:0:
388,126,31674,1,0,0:2:0:0:
388,126,31760,2,0,L|385:214,1,87.5,10|0,0:2|0:2,0:0:0:0:
461,277,31931,2,0,L|476:191,1,87.5,2|0,0:2|0:2,0:0:0:0:
461,94,32102,2,0,P|398:42|318:78,1,175,2|8,0:2|0:2,0:0:0:0:
245,103,32360,1,0,0:2:0:0:
245,103,32445,6,0,P|226:71|221:40,1,66.4999982242585,2|0,3:2|0:2,0:0:0:0:
152,112,32617,1,0,0:2:0:0:
152,112,32702,1,0,0:2:0:0:
152,112,32788,2,0,P|120:131|89:136,1,66.4999982242585,10|0,3:2|0:2,0:0:0:0:
168,210,32960,1,0,0:2:0:0:
168,210,33045,1,0,0:2:0:0:
168,210,33131,2,0,P|187:242|192:273,1,66.4999982242585,2|0,3:2|0:2,0:0:0:0:
308,308,33302,1,10,0:2:0:0:
265,289,33388,1,2,0:2:0:0:
220,289,33474,5,6,0:2:0:0:
180,303,33560,1,2,0:2:0:0:
142,330,33645,1,2,0:2:0:0:
100,342,33731,1,2,0:2:0:0:
59,324,33817,5,10,0:2:0:0:
64,275,33902,1,2,0:2:0:0:
67,236,33988,1,2,0:2:0:0:
70,218,34074,1,2,0:2:0:0:
72,207,34160,6,0,P|-6:177|66:133,1,210,14|0,0:2|0:2,0:0:0:0:
114,68,34502,6,0,L|119:34,3,35,4|0|0|0,3:2|0:2|0:2|0:2,0:0:0:0:
161,137,34845,6,0,P|157:162|159:188,1,52.5000020027161,10|0,0:2|0:2,0:0:0:0:
234,202,35017,2,0,P|254:218|287:231,1,59.5000011348725,2|0,0:2|0:2,0:0:0:0:
399,336,35188,6,0,P|440:319|470:288,1,87.5,2|0,0:2|0:2,0:0:0:0:
434,140,35360,2,0,P|438:80|417:23,1,122.500001168251,2|0,0:2|0:2,0:0:0:0:
187,257,35531,6,0,L|186:300,3,35,0|0|0|0,3:2|0:2|0:2|0:2,0:0:0:0:
159,188,35874,6,0,P|134:183|106:186,1,52.5000020027161,10|0,0:2|0:2,0:0:0:0:
41,265,36045,2,0,P|68:270|99:267,1,59.5000011348725,2|0,0:2|0:2,0:0:0:0:
197,77,36217,6,0,P|153:68|105:73,1,87.5,2|0,0:2|0:2,0:0:0:0:
120,364,36388,2,0,P|178:375|244:368,1,122.500001168251,10|0,0:2|0:2,0:0:0:0:
270,35,36560,6,0,L|267:-1,3,35,0|0|0|0,3:2|0:2|0:2|0:2,0:0:0:0:
269,121,36902,6,0,P|288:138|312:148,1,52.5000020027161,10|0,0:2|0:2,0:0:0:0:
379,103,37074,2,0,P|408:93|433:75,1,59.5000011348725,2|0,0:2|0:2,0:0:0:0:
463,284,37245,6,0,P|420:275|385:250,1,87.5,2|0,0:2|0:2,0:0:0:0:
191,191,37417,2,0,P|176:132|195:75,1,122.500001168251,2|0,0:2|0:2,0:0:0:0:
334,334,37588,6,0,L|333:377,3,35,0|0|8|0,3:2|0:2|0:2|0:2,0:0:0:0:
285,266,37931,5,2,0:2:0:0:
267,268,38017,1,0,0:2:0:0:
250,270,38102,1,0,0:2:0:0:
233,273,38188,1,0,0:2:0:0:
215,275,38274,5,2,0:2:0:0:
144,269,38360,1,2,0:2:0:0:
86,214,38445,1,10,0:2:0:0:
86,127,38531,1,2,0:2:0:0:
151,61,38617,6,0,L|151:27,3,35,2|0|0|0,3:2|0:2|0:2|0:2,0:0:0:0:
189,173,38960,6,0,P|195:146|206:124,1,52.5000020027161,10|0,0:2|0:2,0:0:0:0:
276,163,39131,2,0,P|304:153|334:152,1,59.5000011348725,2|0,0:2|0:2,0:0:0:0:
478,348,39302,6,0,P|475:304|458:265,1,87.5,2|0,0:2|0:2,0:0:0:0:
332,305,39474,2,0,P|275:282|215:275,1,122.500001168251,2|0,0:2|0:2,0:0:0:0:
69,313,39645,6,0,L|66:350,3,35,0|0|0|0,3:2|0:2|0:2|0:2,0:0:0:0:
88,213,39988,6,0,P|60:210|27:220,1,52.5000020027161,10|0,0:2|0:2,0:0:0:0:
156,281,40160,2,0,P|183:283|215:274,1,59.5000011348725,2|0,0:2|0:2,0:0:0:0:
92,37,40331,6,0,P|84:80|92:123,1,87.5,2|0,0:2|0:2,0:0:0:0:
298,357,40502,2,0,P|308:296|297:235,1,122.500001168251,10|0,0:2|0:2,0:0:0:0:
176,63,40674,6,0,L|176:25,3,35,0|0|0|0,3:2|0:2|0:2|0:2,0:0:0:0:
217,133,41017,5,10,0:2:0:0:
215,151,41102,1,0,0:2:0:0:
213,168,41188,1,0,0:2:0:0:
210,185,41274,1,0,0:2:0:0:
208,203,41360,5,2,0:2:0:0:
214,274,41445,1,2,0:2:0:0:
269,332,41531,1,2,0:2:0:0:
357,335,41617,1,2,0:2:0:0:
406,263,41702,6,0,B|438:266|438:266|462:254,1,59.5000011348725,2|0,3:2|0:2,0:0:0:0:
343,200,41874,2,0,B|324:226|324:226|322:253,1,59.5000011348725,10|0,0:2|0:2,0:0:0:0:
429,176,42045,2,0,B|415:146|415:146|392:131,1,59.5000011348725,2|0,0:2|0:2,0:0:0:0:
329,11,42217,5,2,0:2:0:0:
318,16,42302,1,2,0:2:0:0:
309,21,42388,6,0,P|296:71|302:123,1,105.000004005432,10|0,0:2|0:2,0:0:0:0:
429,176,42560,2,0,P|441:125|435:73,1,105.000004005432,10|0,0:2|0:2,0:0:0:0:
199,75,42731,6,0,L|203:38,3,35,4|0|0|0,3:2|0:2|0:2|0:2,0:0:0:0:
150,150,43074,6,0,P|130:132|118:108,1,52.5000020027161,10|0,0:2|0:2,0:0:0:0:
46,98,43245,2,0,P|52:68|68:43,1,59.5000011348725,2|0,0:2|0:2,0:0:0:0:
302,123,43417,6,0,P|292:173|266:208,1,87.5,2|0,0:2|0:2,0:0:0:0:
147,302,43588,2,0,P|88:285|43:237,1,122.500001168251,2|0,0:2|0:2,0:0:0:0:
342,298,43760,6,0,L|338:335,3,35,0|0|0|0,3:2|0:2|0:2|0:2,0:0:0:0:
393,236,44102,6,0,P|372:221|342:214,1,52.5000020027161,10|0,0:2|0:2,0:0:0:0:
271,202,44274,2,0,P|243:199|210:209,1,59.5000011348725,2|0,0:2|0:2,0:0:0:0:
460,331,44445,6,0,P|486:296|501:255,1,87.5,2|0,0:2|0:2,0:0:0:0:
512,116,44617,2,0,P|505:55|481:0,1,122.500001168251,10|0,0:2|0:2,0:0:0:0:
301,122,44788,6,0,L|298:88,3,35,0|0|0|0,3:2|0:2|0:2|0:2,0:0:0:0:
235,46,45131,6,0,P|222:51|183:52,1,52.5000020027161,10|0,0:2|0:2,0:0:0:0:
339,21,45302,2,0,P|355:14|407:13,1,59.5000011348725,2|0,0:2|0:2,0:0:0:0:
166,138,45474,6,0,P|130:113|108:75,1,87.5,2|0,0:2|0:2,0:0:0:0:
393,236,45645,2,0,P|440:274|460:331,1,122.500001168251,2|0,0:2|0:2,0:0:0:0:
136,332,45817,6,0,L|99:328,3,35,0|0|8|0,3:2|0:2|0:2|0:2,0:0:0:0:
199,279,46160,5,2,0:2:0:0:
201,261,46245,1,0,0:2:0:0:
204,244,46331,1,0,0:2:0:0:
206,227,46417,1,0,0:2:0:0:
208,209,46502,5,2,0:2:0:0:
271,163,46588,1,2,0:2:0:0:
348,184,46674,1,10,0:2:0:0:
381,255,46760,1,2,0:2:0:0:
349,327,46845,6,0,L|353:371,3,35,2|0|0|0,3:2|0:2|0:2|0:2,0:0:0:0:
433,315,47188,6,0,P|451:292|458:269,1,52.5000020027161,10|0,0:2|0:2,0:0:0:0:
512,212,47360,2,0,P|499:180|480:160,1,59.5000011348725,2|0,0:2|0:2,0:0:0:0:
389,37,47531,6,0,P|354:64|332:101,1,87.5,2|0,0:2|0:2,0:0:0:0:
208,209,47702,2,0,P|215:269|245:323,1,122.500001168251,2|0,0:2|0:2,0:0:0:0:
254,35,47874,6,0,L|258:-9,3,35,2|0|0|0,3:2|0:2|0:2|0:2,0:0:0:0:
207,104,48217,6,0,P|184:88|171:65,1,52.5000020027161,10|0,0:2|0:2,0:0:0:0:
96,89,48388,2,0,P|90:58|98:31,1,59.5000011348725,2|0,0:2|0:2,0:0:0:0:
52,339,48560,6,0,P|74:300|111:272,1,87.5,2|0,0:2|0:2,0:0:0:0:
208,209,48731,2,0,P|263:184|328:183,1,122.500001168251,10|0,0:2|0:2,0:0:0:0:
455,270,48902,6,0,L|458:316,3,35,2|0|0|0,3:2|0:2|0:2|0:2,0:0:0:0:
449,192,49245,5,10,0:2:0:0:
447,173,49331,1,0,0:2:0:0:
446,156,49417,1,0,0:2:0:0:
445,139,49502,1,0,0:2:0:0:
443,122,49588,5,2,0:2:0:0:
393,56,49674,1,0,0:2:0:0:
312,62,49760,1,8,0:2:0:0:
275,133,49845,1,0,0:2:0:0:
284,151,49931,5,6,0:2:0:0:
259,235,50017,1,0,0:2:0:0:
183,280,50102,1,0,0:2:0:0:
97,251,50188,1,0,0:2:0:0:
60,171,50274,2,0,L|62:122,3,35,8|0|0|0,0:2|0:2|0:2|0:2,0:0:0:0:
12,287,50617,5,2,0:2:0:0:
14,305,50702,1,0,0:2:0:0:
15,322,50788,1,8,0:2:0:0:
16,339,50874,1,8,0:2:0:0:
18,358,50960,5,6,0:2:0:0:
6,336,51817,2,0,P|18:328|32:323,1,29.7500005674362,0|0,0:2|0:2,0:0:0:0:
122,313,51988,6,0,L|116:372,1,59.5000011348725,2|0,0:2|0:2,0:0:0:0:
185,254,52331,2,0,L|136:219,1,59.5000011348725,2|0,0:2|0:2,0:0:0:0:
203,337,52674,2,0,L|257:312,1,59.5000011348725,2|0,0:2|0:2,0:0:0:0:
193,135,53017,6,0,L|184:258,1,119.000002269745,2|0,0:2|0:2,0:0:0:0:
321,194,53531,1,0,0:2:0:0:
324,357,53702,2,0,P|333:328|335:298,1,59.5000011348725,2|0,0:2|0:2,0:0:0:0:
83,181,54045,1,2,0:2:0:0:
83,181,54731,5,0,0:2:0:0:
167,113,54902,1,0,0:2:0:0:
265,135,55074,1,2,0:2:0:0:
263,146,55245,1,0,0:2:0:0:
261,157,55417,1,0,0:2:0:0:
352,201,55588,1,0,0:2:0:0:
422,129,55760,1,0,0:2:0:0:
378,40,55931,1,0,0:2:0:0:
278,56,56102,5,2,0:2:0:0:
276,45,56274,1,0,0:2:0:0:
340,150,56445,1,2,0:2:0:0:
342,139,56617,1,0,0:2:0:0:
297,259,56788,1,2,0:2:0:0:
295,248,56960,1,0,0:2:0:0:
511,225,57131,6,0,P|452:256|398:238,1,119.000002269745,2|0,0:2|0:2,0:0:0:0:
255,331,57645,1,0,0:2:0:0:
357,384,57817,2,0,P|368:356|369:327,1,59.5000011348725,2|0,0:2|0:2,0:0:0:0:
404,242,58160,5,2,0:2:0:0:
363,183,58331,1,0,0:2:0:0:
293,173,58502,1,0,0:2:0:0:
236,217,58674,1,0,0:2:0:0:
179,260,58845,1,2,0:2:0:0:
108,249,59017,1,0,0:2:0:0:
69,191,59188,6,0,L|85:72,1,119.000002269745,2|0,0:2|0:2,0:0:0:0:
242,48,59702,1,0,0:2:0:0:
160,129,59874,1,2,0:2:0:0:
160,129,60045,2,0,P|173:135|187:139,1,29.7500005674362,2|0,0:2|0:2,0:0:0:0:
268,135,60217,6,0,P|265:164|258:193,1,59.5000011348725,2|0,0:2|0:2,0:0:0:0:
242,48,60560,2,0,P|218:30|196:9,1,59.5000011348725,2|0,0:2|0:2,0:0:0:0:
330,68,60902,2,0,P|357:56|385:48,1,59.5000011348725,2|0,0:2|0:2,0:0:0:0:
512,147,61245,6,0,P|453:137|388:132,1,119.000002269745,2|0,0:2|0:2,0:0:0:0:
468,28,61760,1,0,0:2:0:0:
362,232,61931,2,0,B|341:210|341:210|336:178,1,59.5000011348725,2|0,0:2|0:2,0:0:0:0:
449,248,62274,5,2,0:2:0:0:
406,308,62445,1,0,0:2:0:0:
336,318,62617,1,0,0:2:0:0:
279,274,62788,1,0,0:2:0:0:
222,231,62960,1,2,0:2:0:0:
151,242,63131,1,0,0:2:0:0:
111,300,63302,6,0,P|88:318|60:325,1,59.5000011348725,2|0,0:2|0:2,0:0:0:0:
82,236,63645,2,0,P|77:206|85:178,1,59.5000011348725,2|0,0:2|0:2,0:0:0:0:
151,242,63988,2,0,P|178:253|199:274,1,59.5000011348725,2|0,0:2|0:2,0:0:0:0:
187,147,64331,6,0,L|194:66,1,70,2|0,0:2|0:2,0:0:0:0:
314,228,64674,2,0,L|307:147,1,70,2|0,0:2|0:2,0:0:0:0:
180,139,65017,2,0,L|186:69,1,70,2|0,0:2|0:2,0:0:0:0:
324,68,65360,6,0,P|381:52|440:59,1,119.000002269745,2|0,0:2|0:2,0:0:0:0:
412,136,65874,1,0,0:2:0:0:
511,31,66045,2,0,P|518:59|513:88,1,59.5000011348725,2|0,0:2|0:2,0:0:0:0:
412,136,66388,5,2,0:2:0:0:
402,204,66560,1,0,0:2:0:0:
416,273,66731,1,0,0:2:0:0:
450,334,66902,1,0,0:2:0:0:
392,285,67074,5,2,0:2:0:0:
371,276,67160,1,0,0:2:0:0:
349,273,67245,1,0,0:2:0:0:
327,274,67331,1,0,0:2:0:0:
309,283,67417,6,0,P|307:241|317:201,1,83.9999974365235,6|0,3:2|0:2,0:0:0:0:
229,81,67674,1,0,0:2:0:0:
228,81,67760,2,0,P|219:136|232:190,1,112,2|0,0:2|0:2,0:0:0:0:
192,321,68017,1,0,0:2:0:0:
192,321,68102,2,0,P|174:327|151:329,1,41.9999987182618,10|0,0:2|0:2,0:0:0:0:
317,200,68274,5,0,0:2:0:0:
317,200,68360,1,0,0:2:0:0:
317,200,68445,1,6,3:2:0:0:
156,248,68617,2,0,L|86:241,1,70,8|0,0:2|0:2,0:0:0:0:
14,169,68874,1,0,0:2:0:0:
14,169,68960,6,0,L|17:210,1,41.9999987182618,2|0,3:2|0:2,0:0:0:0:
70,123,69131,2,0,L|50:161,1,41.9999987182618,10|0,0:2|0:2,0:0:0:0:
141,111,69302,2,0,L|104:133,1,41.9999987182618,2|0,0:2|0:2,0:0:0:0:
200,182,69474,6,0,P|211:148|214:98,1,83.9999974365235,6|0,3:2|0:2,0:0:0:0:
237,4,69731,1,0,0:2:0:0:
237,4,69817,2,0,P|236:55|261:111,1,112,2|0,0:2|0:2,0:0:0:0:
336,147,70074,1,0,0:2:0:0:
336,147,70160,2,0,P|354:137|375:133,1,41.9999987182618,10|0,0:2|0:2,0:0:0:0:
432,191,70331,1,0,0:2:0:0:
432,191,70417,1,0,0:2:0:0:
432,191,70502,6,0,B|417:168|417:168|419:133|443:96,1,105.000004005432,6|8,3:2|0:2,0:0:0:0:
395,268,70845,2,0,B|422:266|422:266|451:285|471:325,1,105.000004005432,2|0,0:2|3:2,0:0:0:0:
346,197,71188,2,0,B|333:221|333:221|302:237|257:234,1,105.000004005432,10|0,0:2|3:2,0:0:0:0:
194,287,71445,1,0,3:2:0:0:
194,287,71531,6,0,P|180:319|181:368,1,83.9999974365235,6|0,3:2|0:2,0:0:0:0:
23,123,71874,2,0,P|56:84|156:119,1,168,2|0,0:2|0:2,0:0:0:0:
140,226,72217,1,8,0:2:0:0:
161,107,72388,2,0,L|155:151,1,41.9999987182618,2|0,0:2|0:2,0:0:0:0:
58,295,72560,6,0,L|40:191,1,105.000004005432,6|8,3:2|0:2,0:0:0:0:
173,45,72902,2,0,L|155:148,1,105.000004005432,2|0,0:2|3:2,0:0:0:0:
178,353,73245,2,0,L|158:238,1,105.000004005432,10|0,0:2|3:2,0:0:0:0:
229,191,73588,5,6,3:2:0:0:
263,124,73760,1,0,0:2:0:0:
334,98,73931,1,0,0:2:0:0:
403,126,74102,1,0,0:2:0:0:
463,44,74274,5,8,0:2:0:0:
467,57,74445,1,0,0:2:0:0:
395,215,74617,5,6,3:2:0:0:
340,170,74788,1,8,0:2:0:0:
334,98,74960,1,0,0:2:0:0:
397,284,75131,5,2,3:2:0:0:
407,207,75302,1,10,0:2:0:0:
471,162,75474,1,2,0:2:0:0:
327,364,75645,6,0,P|309:334|305:298,1,70,6|0,3:2|0:2,0:0:0:0:
217,330,75902,1,0,0:0:0:0:
217,330,75988,2,0,P|216:296|230:261,1,70,10|0,0:2|0:2,0:0:0:0:
138,245,76245,1,0,0:0:0:0:
138,245,76331,2,0,P|154:215|184:192,1,70,2|0,0:2|0:2,0:0:0:0:
206,117,76588,1,0,0:2:0:0:
206,117,76674,6,0,L|198:32,1,83.9999974365235,6|8,3:2|0:2,0:0:0:0:
322,181,77017,2,0,L|334:97,1,83.9999974365235,2|0,0:2|3:2,0:0:0:0:
360,29,77274,1,0,0:2:0:0:
360,29,77360,6,0,L|367:73,1,41.9999987182618,10|0,0:2|0:2,0:0:0:0:
444,79,77531,2,0,L|435:122,1,41.9999987182618,2|0,0:2|0:2,0:0:0:0:
512,189,77702,6,0,P|460:194|415:220,1,105.000004005432,6|0,3:2|0:2,0:0:0:0:
340,384,77960,1,0,0:0:0:0:
340,384,78045,2,0,P|318:336|319:284,1,105.000004005432,10|0,0:2|0:2,0:0:0:0:
436,120,78302,1,0,0:0:0:0:
436,120,78388,2,0,P|436:172|415:219,1,105.000004005432,2|0,0:2|0:2,0:0:0:0:
399,295,78645,1,0,0:2:0:0:
318,284,78731,6,0,P|295:271|269:267,1,52.5000020027161,6|0,3:2|0:2,0:0:0:0:
180,298,78902,1,8,0:2:0:0:
154,326,78988,1,0,0:2:0:0:
117,336,79074,5,0,0:2:0:0:
80,324,79160,1,0,0:2:0:0:
57,294,79245,1,0,0:2:0:0:
55,256,79331,1,0,0:2:0:0:
74,223,79417,5,10,0:2:0:0:
121,161,79502,1,2,0:2:0:0:
79,95,79588,1,10,0:2:0:0:
4,116,79674,1,2,0:2:0:0:
0,194,79760,6,0,L|106:209,1,105.000004005432,6|0,3:2|0:2,0:0:0:0:
277,40,80102,2,0,L|171:55,1,105.000004005432,10|0,0:2|0:2,0:0:0:0:
319,351,80445,2,0,L|425:336,1,105.000004005432,2|8,0:2|0:2,0:0:0:0:
486,271,80702,1,0,0:2:0:0:
486,270,80788,6,0,P|502:221|503:168,1,105.000004005432,6|0,3:2|0:2,0:0:0:0:
377,0,81131,2,0,P|360:49|359:102,1,105.000004005432,10|0,0:2|3:2,0:0:0:0:
319,351,81474,2,0,P|317:298|300:249,1,105.000004005432,2|8,0:2|0:2,0:0:0:0:
237,204,81731,1,0,0:2:0:0:
237,204,81817,6,0,L|177:213,1,59.5000011348725,12|0,3:2|0:2,0:0:0:0:
86,269,81988,2,0,L|142:290,1,59.5000011348725,2|0,3:2|0:2,0:0:0:0:
97,131,82160,6,0,L|90:194,1,59.5000011348725,10|0,3:2|0:2,0:0:0:0:
21,315,82331,2,0,L|-3:259,1,59.5000011348725,2|0,3:2|0:2,0:0:0:0:
40,68,82502,6,0,P|60:52|99:47,1,59.5000011348725,10|0,3:2|0:2,0:0:0:0:
184,117,82674,1,0,3:2:0:0:
182,99,82760,1,0,0:2:0:0:
179,81,82845,5,14,3:2:0:0:
219,75,82931,1,0,0:2:0:0:
255,88,83017,1,0,0:2:0:0:
281,117,83102,1,0,0:2:0:0:
290,155,83188,5,0,0:2:0:0:
318,194,83274,1,0,0:2:0:0:
363,214,83360,1,0,0:2:0:0:
413,210,83445,1,0,0:2:0:0:
454,182,83531,6,0,P|464:159|470:111,1,70,10|0,0:2|0:2,0:0:0:0:
345,22,83702,2,0,P|348:56|361:89,1,70,10|0,0:2|0:2,0:0:0:0:
413,308,83874,5,6,0:2:0:0:
256,192,85931,12,0,87302,0:2:0:0:
401,284,87474,6,0,P|422:279|442:268,1,45.4999979171754,2|0,0:2|0:2,0:0:0:0:
441,193,87645,2,0,P|456:171|465:146,1,50.7500015487671,2|0,0:2|0:2,0:0:0:0:
412,96,87817,2,0,P|409:67|400:40,1,56,2|0,0:2|0:2,0:0:0:0:
321,304,87988,6,0,P|324:264|341:228,1,80.5000015354157,6|0,3:2|0:2,0:0:0:0:
233,236,88160,1,0,0:2:0:0:
243,339,88245,2,0,P|301:388|376:365,1,161.000003070831,8|0,0:2|0:0,0:0:0:0:
401,284,88502,1,8,0:2:0:0:
165,304,88674,2,0,P|157:343|171:381,1,80.5000015354157,2|0,0:2|0:2,0:0:0:0:
0,169,88845,1,8,0:2:0:0:
0,169,88931,1,0,0:2:0:0:
0,169,89017,6,0,P|40:175|79:180,1,80.5000015354157,6|0,3:2|0:2,0:0:0:0:
147,135,89188,1,0,0:2:0:0:
75,269,89274,2,0,P|159:253|232:236,1,161.000003070831,8|0,0:2|0:0,0:0:0:0:
283,313,89531,1,8,0:2:0:0:
298,177,89702,1,2,0:2:0:0:
374,365,89874,2,0,P|362:328|373:289,1,80.5000015354157,10|0,0:2|0:2,0:0:0:0:
480,75,90045,6,0,L|475:155,1,80.5000015354157,6|0,3:2|0:2,0:0:0:0:
461,250,90217,1,0,0:2:0:0:
385,123,90302,2,0,L|380:43,1,80.5000015354157,8|2,0:2|0:2,0:0:0:0:
301,92,90560,6,0,L|221:97,1,80.5000015354157,10|0,0:2|0:2,0:0:0:0:
270,176,90731,2,0,L|275:256,1,80.5000015354157,2|0,0:2|0:2,0:0:0:0:
354,207,90902,2,0,L|434:201,1,80.5000015354157,10|0,0:2|0:2,0:0:0:0:
199,304,91074,6,0,P|182:338|191:378,1,80.5000015354157,6|0,3:2|0:2,0:0:0:0:
280,345,91245,1,0,0:2:0:0:
199,304,91331,2,0,L|109:311,1,80.5000015354157,8|0,0:2|0:0,0:0:0:0:
0,384,91502,1,0,0:0:0:0:
0,384,91588,2,0,L|90:377,1,80.5000015354157,8|0,0:0|0:0,0:0:0:0:
58,190,91760,5,10,0:2:0:0:
47,122,91845,1,8,0:2:0:0:
85,65,91931,1,8,0:2:0:0:
150,48,92017,1,8,0:2:0:0:
211,80,92102,6,0,P|246:98|288:97,1,80.5000015354157,6|0,3:2|0:2,0:0:0:0:
356,42,92274,1,0,0:2:0:0:
340,174,92360,2,0,P|385:112|462:119,1,161.000003070831,8|0,0:2|0:0,0:0:0:0:
455,208,92617,1,8,0:2:0:0:
274,242,92788,2,0,P|251:207|255:163,1,80.5000015354157,2|0,0:2|0:2,0:0:0:0:
455,208,92960,1,8,0:2:0:0:
455,208,93045,1,0,0:2:0:0:
455,208,93131,6,0,L|449:288,1,80.5000015354157,6|0,3:2|0:2,0:0:0:0:
443,384,93302,1,0,0:2:0:0:
512,301,93388,2,0,L|347:325,1,161.000003070831,8|0,0:2|0:0,0:0:0:0:
286,377,93645,1,8,0:2:0:0:
373,161,93817,1,2,0:2:0:0:
209,338,93988,2,0,P|219:300|206:262,1,80.5000015354157,10|0,0:2|0:2,0:0:0:0:
55,312,94160,6,0,L|135:305,1,80.5000015354157,4|0,3:2|0:2,0:0:0:0:
234,172,94331,1,0,0:2:0:0:
234,172,94417,1,8,0:2:0:0:
234,173,94502,2,0,L|154:180,1,80.5000015354157,2|0,0:2|0:2,0:0:0:0:
0,134,94674,2,0,P|17:169|46:198,1,80.5000015354157,10|0,0:2|0:2,0:0:0:0:
70,43,94845,2,0,P|67:83|78:121,1,80.5000015354157,2|0,0:2|0:2,0:0:0:0:
176,0,95017,2,0,P|153:33|143:72,1,80.5000015354157,10|0,0:2|0:2,0:0:0:0:
406,367,95188,5,6,3:2:0:0:
153,180,95360,1,10,0:2:0:0:
464,184,95531,1,2,0:2:0:0:
223,375,95702,1,10,0:2:0:0:
223,375,95788,1,2,0:2:0:0:
223,375,95874,1,2,0:2:0:0:
308,75,96045,1,10,0:2:0:0:
364,287,96217,6,0,P|379:249|371:206,1,80.5000015354157,6|0,3:2|0:2,0:0:0:0:
290,227,96388,1,0,0:2:0:0:
279,321,96474,2,0,P|329:378|407:367,1,161.000003070831,8|0,0:2|0:0,0:0:0:0:
475,318,96731,1,8,0:2:0:0:
207,263,96902,2,0,P|190:299|194:340,1,80.5000015354157,2|0,0:2|0:2,0:0:0:0:
475,318,97074,1,8,0:2:0:0:
475,318,97160,1,0,0:2:0:0:
475,318,97245,6,0,L|464:239,1,80.5000015354157,6|0,3:2|0:2,0:0:0:0:
498,154,97417,1,0,0:2:0:0:
376,230,97502,2,0,P|363:145|352:63,1,161.000003070831,8|0,0:2|0:0,0:0:0:0:
280,35,97760,1,8,0:2:0:0:
244,205,97931,1,2,0:2:0:0:
447,7,98102,2,8,P|448:47|435:84,1,80.5000015354157,10|8,0:2|0:2,0:0:0:0:
345,129,98274,6,0,L|264:122,1,80.5000015354157,6|0,3:2|0:2,0:0:0:0:
181,111,98445,1,0,0:2:0:0:
48,220,98531,2,0,L|129:227,1,80.5000015354157,10|2,0:2|0:2,0:0:0:0:
239,357,98788,6,0,L|158:350,1,80.5000015354157,10|0,0:2|0:2,0:0:0:0:
75,384,98960,2,0,L|82:303,1,80.5000015354157,2|0,0:2|0:2,0:0:0:0:
212,193,99131,2,0,L|205:274,1,80.5000015354157,10|0,0:2|0:2,0:0:0:0:
18,75,99302,6,0,P|5:37|17:-1,1,80.5000015354157,6|0,3:2|0:2,0:0:0:0:
92,37,99474,1,0,0:2:0:0:
169,125,99560,2,0,L|79:118,1,80.5000015354157,8|0,0:2|0:0,0:0:0:0:
257,44,99731,1,0,0:0:0:0:
257,44,99817,2,0,L|347:51,1,80.5000015354157,8|0,0:0|0:0,0:0:0:0:
128,226,99988,5,10,0:2:0:0:
117,294,100074,1,8,0:2:0:0:
155,351,100160,1,8,0:2:0:0:
220,368,100245,1,8,0:2:0:0:
281,336,100331,6,0,P|316:318|358:319,1,80.5000015354157,6|0,3:2|0:2,0:0:0:0:
420,377,100502,1,0,0:0:0:0:
420,377,100588,1,0,0:0:0:0:
490,290,100674,6,0,P|459:274|421:269,1,70,10|0,0:0|0:2,0:0:0:0:
345,287,100845,1,0,0:0:0:0:
345,287,100931,1,0,0:0:0:0:
293,224,101017,6,0,P|323:207|349:207,1,59.5000011348725,10|0,0:2|0:2,0:0:0:0:
478,251,101188,2,0,P|448:268|422:268,1,59.5000011348725,2|0,0:2|0:2,0:0:0:0:
217,138,101360,6,0,L|226:58,1,80.5000015354157,14|0,3:2|0:0,0:0:0:0:
208,215,101531,1,0,0:0:0:0:
208,215,101617,1,0,0:0:0:0:
142,123,101702,6,0,L|149:54,1,70,10|0,0:0|0:0,0:0:0:0:
134,198,101874,1,0,0:0:0:0:
134,198,101960,1,0,0:0:0:0:
66,114,102045,6,0,L|72:55,1,59.5000011348725,10|0,0:0|0:0,0:0:0:0:
58,190,102217,2,0,L|52:251,1,59.5000011348725,2|0,0:0|0:0,0:0:0:0:
0,321,102388,5,14,3:2:0:0:
38,327,102474,1,2,0:0:0:0:
77,334,102560,1,2,0:0:0:0:
116,341,102645,1,2,0:0:0:0:
133,373,102731,5,14,0:0:0:0:
161,361,102817,1,2,0:0:0:0:
191,351,102902,1,2,0:0:0:0:
221,340,102988,1,2,0:0:0:0:
245,355,103074,5,14,0:0:0:0:
260,336,103160,1,2,0:0:0:0:
277,317,103245,1,2,0:0:0:0:
293,297,103331,1,2,0:0:0:0:
308,203,103417,6,0,P|312:263|372:222,1,161.000003070831,12|0,3:2|0:2,0:0:0:0:
390,193,103674,1,0,0:0:0:0:
390,193,103760,2,0,P|386:233|402:275,1,80.5000015354157,10|0,0:0|0:0,0:0:0:0:
494,169,103931,2,0,P|498:129|482:87,1,80.5000015354157,2|0,0:0|0:0,0:0:0:0:
419,31,104102,5,10,0:0:0:0:
346,1,104188,1,10,0:0:0:0:
269,20,104274,1,10,0:0:0:0:
221,83,104360,1,10,0:0:0:0:
222,162,104445,6,0,B|201:170|201:170|177:169,3,45.4999979171754,6|0|0|0,3:2|0:0|0:0|0:0,0:0:0:0:
78,135,104788,6,0,P|63:112|56:71,1,70,10|0,0:0|0:0,0:0:0:0:
142,73,104960,2,0,P|139:43|174:-10,1,89.249998808384,2|0,0:0|0:0,0:0:0:0:
209,268,105131,6,0,P|162:240|109:238,1,108.500000827789,2|0,0:0|0:0,0:0:0:0:
23,207,105302,1,10,0:0:0:0:
23,207,105388,1,0,0:0:0:0:
135,315,105474,6,0,P|137:355|131:389,3,70,2|0|0|0,3:2|0:0|0:0|0:0,0:0:0:0:
222,162,105817,2,0,P|220:122|226:88,3,70,10|0|0|0,0:0|0:0|0:0|0:0,0:0:0:0:
323,293,106160,5,2,0:0:0:0:
380,334,106245,1,2,0:0:0:0:
450,319,106331,1,10,0:0:0:0:
485,256,106417,1,2,0:0:0:0:
454,191,106502,6,0,B|463:169|463:169|462:146,3,45.4999979171754,6|0|0|0,3:2|0:0|0:0|0:0,0:0:0:0:
439,15,106845,6,0,P|419:44|412:78,1,70,10|0,0:0|0:0,0:0:0:0:
328,73,107017,2,0,P|329:104|365:149,1,89.249998808384,2|0,0:0|0:0,0:0:0:0:
256,245,107188,6,0,P|238:298|254:345,1,108.500000827789,2|0,0:0|0:0,0:0:0:0:
323,293,107360,1,10,0:0:0:0:
323,293,107445,1,0,0:0:0:0:
222,162,107531,6,0,P|187:156|152:159,3,70,2|0|8|0,3:2|0:0|0:0|0:0,0:0:0:0:
55,331,107874,2,0,P|89:336|124:333,3,70,2|0|0|0,0:2|0:0|0:0|0:0,0:0:0:0:
68,193,108217,5,2,0:0:0:0:
69,123,108302,1,2,0:0:0:0:
123,79,108388,1,10,0:0:0:0:
191,92,108474,1,2,0:0:0:0:
222,162,108560,6,0,B|228:185|228:185|222:217,3,45.4999979171754,6|0|0|0,3:2|0:0|0:0|0:0,0:0:0:0:
257,42,108902,6,0,P|291:35|324:45,1,70,10|0,0:0|0:0,0:0:0:0:
438,149,109074,2,0,P|391:157|353:142,1,89.249998808384,2|0,0:0|0:0,0:0:0:0:
490,0,109245,2,0,L|484:82,3,70,2|0|8|0,0:0|0:0|0:0|0:0,0:0:0:0:
354,143,109588,6,0,L|359:212,3,70,2|0|0|0,3:2|0:0|0:0|0:0,0:0:0:0:
227,286,109931,2,0,L|222:356,3,70,10|0|0|0,0:0|0:0|0:0|0:0,0:0:0:0:
95,192,110274,5,2,0:0:0:0:
17,174,110360,1,2,0:0:0:0:
1,98,110445,1,10,0:0:0:0:
63,51,110531,1,2,0:0:0:0:
131,88,110617,6,0,B|139:111|139:111|138:131,3,45.4999979171754,6|0|0|0,3:2|0:0|0:0|0:0,0:0:0:0:
95,192,110960,6,0,P|110:214|141:229,1,59.5000011348725,10|0,0:0|0:0,0:0:0:0:
134,316,111131,2,0,P|163:313|196:292,1,70,2|0,0:0|0:0,0:0:0:0:
433,334,111302,6,0,P|450:288|449:239,1,97.9999970092774,2|0,0:0|0:0,0:0:0:0:
512,126,111474,2,0,P|490:65|444:21,1,129.499999505997,2|0,0:0|0:0,0:0:0:0:
226,161,111645,6,0,B|215:183|215:183|215:213,3,45.4999979171754,2|0|8|0,3:2|0:0|0:0|0:0,0:0:0:0:
279,260,111988,6,0,P|307:266|338:260,1,59.5000011348725,2|0,0:0|0:0,0:0:0:0:
338,64,112160,2,0,P|304:56|266:64,1,70,10|0,0:0|0:0,0:0:0:0:
95,192,112331,5,10,0:0:0:0:
72,256,112417,1,10,0:0:0:0:
99,321,112502,1,10,0:0:0:0:
161,352,112588,1,10,0:0:0:0:
228,335,112674,6,0,B|239:313|239:313|239:283,3,45.4999979171754,6|0|0|0,3:2|0:0|0:0|0:0,0:0:0:0:
176,234,113017,6,0,P|202:211|238:206,1,70,10|0,0:0|0:0,0:0:0:0:
271,134,113188,2,0,P|305:159|315:203,1,89.249998808384,2|0,0:0|0:0,0:0:0:0:
468,319,113360,6,2,P|481:266|470:213,1,108.500000827789,2|2,0:0|0:0,0:0:0:0:
402,141,113531,1,10,0:0:0:0:
402,141,113617,1,0,0:0:0:0:
332,277,113702,6,0,P|367:282|400:270,3,70,0|0|0|0,3:2|0:0|0:0|0:0,0:0:0:0:
300,60,114045,2,0,P|265:55|232:67,3,70,8|0|0|0,0:0|0:0|0:0|0:0,0:0:0:0:
176,234,114388,5,2,0:0:0:0:
107,232,114474,1,2,0:0:0:0:
52,190,114560,1,10,0:0:0:0:
33,124,114645,1,2,0:0:0:0:
56,59,114731,6,0,L|54:111,3,45.4999979171754,4|0|0|0,3:2|0:0|0:0|0:0,0:0:0:0:
120,161,115074,6,0,L|194:151,1,70,10|0,0:0|0:0,0:0:0:0:
395,135,115245,2,0,L|307:145,1,89.249998808384,2|0,0:0|0:0,0:0:0:0:
68,248,115417,6,0,L|175:233,1,108.500000827789,0|0,0:0|0:0,0:0:0:0:
256,218,115588,1,10,0:0:0:0:
256,218,115674,1,0,0:0:0:0:
319,341,115760,6,0,P|328:307|325:269,3,70,0|0|8|0,3:2|0:0|0:0|0:0,0:0:0:0:
396,135,116102,2,0,P|387:169|389:206,3,70,0|0|0|0,0:0|0:0|0:0|0:0,0:0:0:0:
497,135,116445,5,2,0:0:0:0:
475,70,116531,1,2,0:0:0:0:
416,35,116617,1,10,0:0:0:0:
348,47,116702,1,2,0:0:0:0:
306,101,116788,6,0,L|318:165,1,59.5000011348725,6|0,3:2|0:0,0:0:0:0:
248,172,116960,2,0,L|237:114,1,59.5000011348725,10|0,0:0|0:0,0:0:0:0:
159,67,117131,5,2,0:0:0:0:
141,64,117217,1,2,0:0:0:0:
124,61,117302,1,2,0:0:0:0:
107,59,117388,1,2,0:0:0:0:
89,56,117474,2,0,L|49:50,3,28,8|0|0|0,0:0|0:0|0:0|0:0,0:0:0:0:
55,192,117817,6,0,L|41:258,1,64.7499997529984,6|0,3:2|0:0,0:0:0:0:
108,273,117988,2,0,L|122:209,1,64.7499997529984,10|0,0:0|0:0,0:0:0:0:
169,339,118160,5,2,0:0:0:0:
191,335,118245,1,2,0:0:0:0:
213,331,118331,1,2,0:0:0:0:
235,328,118417,1,2,0:0:0:0:
257,325,118502,2,0,L|284:320,3,28,10|0|0|0,0:0|0:0|0:0|0:0,0:0:0:0:
291,111,118845,6,0,L|306:179,1,70,6|0,3:2|0:0,0:0:0:0:
239,195,119017,2,0,L|224:126,1,70,10|0,0:0|0:0,0:0:0:0:
359,191,119188,6,0,L|343:259,1,70,2|0,0:0|0:0,0:0:0:0:
410,276,119360,2,0,L|425:208,1,70,0|0,3:1|0:0,0:0:0:0:
372,109,119531,5,10,0:0:0:0:
348,45,119617,1,2,0:0:0:0:
284,22,119702,1,0,3:0:0:0:
225,56,119788,1,2,0:0:0:0:
219,48,119874,5,14,0:0:0:0:
190,112,119960,1,2,0:0:0:0:
123,135,120045,1,2,0:0:0:0:
60,105,120131,1,2,0:0:0:0:
39,38,120217,5,2,0:0:0:0:
43,107,120302,1,2,0:0:0:0:
48,177,120388,1,2,0:0:0:0:
53,247,120474,1,2,0:0:0:0:
57,317,120560,6,0,L|128:322,1,70,10|0,0:0|0:0,0:0:0:0:
242,329,120731,2,0,L|313:334,1,70,10|0,0:0|0:0,0:0:0:0:
427,341,120902,6,0,L|425:373,3,26.2500010013581,0|0|0|0,3:1|0:0|0:0|0:0,0:0:0:0:
440,131,121245,5,6,0:0:0:0:
