osu file format v14

[General]
AudioFilename: audio.mp3
AudioLeadIn: 0
PreviewTime: 86952
Countdown: 0
SampleSet: Soft
StackLeniency: 0.2
Mode: 0
LetterboxInBreaks: 0
EpilepsyWarning: 1
WidescreenStoryboard: 1

[Editor]
Bookmarks: 18037,23523,34494,49580,50952,67409,104437
DistanceSpacing: 1
BeatDivisor: 4
GridSize: 16
TimelineZoom: 1.800006

[Metadata]
Title:Crystal Illusion
TitleUnicode:Crystal Illusion
Artist:P4koo
ArtistUnicode:P4koo
Creator:Riana
Version:Normal
Source:
Tags:omc#3 dailycare morinaga skymin [_-scarlet-_] scarlet [ -scarlet- ] instrumental electronic
BeatmapID:1758534
BeatmapSetID:791944

[Difficulty]
HPDrainRate:3
CircleSize:3
OverallDifficulty:4
ApproachRate:5.5
SliderMultiplier:1
SliderTickRate:1

[Events]
//Background and Video events
0,0,"bg.jpg",0,0
//Break Periods
2,18074,25149
//Storyboard Layer 0 (Background)
//Storyboard Layer 1 (Fail)
//Storyboard Layer 2 (Pass)
//Storyboard Layer 3 (Foreground)
//Storyboard Layer 4 (Overlay)
//Storyboard Sound Samples

[TimingPoints]
560,342.857142857143,3,2,1,40,1,0
9817,-100,3,2,1,50,0,0
18045,-100,3,2,1,40,0,0
24902,-100,3,2,1,20,0,0
24988,-100,3,2,1,40,0,0
34502,-100,3,2,2,40,0,1
34588,-100,3,2,2,35,0,1
34845,-100,3,2,2,45,0,1
35017,-100,3,2,2,60,0,1
35188,-100,3,2,2,65,0,1
35360,-100,3,2,2,70,0,1
35531,-100,3,2,2,40,0,1
35617,-100,3,2,2,35,0,1
35874,-100,3,2,2,45,0,1
36045,-100,3,2,2,60,0,1
36217,-100,3,2,2,65,0,1
36388,-100,3,2,2,70,0,1
36560,-100,3,2,2,40,0,1
36645,-100,3,2,2,35,0,1
36902,-100,3,2,2,45,0,1
37074,-100,3,2,2,60,0,1
37245,-100,3,2,2,65,0,1
37417,-100,3,2,2,70,0,1
37588,-100,3,2,2,40,0,1
37674,-100,3,2,2,35,0,1
37931,-100,3,2,2,45,0,1
38102,-100,3,2,2,60,0,1
38274,-100,3,2,2,65,0,1
38445,-100,3,2,2,70,0,1
38617,-100,3,2,2,40,0,1
38702,-100,3,2,2,35,0,1
38960,-100,3,2,2,45,0,1
39131,-100,3,2,2,60,0,1
39302,-100,3,2,2,65,0,1
39474,-100,3,2,2,70,0,1
39645,-100,3,2,2,40,0,1
39731,-100,3,2,2,35,0,1
39988,-100,3,2,2,45,0,1
40160,-100,3,2,2,60,0,1
40331,-100,3,2,2,65,0,1
40502,-100,3,2,2,70,0,1
40674,-100,3,2,2,40,0,1
40760,-100,3,2,2,35,0,1
41017,-100,3,2,2,45,0,1
41360,-100,3,2,2,60,0,1
41702,-100,3,2,2,80,0,1
42731,-100,3,2,2,40,0,1
42817,-100,3,2,2,35,0,1
43074,-100,3,2,2,45,0,1
43245,-100,3,2,2,60,0,1
43417,-100,3,2,2,65,0,1
43588,-100,3,2,2,70,0,1
43760,-100,3,2,2,40,0,1
43845,-100,3,2,2,30,0,1
44102,-100,3,2,2,45,0,1
44274,-100,3,2,2,60,0,1
44445,-100,3,2,2,65,0,1
44617,-100,3,2,2,70,0,1
44788,-100,3,2,2,40,0,1
44874,-100,3,2,2,35,0,1
45131,-100,3,2,2,45,0,1
45302,-100,3,2,2,60,0,1
45474,-100,3,2,2,65,0,1
45645,-100,3,2,2,70,0,1
45817,-100,3,2,2,40,0,1
45902,-100,3,2,2,35,0,1
46160,-100,3,2,2,45,0,1
46331,-100,3,2,2,60,0,1
46502,-100,3,2,2,65,0,1
46503,-100,3,2,2,65,0,1
46674,-100,3,2,2,70,0,1
46845,-100,3,2,2,40,0,1
46931,-100,3,2,2,35,0,1
47188,-100,3,2,2,45,0,1
47360,-100,3,2,2,60,0,1
47531,-100,3,2,2,65,0,1
47702,-100,3,2,2,70,0,1
47874,-100,3,2,2,40,0,1
47960,-100,3,2,2,35,0,1
48217,-100,3,2,2,45,0,1
48388,-100,3,2,2,60,0,1
48560,-100,3,2,2,65,0,1
48731,-100,3,2,2,70,0,1
48902,-100,3,2,2,40,0,1
48988,-100,3,2,2,35,0,1
49245,-100,3,2,2,45,0,1
49417,-100,3,2,2,60,0,1
49588,-100,3,2,2,65,0,1
49760,-100,3,2,2,70,0,1
49931,-100,3,2,2,85,0,1
50274,-100,3,2,2,80,0,1
50360,-100,3,2,2,60,0,1
50960,-100,3,2,1,40,0,0
67417,-100,3,2,1,50,0,0
81817,-100,3,2,1,60,0,0
87302,-100,3,2,1,50,0,0
87988,-100,3,2,2,70,0,1
103417,-100,3,2,2,70,0,0
104102,-100,3,2,2,40,0,0
104445,-100,3,2,2,65,0,1
104531,-100,3,2,2,55,0,1
104788,-100,3,2,2,75,0,1
105560,-100,3,2,2,55,0,1
105817,-100,3,2,2,75,0,1
106588,-100,3,2,2,55,0,1
106845,-100,3,2,2,75,0,1
107617,-100,3,2,2,55,0,1
107874,-100,3,2,2,75,0,1
108645,-100,3,2,2,55,0,1
108902,-100,3,2,2,75,0,1
110702,-100,3,2,2,55,0,1
110960,-100,3,2,2,75,0,1
111731,-100,3,2,2,55,0,1
111988,-100,3,2,2,75,0,1
112331,-100,3,2,2,50,0,1
112674,-100,3,2,2,75,0,1
112760,-100,3,2,2,55,0,1
113017,-100,3,2,2,75,0,1
113788,-100,3,2,2,55,0,1
114045,-100,3,2,2,75,0,1
114817,-100,3,2,2,55,0,1
115074,-100,3,2,2,75,0,1
115845,-100,3,2,2,55,0,1
116102,-100,3,2,2,75,0,1
116788,-100,3,2,2,65,0,1
116960,-100,3,2,2,65,0,1
117560,-100,3,2,2,60,0,1
117817,-100,3,2,2,75,0,1
118588,-100,3,2,2,60,0,1
118845,-100,3,2,2,85,0,1
120902,-100,3,2,2,40,0,0
120988,-100,3,2,2,20,0,0
121245,-100,3,2,2,95,0,0

[Colours]
Combo1 : 0,128,255
Combo2 : 128,255,255
Combo3 : 128,128,255

[HitObjects]
137,154,1245,6,0,P|193:142|245:164,1,100,0|2,0:2|0:2,0:0:0:0:
344,127,2445,5,0,0:2:0:0:
344,127,2617,2,0,L|327:237,2,100,2|2|0,0:2|0:2|0:2,0:0:0:0:
274,54,3645,2,0,P|357:26|438:109,1,200,2|2,0:2|0:2,0:0:0:0:
447,143,4502,1,0,0:2:0:0:
447,143,4674,1,2,0:2:0:0:
349,228,5360,6,0,L|283:219,1,50,0|0,0:2|0:2,0:0:0:0:
262,187,5702,2,0,P|237:156|158:149,2,100,2|0|0,0:2|0:2|0:2,0:0:0:0:
343,129,6731,2,0,P|369:98|447:91,2,100,2|2|2,0:2|0:2|0:2,0:0:0:0:
427,183,7760,2,0,P|470:254|403:350,1,200,2|2,0:2|0:2,0:0:0:0:
365,346,8617,1,0,0:2:0:0:
365,346,8788,1,2,0:2:0:0:
266,227,9474,6,0,L|257:174,1,50,2|2,0:2|0:2,0:0:0:0:
271,129,9817,2,0,P|215:133|171:95,1,100,6|10,0:0|0:2,0:0:0:0:
156,65,10331,1,2,0:2:0:0:
67,111,10674,1,0,0:0:0:0:
67,111,10845,2,0,L|52:7,2,100,2|0|2,0:2|0:2|0:2,0:0:0:0:
162,141,11874,6,0,P|137:191|82:210,1,100,6|10,0:2|0:2,0:0:0:0:
49,208,12388,1,2,0:2:0:0:
7,299,12731,1,0,0:2:0:0:
7,299,12902,1,0,0:2:0:0:
106,304,13245,1,2,0:2:0:0:
205,312,13588,1,10,0:2:0:0:
304,320,13931,6,0,P|298:264|253:227,1,100,6|10,0:0|0:2,0:0:0:0:
221,218,14445,1,0,0:2:0:0:
272,131,14788,1,8,0:0:0:0:
272,131,14960,2,0,L|252:15,2,100,6|10|2,0:2|0:2|0:2,0:0:0:0:
171,137,15988,6,0,P|85:142|32:250,1,200,6|2,0:2|0:2,0:0:0:0:
61,273,16845,1,10,0:2:0:0:
61,273,17017,2,0,P|72:318|42:367,2,100,2|2|10,0:2|0:2|0:2,0:0:0:0:
107,253,17874,1,10,0:2:0:0:
197,91,26274,6,0,P|240:131|371:94,1,200,2|2,3:2|0:2,0:0:0:0:
398,62,27131,1,0,0:2:0:0:
398,62,27302,2,0,L|411:173,1,100,0|10,3:2|0:2,0:0:0:0:
352,243,27988,1,2,0:2:0:0:
434,303,28331,6,0,P|346:343|265:293,1,200,2|2,0:2|0:2,0:0:0:0:
239,249,29188,1,0,0:2:0:0:
239,249,29360,2,0,L|216:361,1,100,0|2,3:2|0:2,0:0:0:0:
119,360,30045,1,8,0:2:0:0:
73,270,30388,6,0,P|110:172|65:87,1,200,2|2,3:2|0:2,0:0:0:0:
135,14,31417,2,0,L|245:31,1,100,2|10,3:2|0:2,0:0:0:0:
283,115,32102,1,2,0:2:0:0:
203,175,32445,6,0,P|291:217|377:160,1,200,2|2,3:2|3:2,0:0:0:0:
390,121,33302,1,10,0:2:0:0:
390,121,33474,2,0,B|438:86|496:113,2,100,6|10|14,0:2|0:2|0:2,0:0:0:0:
450,200,34502,6,0,L|467:311,2,100,4|10|2,3:2|0:2|0:2,0:0:0:0:
360,244,35531,2,0,L|343:355,1,100,0|10,3:2|0:2,0:0:0:0:
259,289,36217,1,2,0:2:0:0:
259,289,36388,1,10,0:2:0:0:
259,289,36560,6,0,L|235:169,2,100,0|10|2,3:2|0:2|0:2,0:0:0:0:
344,342,37588,2,0,L|360:244,1,100,0|2,3:2|0:2,0:0:0:0:
444,188,38274,2,0,P|428:157|416:150,1,50,2|10,0:2|0:2,0:0:0:0:
370,145,38617,6,0,L|387:34,2,100,2|10|2,3:2|0:2|0:2,0:0:0:0:
276,182,39645,2,0,L|259:71,1,100,0|10,3:2|0:2,0:0:0:0:
165,52,40331,1,2,0:2:0:0:
165,52,40502,1,10,0:2:0:0:
165,52,40674,6,0,L|141:172,1,100,0|10,3:2|0:2,0:0:0:0:
69,215,41360,1,2,0:2:0:0:
45,311,41702,2,0,P|94:314|135:287,1,100,2|2,3:2|0:2,0:0:0:0:
167,249,42217,1,2,0:2:0:0:
167,249,42388,2,0,P|200:239|231:244,1,50,10|10,0:2|0:2,0:0:0:0:
262,257,42731,6,0,L|286:368,2,100,4|10|2,3:2|0:2|0:2,0:0:0:0:
342,197,43760,2,0,L|366:86,1,100,0|10,3:2|0:2,0:0:0:0:
453,56,44445,1,2,0:2:0:0:
453,56,44617,1,10,0:2:0:0:
453,56,44788,6,0,L|477:167,2,100,0|10|2,3:2|0:2|0:2,0:0:0:0:
363,99,45817,2,0,L|342:197,1,100,0|2,3:2|0:2,0:0:0:0:
316,293,46502,2,0,P|366:292|389:279,1,50,2|10,0:2|0:2,0:0:0:0:
411,272,46845,6,0,L|432:369,2,100,2|10|2,3:2|0:2|0:2,0:0:0:0:
342,197,47874,2,0,L|363:99,1,100,2|10,3:2|0:2,0:0:0:0:
289,31,48560,1,2,0:2:0:0:
289,31,48731,1,10,0:2:0:0:
289,31,48902,6,0,L|261:140,2,100,2|10|2,3:2|0:2|0:2,0:0:0:0:
190,48,49931,2,0,P|118:45|77:19,1,100,6|8,0:2|0:2,0:0:0:0:
15,95,50617,2,0,L|1:161,2,50,2|8|6,0:2|0:2|0:2,0:0:0:0:
121,226,51817,5,0,0:2:0:0:
121,226,51988,2,0,L|11:243,2,100,2|2|2,0:2|0:2|0:2,0:0:0:0:
194,296,53017,2,0,P|222:213|139:132,1,200,2|2,0:2|0:2,0:0:0:0:
105,124,53874,1,0,0:2:0:0:
105,124,54045,1,2,0:2:0:0:
312,201,54731,6,0,L|378:192,1,50,0|0,0:2|0:2,0:0:0:0:
399,160,55074,2,0,P|424:129|503:122,2,100,2|0|0,0:2|0:2|0:2,0:0:0:0:
318,102,56102,2,0,P|292:71|214:64,2,100,2|2|2,0:2|0:2|0:0,0:0:0:0:
236,160,57131,2,0,P|193:231|260:327,1,200,2|2,0:2|0:2,0:0:0:0:
297,329,57988,1,0,0:2:0:0:
297,329,58160,6,0,P|362:300|435:337,1,150,2|0,0:2|0:2,0:0:0:0:
478,319,58845,2,0,L|491:251,2,50,2|0|2,0:2|0:2|0:2,0:0:0:0:
297,329,60045,5,2,0:2:0:0:
297,329,60217,2,0,P|287:273|319:223,2,100,2|2|2,0:2|0:2|0:2,0:0:0:0:
200,356,61245,1,2,0:2:0:0:
209,205,61931,6,0,B|168:201|148:214,1,50,2|0,0:2|0:2,0:0:0:0:
126,245,62274,2,0,L|105:115,2,100,2|0|2,0:2|0:2|0:2,0:0:0:0:
176,331,63302,2,0,P|138:345|66:311,2,100,2|2|2,0:2|0:2|0:2,0:0:0:0:
262,280,64331,2,0,P|254:240|190:195,2,100,2|2|2,0:2|0:2|0:2,0:0:0:0:
346,334,65360,6,0,P|359:240|310:148,1,200,2|2,0:2|0:2,0:0:0:0:
269,123,66217,1,0,0:2:0:0:
269,123,66388,2,0,B|246:75|283:21,1,100,2|0,0:2|0:2,0:0:0:0:
374,0,67074,6,0,B|411:3|436:31,1,50,2|0,0:2|0:2,0:0:0:0:
455,52,67417,2,0,P|447:149|361:189,1,200,6|10,3:2|0:2,0:0:0:0:
314,174,68274,1,0,0:2:0:0:
314,174,68445,2,0,P|247:241|267:316,1,150,6|2,3:2|3:2,0:0:0:0:
264,345,69131,1,10,0:2:0:0:
164,333,69474,6,0,P|80:343|-8:238,1,200,6|10,3:2|0:2,0:0:0:0:
2,221,70331,1,0,0:2:0:0:
2,221,70502,1,6,3:2:0:0:
79,157,70845,1,2,0:2:0:0:
20,75,71188,1,10,0:2:0:0:
100,15,71531,6,0,P|197:23|237:109,1,200,6|8,3:2|0:2,0:0:0:0:
225,156,72388,1,2,0:2:0:0:
225,156,72560,1,6,3:2:0:0:
170,239,72902,1,2,0:2:0:0:
234,315,73245,1,10,0:2:0:0:
329,285,73588,6,0,P|319:175|408:94,1,200,6|8,3:2|0:2,0:0:0:0:
421,103,74445,2,0,L|411:35,1,50,0|6,0:2|3:2,0:0:0:0:
319,19,74960,1,0,0:2:0:0:
224,50,75302,1,10,0:2:0:0:
195,145,75645,6,0,P|208:241|186:277,2,100,6|10|2,3:2|0:2|0:2,0:0:0:0:
160,108,76502,1,0,0:2:0:0:
160,108,76674,2,0,P|92:97|17:140,1,150,6|0,3:2|3:2,0:0:0:0:
4,180,77360,1,10,0:2:0:0:
62,260,77702,6,0,P|59:318|94:367,2,100,6|10|2,3:2|0:2|0:2,0:0:0:0:
94,221,78560,1,0,0:2:0:0:
94,221,78731,1,6,3:2:0:0:
179,272,79074,1,0,0:2:0:0:
262,217,79417,1,10,0:2:0:0:
251,122,79760,6,0,P|327:102|379:136,2,100,6|10|2,3:2|0:2|0:2,0:0:0:0:
310,202,80788,2,0,P|289:277|233:305,2,100,6|10|2,3:2|0:2|0:2,0:0:0:0:
210,214,81817,2,0,P|154:158|158:96,2,100,12|10|10,3:2|3:2|3:2,0:0:0:0:
256,195,82674,1,0,3:2:0:0:
256,195,82845,1,14,3:2:0:0:
249,95,83188,1,0,0:2:0:0:
163,42,83531,1,10,0:2:0:0:
69,78,83874,1,6,0:2:0:0:
167,115,87988,6,0,P|118:123|71:107,2,100,6|2|2,3:2|0:2|0:2,0:0:0:0:
207,84,88845,1,8,0:2:0:0:
207,84,89017,2,0,P|259:68|324:90,1,100,6|2,3:2|0:2,0:0:0:0:
366,154,89702,2,0,L|357:219,1,50,2|10,0:2|0:2,0:0:0:0:
399,233,90045,6,0,P|447:241|494:225,2,100,6|2|2,3:2|0:2|0:2,0:0:0:0:
356,260,90902,1,10,0:2:0:0:
356,260,91074,2,0,P|304:244|239:266,1,100,6|0,3:2|0:0,0:0:0:0:
162,272,91760,2,0,L|171:337,1,50,10|8,0:2|0:2,0:0:0:0:
132,357,92102,6,0,P|83:365|36:349,2,100,6|2|2,3:2|0:2|0:2,0:0:0:0:
179,375,92960,1,8,0:2:0:0:
179,375,93131,2,0,P|231:359|296:381,1,100,6|2,3:2|0:2,0:0:0:0:
363,321,93817,2,0,L|354:256,1,50,2|10,0:2|0:2,0:0:0:0:
393,235,94160,6,0,P|441:227|488:243,2,100,4|2|2,3:2|0:2|0:2,0:0:0:0:
363,194,95017,1,10,0:2:0:0:
363,194,95188,1,6,3:2:0:0:
288,127,95531,1,2,0:2:0:0:
198,172,95874,1,2,0:2:0:0:
213,270,96217,6,0,P|205:319|221:366,2,100,6|2|2,3:2|0:2|0:2,0:0:0:0:
253,239,97074,1,8,0:2:0:0:
253,239,97245,2,0,P|269:187|247:122,1,100,6|2,3:2|0:2,0:0:0:0:
178,84,97931,2,0,L|113:93,1,50,2|10,0:2|0:2,0:0:0:0:
94,127,98274,6,0,P|118:168|161:194,2,100,6|2|2,3:2|0:2|0:2,0:0:0:0:
76,79,99131,1,10,0:2:0:0:
76,79,99302,2,0,P|28:105|-1:167,1,100,6|0,3:2|0:0,0:0:0:0:
50,231,99988,2,0,L|113:219,1,50,10|8,0:2|0:2,0:0:0:0:
149,221,100331,6,0,P|141:172|157:125,2,100,6|10|10,3:2|0:0|0:2,0:0:0:0:
196,235,101188,1,2,0:2:0:0:
196,235,101360,2,0,P|212:287|190:352,1,100,14|10,3:2|0:0,0:0:0:0:
296,366,102045,2,0,L|354:382,1,50,10|2,0:0|0:0,0:0:0:0:
391,363,102388,6,0,P|439:355|486:371,2,100,14|14|14,3:2|0:0|0:0,0:0:0:0:
354,328,103245,1,2,0:0:0:0:
354,328,103417,2,0,L|347:186,1,100,12|10,3:2|0:0,0:0:0:0:
249,223,104102,2,0,L|260:166,1,50,10|10,0:0|0:0,0:0:0:0:
258,123,104445,6,0,B|309:149|385:118,2,100,6|10|2,3:2|0:0|0:0,0:0:0:0:
311,38,105474,1,2,3:2:0:0:
410,48,105817,1,10,0:0:0:0:
449,139,106160,1,2,0:0:0:0:
383,215,106502,6,0,B|328:186|256:220,2,100,6|10|2,3:2|0:0|0:0,0:0:0:0:
417,251,107360,1,10,0:0:0:0:
417,251,107531,1,2,3:2:0:0:
418,351,107874,1,2,0:2:0:0:
328,307,108217,1,2,0:0:0:0:
245,250,108560,6,0,B|194:220|118:255,2,100,6|10|2,3:2|0:0|0:0,0:0:0:0:
192,335,109588,1,2,3:2:0:0:
93,325,109931,1,10,0:0:0:0:
54,233,110274,1,2,0:0:0:0:
120,158,110617,6,0,B|171:191|247:153,2,100,6|10|2,3:2|0:0|0:0,0:0:0:0:
86,122,111474,1,2,0:0:0:0:
86,122,111645,1,2,3:2:0:0:
168,65,111988,1,2,0:0:0:0:
267,75,112331,2,0,L|336:80,1,50,10|10,0:0|0:0,0:0:0:0:
365,66,112674,6,0,B|334:115|370:193,2,100,6|10|0,3:2|0:0|0:0,0:0:0:0:
450,120,113702,1,0,3:2:0:0:
440,219,114045,1,8,0:0:0:0:
348,258,114388,1,2,0:0:0:0:
273,192,114731,6,0,B|299:141|268:65,2,100,4|10|0,3:2|0:0|0:0,0:0:0:0:
237,226,115588,1,10,0:0:0:0:
237,226,115760,1,0,3:2:0:0:
137,227,116102,1,0,0:0:0:0:
95,135,116445,1,2,0:0:0:0:
10,82,116788,6,0,B|-22:133|15:209,2,100,6|2|8,3:2|0:0|0:0,0:0:0:0:
95,135,117817,1,6,3:2:0:0:
85,234,118160,1,2,0:0:0:0:
69,332,118502,1,8,0:0:0:0:
163,300,118845,6,0,P|273:286|377:338,1,200,6|10,3:2|0:0,0:0:0:0:
389,352,119702,1,0,3:0:0:0:
389,352,119874,1,14,0:0:0:0:
440,265,120217,1,2,0:0:0:0:
389,178,120560,1,10,0:0:0:0:
441,93,120902,5,0,3:1:0:0:
387,8,121245,1,6,0:0:0:0:
