osu file format v14

[General]
AudioFilename: audio.mp3
AudioLeadIn: 0
PreviewTime: 86952
Countdown: 0
SampleSet: Soft
StackLeniency: 0.5
Mode: 0
LetterboxInBreaks: 0
EpilepsyWarning: 1
WidescreenStoryboard: 1

[Editor]
Bookmarks: 50952,67409,104437
DistanceSpacing: 1.2
BeatDivisor: 12
GridSize: 16
TimelineZoom: 1.900006

[Metadata]
Title:Crystal Illusion
TitleUnicode:Crystal Illusion
Artist:P4koo
ArtistUnicode:P4koo
Creator:Riana
Version:Insane
Source:
Tags:omc#3 dailycare morinaga skymin [_-scarlet-_] scarlet [ -scarlet- ] instrumental electronic
BeatmapID:2232947
BeatmapSetID:791944

[Difficulty]
HPDrainRate:6
CircleSize:4
OverallDifficulty:7
ApproachRate:8.5
SliderMultiplier:1.3
SliderTickRate:1

[Events]
//Background and Video events
0,0,"bg.jpg",0,0
//Break Periods
2,18074,22781
//Storyboard Layer 0 (Background)
//Storyboard Layer 1 (Fail)
//Storyboard Layer 2 (Pass)
//Storyboard Layer 3 (Foreground)
//Storyboard Layer 4 (Overlay)
//Storyboard Sound Samples

[TimingPoints]
560,342.857142857143,3,2,1,40,1,0
7074,-100,3,2,1,40,0,0
7417,-100,3,2,1,40,0,0
7760,-100,3,2,1,40,0,0
8788,-100,3,2,1,40,0,0
8960,-100,3,2,1,40,0,0
9474,-100,3,2,1,40,0,0
9817,-100,3,2,1,50,0,0
9988,-100,3,2,1,50,0,0
11874,-100,3,2,1,50,0,0
12045,-100,3,2,1,50,0,0
12560,-100,3,2,1,50,0,0
13074,-100,3,2,1,50,0,0
13245,-100,3,2,1,50,0,0
14788,-100,3,2,1,50,0,0
14960,-100,3,2,1,50,0,0
15302,-100,3,2,1,50,0,0
18045,-100,3,2,1,40,0,0
18217,-100,3,2,1,40,0,0
22160,-100,3,2,1,40,0,0
22845,-100,3,2,1,40,0,0
23188,-100,3,2,1,40,0,0
23531,-100,3,2,1,40,0,0
23874,-100,3,2,1,40,0,0
24045,-100,3,2,1,40,0,0
24217,-100,3,2,1,40,0,0
24560,-100,3,2,1,40,0,0
24902,-100,3,2,1,20,0,0
24988,-100,3,2,1,40,0,0
25245,-100,3,2,1,40,0,0
25417,-100,3,2,1,40,0,0
26274,-100,3,2,1,40,0,0
26617,-100,3,2,1,40,0,0
34502,-100,3,2,2,40,0,1
34588,-100,3,2,2,35,0,1
34845,-100,3,2,2,45,0,1
35017,-100,3,2,2,60,0,1
35188,-100,3,2,2,65,0,1
35360,-100,3,2,2,70,0,1
35531,-100,3,2,2,40,0,1
35617,-100,3,2,2,35,0,1
35874,-100,3,2,2,45,0,1
36045,-100,3,2,2,60,0,1
36217,-100,3,2,2,65,0,1
36388,-100,3,2,2,70,0,1
36560,-100,3,2,2,40,0,1
36645,-100,3,2,2,35,0,1
36902,-100,3,2,2,45,0,1
37074,-100,3,2,2,60,0,1
37245,-100,3,2,2,65,0,1
37417,-100,3,2,2,70,0,1
37588,-100,3,2,2,40,0,1
37674,-100,3,2,2,35,0,1
37931,-100,3,2,2,45,0,1
38102,-100,3,2,2,60,0,1
38274,-100,3,2,2,65,0,1
38445,-100,3,2,2,70,0,1
38617,-100,3,2,2,40,0,1
38702,-100,3,2,2,35,0,1
38960,-100,3,2,2,45,0,1
39131,-100,3,2,2,60,0,1
39302,-100,3,2,2,65,0,1
39474,-100,3,2,2,70,0,1
39645,-100,3,2,2,40,0,1
39731,-100,3,2,2,35,0,1
39988,-100,3,2,2,45,0,1
40160,-100,3,2,2,60,0,1
40331,-100,3,2,2,65,0,1
40502,-100,3,2,2,70,0,1
40674,-100,3,2,2,40,0,1
40760,-100,3,2,2,35,0,1
41017,-100,3,2,2,45,0,1
41360,-100,3,2,2,60,0,1
41702,-100,3,2,2,80,0,1
42731,-100,3,2,2,40,0,1
42817,-100,3,2,2,35,0,1
43074,-100,3,2,2,45,0,1
43245,-100,3,2,2,60,0,1
43417,-100,3,2,2,65,0,1
43588,-100,3,2,2,70,0,1
43760,-100,3,2,2,40,0,1
43845,-100,3,2,2,30,0,1
44102,-100,3,2,2,45,0,1
44274,-100,3,2,2,60,0,1
44445,-100,3,2,2,65,0,1
44617,-100,3,2,2,70,0,1
44788,-100,3,2,2,40,0,1
44874,-100,3,2,2,35,0,1
45131,-100,3,2,2,45,0,1
45302,-100,3,2,2,60,0,1
45474,-100,3,2,2,65,0,1
45645,-100,3,2,2,70,0,1
45817,-100,3,2,2,40,0,1
45902,-100,3,2,2,35,0,1
46160,-100,3,2,2,45,0,1
46331,-100,3,2,2,60,0,1
46502,-100,3,2,2,65,0,1
46503,-100,3,2,2,65,0,1
46674,-100,3,2,2,70,0,1
46845,-100,3,2,2,40,0,1
46931,-100,3,2,2,35,0,1
47188,-100,3,2,2,45,0,1
47360,-100,3,2,2,60,0,1
47531,-100,3,2,2,65,0,1
47702,-100,3,2,2,70,0,1
47874,-100,3,2,2,40,0,1
47960,-100,3,2,2,35,0,1
48217,-100,3,2,2,45,0,1
48388,-100,3,2,2,60,0,1
48560,-100,3,2,2,65,0,1
48731,-100,3,2,2,70,0,1
48902,-100,3,2,2,40,0,1
48988,-100,3,2,2,35,0,1
49245,-100,3,2,2,45,0,1
49417,-100,3,2,2,60,0,1
49588,-100,3,2,2,65,0,1
49760,-100,3,2,2,70,0,1
49931,-100,3,2,2,85,0,1
50274,-100,3,2,2,80,0,1
50360,-100,3,2,2,60,0,1
50788,-100,3,2,2,60,0,1
50874,-100,3,2,2,60,0,1
50960,-100,3,2,1,40,0,0
67074,-100,3,2,1,40,0,0
67416,-100,3,2,1,40,0,0
67417,-100,3,2,1,50,0,0
67760,-100,3,2,1,50,0,0
68102,-100,3,2,1,50,0,0
68274,-100,3,2,1,50,0,0
70160,-100,3,2,1,50,0,0
70331,-100,3,2,1,50,0,0
72217,-100,3,2,1,50,0,0
72388,-100,3,2,1,50,0,0
73245,-100,3,2,1,50,0,0
73417,-100,3,2,1,50,0,0
74274,-100,3,2,1,50,0,0
74360,-100,3,2,1,50,0,0
75645,-100,3,2,1,50,0,0
75988,-100,3,2,1,50,0,0
76331,-100,3,2,1,50,0,0
76845,-100,3,2,1,50,0,0
77017,-100,3,2,1,50,0,0
77360,-100,3,2,1,50,0,0
77702,-100,3,2,1,50,0,0
78045,-100,3,2,1,50,0,0
78388,-100,3,2,1,50,0,0
78560,-100,3,2,1,50,0,0
78902,-100,3,2,1,50,0,0
78988,-100,3,2,1,50,0,0
79417,-100,3,2,1,50,0,0
79588,-100,3,2,1,50,0,0
79760,-100,3,2,1,50,0,0
79845,-100,3,2,1,50,0,0
80445,-100,3,2,1,50,0,0
80788,-100,3,2,1,50,0,0
80960,-100,3,2,1,50,0,0
81302,-100,3,2,1,50,0,0
81645,-100,3,2,1,50,0,0
81817,-100,3,2,1,60,0,0
81988,-100,3,2,1,60,0,0
82160,-100,3,2,1,60,0,0
82331,-100,3,2,1,60,0,0
82502,-100,3,2,1,60,0,0
82674,-100,3,2,1,60,0,0
82845,-100,3,2,1,60,0,0
83017,-100,3,2,1,60,0,0
83188,-100,3,2,1,60,0,0
83360,-100,3,2,1,60,0,0
83531,-100,3,2,1,60,0,0
83702,-100,3,2,1,60,0,0
83874,-100,3,2,1,60,0,0
85760,-100,3,2,1,60,0,0
86445,-100,3,2,1,60,0,0
86788,-100,3,2,1,60,0,0
86960,-100,3,2,1,60,0,0
87131,-100,3,2,1,60,0,0
87302,-100,3,2,1,50,0,0
87474,-100,3,2,1,50,0,0
87645,-100,3,2,1,50,0,0
87817,-100,3,2,1,50,0,0
87988,-76.9230769230769,3,2,2,70,0,1
88160,-76.9230769230769,3,2,2,70,0,1
91245,-76.9230769230769,3,2,2,70,0,1
92102,-76.9230769230769,3,2,2,70,0,1
95360,-76.9230769230769,3,2,2,70,0,1
95531,-76.9230769230769,3,2,2,70,0,1
95874,-76.9230769230769,3,2,2,70,0,1
96045,-76.9230769230769,3,2,2,70,0,1
96217,-76.9230769230769,3,2,2,70,0,1
98274,-76.9230769230769,3,2,2,70,0,1
99474,-76.9230769230769,3,2,2,70,0,1
100331,-76.9230769230769,3,2,2,70,0,1
100502,-76.9230769230769,3,2,2,70,0,1
101360,-76.9230769230769,3,2,2,70,0,1
101531,-76.9230769230769,3,2,2,70,0,1
102388,-76.9230769230769,3,2,2,70,0,1
102560,-76.9230769230769,3,2,2,70,0,1
103417,-100,3,2,2,70,0,0
104102,-100,3,2,2,40,0,0
104445,-83.3333333333333,3,2,2,65,0,1
104531,-83.3333333333333,3,2,2,55,0,1
104788,-83.3333333333333,3,2,2,75,0,1
105560,-83.3333333333333,3,2,2,55,0,1
105817,-83.3333333333333,3,2,2,75,0,1
106588,-83.3333333333333,3,2,2,55,0,1
106845,-83.3333333333333,3,2,2,75,0,1
107617,-83.3333333333333,3,2,2,55,0,1
107874,-83.3333333333333,3,2,2,75,0,1
108645,-83.3333333333333,3,2,2,55,0,1
108902,-83.3333333333333,3,2,2,75,0,1
110702,-83.3333333333333,3,2,2,55,0,1
110960,-83.3333333333333,3,2,2,75,0,1
111731,-83.3333333333333,3,2,2,55,0,1
111988,-83.3333333333333,3,2,2,75,0,1
112331,-83.3333333333333,3,2,2,50,0,1
112674,-83.3333333333333,3,2,2,75,0,1
112760,-83.3333333333333,3,2,2,55,0,1
113017,-83.3333333333333,3,2,2,75,0,1
113788,-83.3333333333333,3,2,2,55,0,1
114045,-83.3333333333333,3,2,2,75,0,1
114817,-83.3333333333333,3,2,2,55,0,1
115074,-83.3333333333333,3,2,2,75,0,1
115845,-83.3333333333333,3,2,2,55,0,1
116102,-83.3333333333333,3,2,2,75,0,1
116788,-83.3333333333333,3,2,2,65,0,1
116960,-83.3333333333333,3,2,2,65,0,1
117817,-83.3333333333333,3,2,2,75,0,1
117902,-83.3333333333333,3,2,2,75,0,1
118845,-83.3333333333333,3,2,2,85,0,1
118931,-83.3333333333333,3,2,2,85,0,1
119702,-83.3333333333333,3,2,2,85,0,1
119874,-83.3333333333333,3,2,2,85,0,1
119960,-83.3333333333333,3,2,2,85,0,1
120045,-83.3333333333333,3,2,2,85,0,1
120131,-83.3333333333333,3,2,2,85,0,1
120217,-83.3333333333333,3,2,2,85,0,1
120302,-83.3333333333333,3,2,2,85,0,1
120388,-83.3333333333333,3,2,2,85,0,1
120474,-83.3333333333333,3,2,2,85,0,1
120560,-83.3333333333333,3,2,2,85,0,1
120645,-83.3333333333333,3,2,2,85,0,1
120731,-83.3333333333333,3,2,2,85,0,1
120817,-83.3333333333333,3,2,2,85,0,1
120902,-100,3,2,2,40,0,0
121245,-100,3,2,2,95,0,0
126045,-100,3,2,2,95,0,0

[Colours]
Combo1 : 0,128,255
Combo2 : 128,255,255
Combo3 : 128,128,255

[HitObjects]
75,179,1245,6,0,L|133:199,3,32.5,0|0|0|0,0:2|0:2|0:2|0:2,0:0:0:0:
180,173,1588,1,2,0:2:0:0:
338,148,2445,5,0,0:2:0:0:
338,148,2531,1,0,0:2:0:0:
338,148,2617,2,0,P|295:212|309:278,2,130,2|2|0,0:2|0:2|0:2,0:0:0:0:
270,363,3645,6,0,P|208:383|120:293,1,195,2|0,0:2|0:2,0:0:0:0:
143,224,4331,1,2,0:2:0:0:
198,283,4502,1,0,0:2:0:0:
120,302,4674,1,2,0:2:0:0:
437,250,5360,6,0,P|443:287|430:324,1,65,0|0,0:2|0:2,0:0:0:0:
365,345,5702,2,0,L|502:366,2,130,2|0|0,0:2|0:2|0:2,0:0:0:0:
309,250,6731,1,2,0:2:0:0:
366,160,7074,1,2,0:2:0:0:
311,66,7417,1,2,0:2:0:0:
216,220,7760,6,0,P|278:240|366:150,1,195,2|0,0:2|0:2,0:0:0:0:
331,76,8445,1,2,0:2:0:0:
275,147,8617,1,0,0:2:0:0:
365,159,8788,2,0,P|418:244|385:329,1,195,2|0,0:2|0:2,0:0:0:0:
260,327,9474,6,0,L|251:295,3,32.5,2|2|2|2,0:2|0:2|0:2|0:2,0:0:0:0:
267,331,9817,2,0,P|201:304|135:337,1,130,6|10,0:0|0:2,0:0:0:0:
141,242,10331,1,2,0:2:0:0:
135,160,10502,1,0,0:0:0:0:
0,203,10674,5,0,0:0:0:0:
0,203,10760,1,0,0:0:0:0:
0,203,10845,2,0,P|47:211|81:193,1,65,2|10,0:2|0:2,0:0:0:0:
169,107,11188,2,0,P|138:144|136:182,1,65,0|2,0:2|0:2,0:0:0:0:
169,297,11531,2,0,P|152:251|119:231,1,65,2|10,0:2|0:2,0:0:0:0:
312,229,11874,6,0,P|368:239|439:180,1,130,6|10,0:2|0:2,0:0:0:0:
354,151,12388,1,2,0:2:0:0:
354,151,12474,1,0,0:2:0:0:
354,151,12560,1,2,0:2:0:0:
383,73,12731,1,0,0:2:0:0:
210,109,12902,1,0,0:2:0:0:
269,174,13074,1,10,0:2:0:0:
323,8,13245,1,2,0:2:0:0:
240,28,13417,1,0,0:2:0:0:
269,174,13588,1,10,0:2:0:0:
354,151,13760,1,8,0:2:0:0:
450,253,13931,6,0,P|407:299|344:305,1,130,6|10,0:0|0:2,0:0:0:0:
281,245,14445,1,0,0:2:0:0:
219,185,14617,1,2,0:2:0:0:
342,227,14788,5,8,0:0:0:0:
342,227,14874,1,0,0:2:0:0:
342,227,14960,2,0,P|298:245|261:236,1,65,6|0,0:2|0:2,0:0:0:0:
173,141,15302,2,0,P|212:169|223:205,1,65,10|0,0:2|0:2,0:0:0:0:
188,329,15645,2,0,P|193:279|221:252,1,65,2|10,0:2|0:2,0:0:0:0:
341,107,15988,6,0,P|363:158|323:242,1,130,6|10,0:2|0:2,0:0:0:0:
269,174,16502,1,2,0:2:0:0:
269,174,16588,1,0,0:2:0:0:
269,174,16674,1,2,0:2:0:0:
254,81,16845,1,10,0:2:0:0:
167,66,17017,5,2,0:2:0:0:
115,136,17188,1,10,0:2:0:0:
120,57,17360,5,2,0:2:0:0:
96,130,17531,1,2,0:2:0:0:
167,66,17702,5,10,0:2:0:0:
115,136,17874,1,10,0:2:0:0:
256,192,23531,12,0,24902,0:0:0:0:
257,274,25245,5,0,0:0:0:0:
338,246,25417,1,8,0:2:0:0:
348,162,25588,1,0,0:2:0:0:
282,114,25760,1,0,0:2:0:0:
282,114,25845,1,0,0:2:0:0:
282,114,25931,2,0,P|268:72|280:26,1,65,10|0,0:2|0:2,0:0:0:0:
155,93,26274,6,0,P|107:73|18:105,1,130,2|10,3:2|0:2,0:0:0:0:
21,180,26788,2,0,P|11:229|25:265,1,65,0|2,0:2|0:2,0:0:0:0:
214,224,27131,5,0,0:2:0:0:
214,224,27217,1,0,0:2:0:0:
214,224,27302,2,0,P|167:241|142:266,1,65,0|2,3:2|0:2,0:0:0:0:
214,384,27645,2,0,P|221:335|212:301,1,65,10|0,0:2|0:2,0:0:0:0:
77,303,27988,2,0,P|114:336|152:342,1,65,2|10,0:2|0:2,0:0:0:0:
265,161,28331,6,0,P|220:115|157:112,1,130,2|10,0:2|0:2,0:0:0:0:
90,53,28845,2,0,P|42:68|18:98,1,65,0|2,0:2|0:2,0:0:0:0:
26,213,29188,5,0,0:2:0:0:
26,213,29274,1,0,0:2:0:0:
26,213,29360,1,0,3:2:0:0:
82,275,29531,1,10,0:2:0:0:
170,254,29702,2,0,P|144:218|117:204,1,65,2|0,0:2|0:2,0:0:0:0:
170,254,30045,1,8,0:2:0:0:
170,254,30217,1,8,0:2:0:0:
218,372,30388,6,0,P|299:341|317:284,1,130,2|10,3:2|0:2,0:0:0:0:
288,224,30902,1,2,0:2:0:0:
341,102,31074,2,0,L|430:109,1,65,2|8,0:2|0:2,0:0:0:0:
506,186,31417,2,0,L|417:193,1,65,2|0,3:2|0:2,0:0:0:0:
341,259,31760,2,0,L|430:266,1,65,10|2,0:2|0:2,0:0:0:0:
512,330,32102,2,0,L|423:337,1,65,2|8,0:2|0:2,0:0:0:0:
286,333,32445,6,0,P|251:283|272:197,2,130,2|10|2,3:2|3:2|3:2,0:0:0:0:
341,258,33302,1,10,0:2:0:0:
341,258,33388,1,2,0:2:0:0:
341,258,33474,1,6,0:2:0:0:
335,225,33560,1,2,0:2:0:0:
329,193,33645,1,2,0:2:0:0:
324,161,33731,1,2,0:2:0:0:
317,130,33817,2,0,L|257:119,3,32.5,10|2|2|2,0:2|0:2|0:2|0:2,0:0:0:0:
210,155,34160,2,0,L|150:166,3,32.5,14|0|0|0,0:2|0:0|0:0|0:2,0:0:0:0:
106,221,34502,6,0,P|84:160|121:79,1,130,4|10,3:2|0:2,0:0:0:0:
128,78,35017,1,2,0:2:0:0:
139,0,35188,1,2,0:2:0:0:
62,29,35360,1,2,0:2:0:0:
59,185,35531,6,0,P|113:152|199:175,1,130,0|10,3:2|0:2,0:0:0:0:
204,178,36045,1,2,0:2:0:0:
277,218,36217,1,2,0:2:0:0:
278,136,36388,1,10,0:2:0:0:
467,156,36560,6,0,P|450:218|494:296,1,130,0|10,3:2|0:2,0:0:0:0:
501,296,37074,1,2,0:2:0:0:
501,384,37245,1,2,0:2:0:0:
422,343,37417,1,2,0:2:0:0:
348,239,37588,6,0,P|293:271|207:248,1,130,0|2,3:2|0:2,0:0:0:0:
203,246,38102,1,0,0:0:0:0:
81,272,38274,1,2,0:2:0:0:
165,366,38445,5,10,0:2:0:0:
165,366,38531,1,2,0:2:0:0:
165,366,38617,2,0,P|214:324|223:235,1,130,2|10,3:2|0:2,0:0:0:0:
217,231,39131,1,2,0:2:0:0:
278,162,39302,1,2,0:2:0:0:
310,247,39474,1,2,0:2:0:0:
185,135,39645,6,0,P|154:190|68:214,1,130,0|10,3:2|0:2,0:0:0:0:
63,214,40160,1,2,0:2:0:0:
0,275,40331,1,2,0:2:0:0:
84,300,40502,1,10,0:2:0:0:
229,262,40674,6,0,P|292:261|355:323,1,130,0|10,3:2|0:2,0:0:0:0:
358,328,41188,1,0,0:2:0:0:
469,277,41360,1,2,0:2:0:0:
374,213,41531,5,2,0:2:0:0:
374,213,41617,1,2,0:2:0:0:
374,213,41702,1,2,3:2:0:0:
254,114,41874,1,10,0:2:0:0:
229,262,42045,1,2,0:2:0:0:
289,194,42217,1,2,0:2:0:0:
289,194,42302,1,2,0:2:0:0:
289,194,42388,2,0,L|292:137,3,32.5,10|0|10|0,0:2|0:2|0:2|0:2,0:0:0:0:
254,114,42731,6,0,P|315:136|396:98,1,130,4|10,3:2|0:2,0:0:0:0:
396,91,43245,1,2,0:2:0:0:
485,78,43417,1,2,0:2:0:0:
450,159,43588,1,2,0:2:0:0:
378,302,43760,6,0,P|323:269|237:292,1,130,0|10,3:2|0:2,0:0:0:0:
233,295,44274,1,2,0:2:0:0:
151,326,44445,1,2,0:2:0:0:
163,239,44617,1,10,0:2:0:0:
40,352,44788,6,0,P|62:291|25:210,1,130,0|10,3:2|0:2,0:0:0:0:
18,209,45302,1,0,0:0:0:0:
2,120,45474,1,2,0:2:0:0:
86,155,45645,1,0,0:0:0:0:
72,25,45817,6,0,P|126:57|212:34,1,130,0|2,3:2|0:2,0:0:0:0:
217,32,46331,1,0,0:0:0:0:
337,21,46502,1,0,0:0:0:0:
359,134,46674,5,10,0:2:0:0:
359,134,46760,1,2,0:2:0:0:
359,134,46845,2,0,P|309:175|300:264,1,130,2|10,3:2|0:2,0:0:0:0:
307,269,47360,1,2,0:2:0:0:
274,353,47531,1,2,0:2:0:0:
221,282,47702,1,0,0:0:0:0:
47,299,47874,6,0,P|78:244|163:220,1,130,2|10,3:2|0:2,0:0:0:0:
169,220,48388,1,0,0:0:0:0:
255,227,48560,1,2,0:2:0:0:
215,149,48731,1,10,0:2:0:0:
329,187,48902,6,0,P|265:187|202:125,1,130,2|10,3:2|0:2,0:0:0:0:
251,69,49417,1,0,0:2:0:0:
163,79,49588,1,2,0:2:0:0:
53,125,49760,5,8,0:2:0:0:
53,125,49845,1,0,0:2:0:0:
53,125,49931,1,6,0:0:0:0:
56,157,50017,1,2,0:0:0:0:
60,189,50102,1,2,0:0:0:0:
64,221,50188,1,2,0:0:0:0:
68,254,50274,2,0,L|75:305,3,32.5,10|2|0|2,0:0|0:0|0:2|0:2,0:0:0:0:
88,363,50617,5,2,0:2:0:0:
129,337,50702,1,0,0:2:0:0:
177,332,50788,1,8,0:2:0:0:
222,349,50874,1,8,0:2:0:0:
255,384,50960,1,6,0:2:0:0:
264,106,51817,5,0,0:2:0:0:
264,106,51902,1,0,0:2:0:0:
264,106,51988,2,0,P|307:170|293:236,2,130,2|2|2,0:2|0:2|0:2,0:0:0:0:
332,321,53017,6,0,P|394:341|482:251,1,195,2|0,0:2|0:2,0:0:0:0:
459,182,53702,1,2,0:2:0:0:
404,241,53874,1,0,0:2:0:0:
482,260,54045,1,2,0:2:0:0:
165,208,54731,6,0,P|159:245|172:282,1,65,0|0,0:2|0:2,0:0:0:0:
237,303,55074,2,0,L|100:324,2,130,2|0|0,0:2|0:2|0:2,0:0:0:0:
293,208,56102,1,2,0:2:0:0:
236,118,56445,1,2,0:2:0:0:
291,24,56788,1,2,0:2:0:0:
386,178,57131,6,0,P|324:198|236:108,1,195,2|0,0:2|0:2,0:0:0:0:
271,34,57817,1,2,0:2:0:0:
327,105,57988,1,0,0:2:0:0:
237,117,58160,2,0,P|184:202|217:287,1,195,2|0,0:2|0:2,0:0:0:0:
374,303,58845,5,2,0:2:0:0:
368,225,59017,1,0,0:2:0:0:
380,380,59188,1,2,0:2:0:0:
111,284,60045,5,2,0:2:0:0:
111,284,60131,1,0,0:2:0:0:
111,284,60217,2,0,P|170:255|234:278,2,130,2|2|2,0:2|0:2|0:2,0:0:0:0:
261,358,61245,1,2,0:2:0:0:
437,151,61931,5,2,0:2:0:0:
437,151,62102,1,0,0:2:0:0:
437,151,62274,1,2,0:2:0:0:
393,168,62445,1,0,0:2:0:0:
341,150,62617,1,0,0:2:0:0:
281,178,62788,1,0,0:2:0:0:
226,143,62960,1,2,0:2:0:0:
177,172,63131,1,0,0:2:0:0:
238,69,63302,5,2,0:2:0:0:
194,249,63645,1,2,0:2:0:0:
54,124,63988,1,2,0:2:0:0:
238,69,64331,5,2,0:2:0:0:
268,283,64674,1,2,0:2:0:0:
58,211,65017,1,2,0:2:0:0:
238,69,65360,6,0,P|268:135|186:237,1,195,2|0,0:2|0:2,0:0:0:0:
123,211,66045,1,2,0:2:0:0:
65,274,66217,1,0,0:2:0:0:
89,355,66388,5,2,0:2:0:0:
175,377,66560,1,0,0:2:0:0:
75,378,66731,5,0,0:2:0:0:
159,384,66902,1,0,0:2:0:0:
217,313,67074,6,0,L|264:300,3,32.5,2|0|0|0,0:2|0:2|0:2|0:2,0:0:0:0:
327,326,67417,2,0,P|354:260|321:194,2,130,6|0|10,3:2|0:0|0:2,0:0:0:0:
217,313,68274,5,0,0:2:0:0:
217,313,68360,1,0,0:2:0:0:
217,313,68445,2,0,L|191:97,1,195,6|2,3:2|3:2,0:0:0:0:
377,90,69131,1,10,0:2:0:0:
334,159,69302,1,2,0:2:0:0:
312,30,69474,6,0,L|292:249,1,195,6|0,3:2|0:0,0:0:0:0:
193,119,70160,1,10,0:2:0:0:
137,195,70331,1,0,0:2:0:0:
137,195,70417,1,0,0:2:0:0:
137,195,70502,2,0,P|212:209|275:168,2,130,6|2|10,3:2|0:2|0:2,0:0:0:0:
186,0,71531,6,0,P|213:66|180:132,2,130,6|0|8,3:2|0:0|0:2,0:0:0:0:
2,57,72388,1,2,0:2:0:0:
2,57,72474,1,0,0:2:0:0:
2,57,72560,2,0,P|77:43|140:84,2,130,6|2|10,3:2|0:2|0:2,0:0:0:0:
49,204,73588,6,0,L|31:356,1,130,6|0,3:2|0:0,0:0:0:0:
49,204,74274,1,0,0:0:0:0:
146,147,74531,1,0,0:0:0:0:
146,147,74617,2,0,L|125:290,1,130,6|0,3:2|0:2,0:0:0:0:
176,345,75131,1,2,3:2:0:0:
258,329,75302,1,10,0:2:0:0:
295,255,75474,1,2,0:2:0:0:
469,308,75645,6,0,L|341:328,1,130,6|10,3:2|0:2,0:0:0:0:
133,171,76331,1,2,0:2:0:0:
178,251,76502,1,0,0:2:0:0:
178,251,76588,1,0,0:2:0:0:
178,251,76674,2,0,P|241:228|309:277,1,130,6|2,3:2|0:2,0:0:0:0:
380,240,77188,1,0,3:2:0:0:
393,157,77360,1,10,0:2:0:0:
405,75,77531,1,2,0:2:0:0:
252,135,77702,6,0,L|104:117,1,130,6|10,3:2|0:2,0:0:0:0:
14,244,78388,1,2,0:2:0:0:
105,264,78560,1,0,0:2:0:0:
105,264,78645,1,0,0:2:0:0:
105,264,78731,1,6,3:2:0:0:
126,345,78902,1,8,0:2:0:0:
126,345,78988,1,0,0:2:0:0:
126,345,79074,2,0,L|163:355,3,32.5,0|0|0|0,0:0|0:0|0:0|0:0,0:0:0:0:
223,314,79417,2,0,L|255:306,3,32.5,10|2|10|2,0:0|0:0|0:0|0:0,0:0:0:0:
324,246,79760,6,0,L|339:397,1,130,6|10,3:2|0:2,0:0:0:0:
357,366,80188,1,0,0:0:0:0:
375,361,80274,1,0,0:2:0:0:
443,197,80445,1,2,0:2:0:0:
329,147,80617,5,8,0:2:0:0:
347,155,80702,1,0,0:2:0:0:
367,164,80788,2,0,L|379:34,1,130,6|10,3:2|0:2,0:0:0:0:
364,40,81217,1,0,0:0:0:0:
346,45,81302,1,0,3:2:0:0:
329,50,81388,1,0,0:0:0:0:
311,55,81474,1,2,0:2:0:0:
145,118,81645,5,8,0:2:0:0:
150,138,81731,1,0,0:2:0:0:
156,158,81817,2,0,L|316:171,2,130,12|10|10,3:2|3:2|3:2,0:0:0:0:
28,261,82674,5,0,3:2:0:0:
28,261,82760,1,0,0:2:0:0:
28,261,82845,1,14,3:2:0:0:
93,349,83017,1,0,0:2:0:0:
165,276,83188,1,0,0:2:0:0:
221,337,83360,1,0,0:2:0:0:
277,286,83531,1,10,0:2:0:0:
336,328,83702,1,10,0:2:0:0:
396,297,83874,1,6,0:2:0:0:
256,192,84045,12,0,86960,0:0:0:0:
65,148,87988,6,0,L|177:160,1,84.4999961318971,6|0,3:2|0:2,0:0:0:0:
157,150,88245,1,8,0:2:0:0:
164,142,88331,1,2,0:2:0:0:
247,88,88502,1,8,0:2:0:0:
231,71,88674,1,2,0:2:0:0:
256,178,88845,1,8,0:2:0:0:
435,87,89017,6,0,L|423:199,1,84.4999961318971,6|0,3:2|0:2,0:0:0:0:
433,179,89274,1,8,0:2:0:0:
441,186,89360,1,2,0:2:0:0:
495,269,89531,1,8,0:2:0:0:
512,253,89702,1,2,0:2:0:0:
405,278,89874,1,10,0:2:0:0:
349,120,90045,6,0,L|237:108,1,84.4999961318971,6|0,3:2|0:2,0:0:0:0:
256,118,90302,1,8,0:2:0:0:
250,126,90388,1,2,0:2:0:0:
186,184,90560,1,10,0:2:0:0:
201,201,90731,1,2,0:2:0:0:
172,100,90902,1,10,0:2:0:0:
75,254,91074,6,0,L|50:151,1,84.4999961318971,6|0,3:2|0:2,0:0:0:0:
62,160,91331,1,8,0:2:0:0:
68,148,91417,1,0,0:0:0:0:
172,100,91588,1,8,0:0:0:0:
172,100,91760,1,10,0:2:0:0:
203,104,91845,1,8,0:2:0:0:
234,108,91931,1,8,0:2:0:0:
266,112,92017,1,8,0:2:0:0:
298,118,92102,6,0,L|286:230,1,84.4999961318971,6|0,3:2|0:2,0:0:0:0:
296,210,92360,1,8,0:2:0:0:
304,217,92445,1,2,0:2:0:0:
358,300,92617,1,8,0:2:0:0:
375,284,92788,1,2,0:2:0:0:
268,309,92960,1,8,0:2:0:0:
193,169,93131,6,0,L|81:157,1,84.4999961318971,6|0,3:2|0:2,0:0:0:0:
101,167,93388,1,8,0:2:0:0:
94,175,93474,1,2,0:2:0:0:
11,229,93645,1,8,0:2:0:0:
27,246,93817,1,2,0:2:0:0:
2,139,93988,1,10,0:2:0:0:
189,207,94160,6,0,L|201:95,1,84.4999961318971,4|0,3:2|0:2,0:0:0:0:
191,114,94417,1,8,0:2:0:0:
183,108,94502,1,2,0:2:0:0:
125,44,94674,1,10,0:2:0:0:
108,59,94845,1,2,0:2:0:0:
209,30,95017,1,10,0:2:0:0:
285,135,95188,5,6,3:2:0:0:
220,250,95360,1,10,0:2:0:0:
285,135,95531,1,2,0:2:0:0:
411,120,95702,1,10,0:2:0:0:
411,120,95788,1,2,0:2:0:0:
411,120,95874,1,2,0:2:0:0:
285,135,96045,1,10,0:2:0:0:
362,301,96217,6,0,L|374:189,1,84.4999961318971,6|0,3:2|0:2,0:0:0:0:
364,209,96474,1,8,0:2:0:0:
356,202,96560,1,2,0:2:0:0:
302,119,96731,1,8,0:2:0:0:
285,135,96902,1,2,0:2:0:0:
392,110,97074,1,8,0:2:0:0:
275,245,97245,6,0,L|163:257,1,84.4999961318971,6|0,3:2|0:2,0:0:0:0:
183,247,97502,1,8,0:2:0:0:
176,239,97588,1,2,0:2:0:0:
93,192,97760,1,8,0:2:0:0:
109,192,97931,1,2,0:2:0:0:
84,275,98102,1,10,0:2:0:0:
192,162,98274,6,0,L|180:274,1,84.4999961318971,6|0,3:2|0:2,0:0:0:0:
190,255,98531,1,10,0:2:0:0:
198,261,98617,1,2,0:2:0:0:
256,325,98788,1,10,0:2:0:0:
273,310,98960,1,2,0:2:0:0:
172,339,99131,1,10,0:2:0:0:
27,289,99302,6,0,L|2:185,1,84.4999961318971,6|0,3:2|0:2,0:0:0:0:
14,195,99560,1,8,0:2:0:0:
20,183,99645,1,0,0:0:0:0:
124,135,99817,1,8,0:0:0:0:
124,135,99988,1,10,0:2:0:0:
155,139,100074,1,8,0:2:0:0:
186,143,100160,1,8,0:2:0:0:
218,147,100245,1,8,0:2:0:0:
250,153,100331,6,0,L|238:265,1,84.4999961318971,6|0,3:2|0:0,0:0:0:0:
248,245,100588,1,0,0:0:0:0:
256,252,100674,1,10,0:0:0:0:
189,323,100845,1,0,0:0:0:0:
172,339,101017,1,10,0:2:0:0:
283,346,101188,1,2,0:2:0:0:
327,201,101360,6,0,L|338:89,1,84.4999961318971,14|0,3:2|0:0,0:0:0:0:
328,109,101617,1,0,0:0:0:0:
321,102,101702,1,10,0:0:0:0:
219,122,101874,1,0,0:0:0:0:
236,138,102045,1,10,0:0:0:0:
125,145,102217,1,2,0:0:0:0:
133,152,102302,1,0,0:0:0:0:
142,161,102388,6,0,L|130:273,1,84.4999961318971,14|2,3:2|0:0,0:0:0:0:
141,253,102645,1,2,0:0:0:0:
148,260,102731,1,14,0:0:0:0:
250,240,102902,1,2,0:0:0:0:
233,224,103074,1,14,0:0:0:0:
345,216,103245,1,2,0:0:0:0:
308,79,103417,5,12,3:2:0:0:
272,149,103588,1,0,0:2:0:0:
280,156,103674,1,0,0:0:0:0:
287,163,103760,1,10,0:0:0:0:
373,148,103931,1,2,0:0:0:0:
373,148,104102,1,10,0:0:0:0:
374,123,104188,1,10,0:0:0:0:
376,99,104274,1,10,0:0:0:0:
378,75,104360,1,10,0:0:0:0:
380,53,104445,6,0,L|203:69,1,155.999995239258,6|10,3:2|0:0,0:0:0:0:
232,147,104960,1,2,0:0:0:0:
154,114,105131,1,2,0:0:0:0:
277,207,105302,5,10,0:0:0:0:
277,207,105388,1,0,0:0:0:0:
277,207,105474,2,0,P|244:153|216:143,1,77.999997619629,2|0,3:2|0:0,0:0:0:0:
81,126,105817,2,0,P|142:123|165:104,1,77.999997619629,10|0,0:0|0:0,0:0:0:0:
253,0,106160,2,0,P|223:53|228:83,1,77.999997619629,2|10,0:0|0:0,0:0:0:0:
321,221,106502,6,0,L|303:49,1,155.999995239258,6|10,3:2|0:0,0:0:0:0:
223,67,107017,1,2,0:0:0:0:
269,140,107188,1,2,0:0:0:0:
462,161,107360,5,10,0:0:0:0:
462,161,107445,1,0,0:0:0:0:
462,161,107531,2,0,P|398:162|376:181,1,77.999997619629,2|8,3:2|0:0,0:0:0:0:
294,290,107874,2,0,P|321:235|316:206,1,77.999997619629,2|0,0:2|0:0,0:0:0:0:
267,79,108217,2,0,P|297:131|326:142,1,77.999997619629,2|10,0:0|0:0,0:0:0:0:
370,326,108560,6,0,L|193:310,1,155.999995239258,6|10,3:2|0:0,0:0:0:0:
222,232,109074,1,2,0:0:0:0:
144,265,109245,1,2,0:0:0:0:
267,172,109417,5,8,0:0:0:0:
267,172,109502,1,0,0:0:0:0:
267,172,109588,2,0,P|234:226|206:236,1,77.999997619629,2|0,3:2|0:0,0:0:0:0:
71,253,109931,2,0,P|132:256|155:275,1,77.999997619629,10|0,0:0|0:0,0:0:0:0:
243,379,110274,2,0,P|213:326|218:296,1,77.999997619629,2|0,0:0|0:0,0:0:0:0:
311,158,110617,6,0,L|293:330,1,155.999995239258,6|10,3:2|0:0,0:0:0:0:
213,312,111131,1,2,0:0:0:0:
259,239,111302,1,2,0:0:0:0:
417,253,111474,5,2,0:0:0:0:
417,253,111560,1,0,0:0:0:0:
417,253,111645,1,2,3:2:0:0:
451,158,111817,1,8,0:0:0:0:
390,88,111988,1,2,0:0:0:0:
95,153,112331,1,10,0:0:0:0:
94,128,112417,1,10,0:0:0:0:
92,104,112502,1,10,0:0:0:0:
90,80,112588,1,10,0:0:0:0:
88,58,112674,6,0,L|265:74,1,155.999995239258,6|10,3:2|0:0,0:0:0:0:
236,152,113188,1,2,0:0:0:0:
314,119,113360,1,2,0:0:0:0:
191,212,113531,5,10,0:0:0:0:
191,212,113617,1,0,0:0:0:0:
191,212,113702,2,0,P|224:158|252:148,1,77.999997619629,0|0,3:2|0:0,0:0:0:0:
387,131,114045,2,0,P|326:128|303:109,1,77.999997619629,8|0,0:0|0:0,0:0:0:0:
215,5,114388,2,0,P|245:58|240:88,1,77.999997619629,2|10,0:0|0:0,0:0:0:0:
147,226,114731,6,0,L|165:54,1,155.999995239258,6|10,3:2|0:0,0:0:0:0:
245,72,115245,1,2,0:0:0:0:
199,145,115417,1,0,0:0:0:0:
6,166,115588,5,10,0:0:0:0:
6,166,115674,1,0,0:0:0:0:
6,166,115760,2,0,P|69:167|91:186,1,77.999997619629,0|8,3:2|0:0,0:0:0:0:
174,295,116102,2,0,P|146:240|151:211,1,77.999997619629,0|0,0:0|0:0,0:0:0:0:
201,84,116445,2,0,P|170:136|141:147,1,77.999997619629,2|10,0:0|0:0,0:0:0:0:
98,331,116788,6,0,L|275:315,1,155.999995239258,6|2,3:2|0:0,0:0:0:0:
246,237,117302,1,2,0:0:0:0:
324,270,117474,1,8,0:0:0:0:
201,177,117645,5,0,0:0:0:0:
201,177,117731,1,0,0:0:0:0:
201,177,117817,2,0,P|234:231|262:241,1,77.999997619629,6|0,3:2|0:0,0:0:0:0:
397,258,118160,2,0,P|336:261|313:280,1,77.999997619629,2|0,0:0|0:0,0:0:0:0:
225,384,118502,2,0,P|255:331|250:301,1,77.999997619629
157,163,118845,6,0,L|175:335,1,155.999995239258,6|2,3:2|0:0,0:0:0:0:
255,317,119360,1,0,3:1:0:0:
209,244,119531,1,10,0:0:0:0:
57,282,119702,5,0,3:0:0:0:
57,282,119788,1,2,0:0:0:0:
57,282,119874,1,14,0:0:0:0:
60,250,119960,1,0,0:0:0:0:
64,218,120045,1,2,0:0:0:0:
68,186,120131,1,2,0:0:0:0:
72,153,120217,2,0,L|80:88,3,38.9999988098145,2|2|2|2,0:0|0:0|0:0|0:0,0:0:0:0:
92,44,120560,5,10,0:0:0:0:
133,70,120645,1,0,0:0:0:0:
169,72,120731,1,10,0:0:0:0:
200,54,120817,1,0,0:0:0:0:
213,31,120902,1,0,3:1:0:0:
290,47,121074,1,0,0:0:0:0:
223,170,121245,5,6,0:0:0:0:
