osu file format v14

[General]
AudioFilename: audio.mp3
AudioLeadIn: 0
PreviewTime: 86952
Countdown: 0
SampleSet: Soft
StackLeniency: 0.5
Mode: 0
LetterboxInBreaks: 0
EpilepsyWarning: 1
WidescreenStoryboard: 1

[Editor]
Bookmarks: 18037,23523,34494,49580,50952,67409,92094,104437
DistanceSpacing: 0.8
BeatDivisor: 8
GridSize: 16
TimelineZoom: 3.000005

[Metadata]
Title:Crystal Illusion
TitleUnicode:Crystal Illusion
Artist:P4koo
ArtistUnicode:P4koo
Creator:Riana
Version:Illusion
Source:
Tags:omc#3 dailycare morinaga skymin [_-scarlet-_] scarlet [ -scarlet- ] instrumental electronic
BeatmapID:1661222
BeatmapSetID:791944

[Difficulty]
HPDrainRate:5
CircleSize:4
OverallDifficulty:9.5
ApproachRate:9.7
SliderMultiplier:1.4
SliderTickRate:1

[Events]
//Background and Video events
0,0,"bg.jpg",0,0
//Break Periods
//Storyboard Layer 0 (Background)
//Storyboard Layer 1 (Fail)
//Storyboard Layer 2 (Pass)
//Storyboard Layer 3 (Foreground)
//Storyboard Layer 4 (Overlay)
//Storyboard Sound Samples

[TimingPoints]
560,342.857142857143,3,2,1,40,1,0
1245,-133.333333333333,3,2,1,40,0,0
6731,-100,3,2,1,40,0,0
6817,-200,3,2,1,40,0,0
7074,-200,3,2,1,40,0,0
7160,-200,3,2,1,40,0,0
7417,-200,3,2,1,40,0,0
7502,-200,3,2,1,40,0,0
7760,-200,3,2,1,40,0,0
8788,-500,3,2,1,40,0,0
8960,-500,3,2,1,40,0,0
9474,-100,3,2,1,40,0,0
9817,-90.9090909090909,3,2,1,50,0,0
9988,-90.9090909090909,3,2,1,50,0,0
10160,-100,3,2,1,50,0,0
11874,-90.9090909090909,3,2,1,50,0,0
12045,-90.9090909090909,3,2,1,50,0,0
12131,-100,3,2,1,50,0,0
12560,-100,3,2,1,50,0,0
12731,-90.9090909090909,3,2,1,50,0,0
12988,-90.9090909090909,3,2,1,50,0,0
13074,-90.9090909090909,3,2,1,50,0,0
13160,-90.9090909090909,3,2,1,50,0,0
13245,-90.9090909090909,3,2,1,50,0,0
13331,-90.9090909090909,3,2,1,50,0,0
13417,-90.9090909090909,3,2,1,50,0,0
13502,-90.9090909090909,3,2,1,50,0,0
13588,-90.9090909090909,3,2,1,50,0,0
13674,-90.9090909090909,3,2,1,50,0,0
13760,-90.9090909090909,3,2,1,50,0,0
13845,-90.9090909090909,3,2,1,50,0,0
13931,-90.9090909090909,3,2,1,50,0,0
14274,-100,3,2,1,50,0,0
14788,-100,3,2,1,50,0,0
14960,-100,3,2,1,50,0,0
15302,-100,3,2,1,50,0,0
15988,-90.9090909090909,3,2,1,50,0,0
16331,-100,3,2,1,50,0,0
18045,-100,3,2,1,40,0,0
18217,-100,3,2,1,40,0,0
22160,-100,3,2,1,40,0,0
22845,-100,3,2,1,40,0,0
23188,-100,3,2,1,40,0,0
23531,-100,3,2,1,40,0,0
23874,-100,3,2,1,40,0,0
24045,-100,3,2,1,40,0,0
24217,-90.9090909090909,3,2,1,40,0,0
24388,-66.6666666666667,3,2,1,40,0,0
24560,-80,3,2,1,40,0,0
24988,-100,3,2,1,40,0,0
25245,-83.3333333333333,3,2,1,40,0,0
25417,-66.6666666666667,3,2,1,40,0,0
25588,-66.6666666666667,3,2,1,40,0,0
25760,-100,3,2,1,40,0,0
26102,-66.6666666666667,3,2,1,40,0,0
26274,-66.6666666666667,3,2,1,40,0,0
26617,-66.6666666666667,3,2,1,40,0,0
29360,-62.5,3,2,1,40,0,0
34502,-62.5,3,2,2,40,0,1
34588,-62.5,3,2,2,35,0,1
34845,-62.5,3,2,2,45,0,1
35017,-62.5,3,2,2,60,0,1
35188,-62.5,3,2,2,65,0,1
35360,-62.5,3,2,2,70,0,1
35531,-62.5,3,2,2,40,0,1
35617,-62.5,3,2,2,35,0,1
35874,-62.5,3,2,2,45,0,1
36045,-62.5,3,2,2,60,0,1
36217,-62.5,3,2,2,65,0,1
36388,-62.5,3,2,2,70,0,1
36560,-62.5,3,2,2,40,0,1
36645,-62.5,3,2,2,35,0,1
36902,-62.5,3,2,2,45,0,1
37074,-62.5,3,2,2,60,0,1
37245,-62.5,3,2,2,65,0,1
37417,-62.5,3,2,2,70,0,1
37588,-62.5,3,2,2,40,0,1
37674,-62.5,3,2,2,35,0,1
37931,-62.5,3,2,2,45,0,1
38102,-62.5,3,2,2,60,0,1
38274,-62.5,3,2,2,65,0,1
38445,-62.5,3,2,2,70,0,1
38617,-62.5,3,2,2,40,0,1
38702,-62.5,3,2,2,35,0,1
38960,-62.5,3,2,2,45,0,1
39131,-62.5,3,2,2,60,0,1
39302,-62.5,3,2,2,65,0,1
39474,-62.5,3,2,2,70,0,1
39645,-62.5,3,2,2,40,0,1
39731,-62.5,3,2,2,35,0,1
39988,-62.5,3,2,2,45,0,1
40160,-62.5,3,2,2,60,0,1
40331,-62.5,3,2,2,65,0,1
40502,-62.5,3,2,2,70,0,1
40674,-62.5,3,2,2,40,0,1
40760,-62.5,3,2,2,35,0,1
41017,-62.5,3,2,2,45,0,1
41360,-62.5,3,2,2,60,0,1
41702,-50,3,2,2,80,0,1
42217,-62.5,3,2,2,80,0,1
42731,-62.5,3,2,2,40,0,1
42817,-62.5,3,2,2,35,0,1
43074,-62.5,3,2,2,45,0,1
43245,-62.5,3,2,2,60,0,1
43417,-62.5,3,2,2,65,0,1
43588,-62.5,3,2,2,70,0,1
43760,-62.5,3,2,2,40,0,1
43845,-62.5,3,2,2,30,0,1
44102,-62.5,3,2,2,45,0,1
44274,-62.5,3,2,2,60,0,1
44445,-62.5,3,2,2,65,0,1
44617,-62.5,3,2,2,70,0,1
44788,-62.5,3,2,2,40,0,1
44874,-62.5,3,2,2,35,0,1
45131,-62.5,3,2,2,45,0,1
45302,-62.5,3,2,2,60,0,1
45474,-62.5,3,2,2,65,0,1
45645,-62.5,3,2,2,70,0,1
45817,-62.5,3,2,2,40,0,1
45902,-62.5,3,2,2,35,0,1
46160,-62.5,3,2,2,45,0,1
46331,-62.5,3,2,2,60,0,1
46502,-62.5,3,2,2,65,0,1
46503,-62.5,3,2,2,65,0,1
46674,-62.5,3,2,2,70,0,1
46845,-62.5,3,2,2,40,0,1
46931,-62.5,3,2,2,35,0,1
47188,-62.5,3,2,2,45,0,1
47360,-62.5,3,2,2,60,0,1
47531,-62.5,3,2,2,65,0,1
47702,-62.5,3,2,2,70,0,1
47874,-62.5,3,2,2,40,0,1
47960,-62.5,3,2,2,35,0,1
48217,-62.5,3,2,2,45,0,1
48388,-62.5,3,2,2,60,0,1
48560,-62.5,3,2,2,65,0,1
48731,-62.5,3,2,2,70,0,1
48902,-62.5,3,2,2,40,0,1
48988,-62.5,3,2,2,35,0,1
49245,-62.5,3,2,2,45,0,1
49417,-62.5,3,2,2,60,0,1
49588,-62.5,3,2,2,65,0,1
49760,-62.5,3,2,2,70,0,1
49931,-62.5,3,2,2,85,0,1
50445,-62.5,3,2,2,60,0,1
50574,-62.5,3,2,2,60,0,1
50617,-62.5,3,2,2,60,0,1
50788,-62.5,3,2,2,60,0,1
50874,-62.5,3,2,2,60,0,1
50960,-62.5,3,2,1,40,0,0
51988,-100,3,2,1,40,0,0
53017,-133.333333333333,3,2,1,40,0,0
60902,-114.942528735632,3,2,1,40,0,0
61588,-114.942528735632,3,2,1,20,0,0
61931,-114.942528735632,3,2,1,40,0,0
67074,-133.333333333333,3,2,1,40,0,0
67416,-133.333333333333,3,2,1,40,0,0
67417,-133.333333333333,3,2,1,50,0,0
67760,-133.333333333333,3,2,1,50,0,0
68102,-133.333333333333,3,2,1,50,0,0
68274,-133.333333333333,3,2,1,50,0,0
68445,-117.647058823529,3,2,1,50,0,0
70160,-117.647058823529,3,2,1,50,0,0
70331,-117.647058823529,3,2,1,50,0,0
72217,-117.647058823529,3,2,1,50,0,0
72388,-117.647058823529,3,2,1,50,0,0
73245,-117.647058823529,3,2,1,50,0,0
73417,-117.647058823529,3,2,1,50,0,0
74274,-117.647058823529,3,2,1,50,0,0
74360,-117.647058823529,3,2,1,50,0,0
75645,-66.6666666666667,3,2,1,50,0,0
75988,-66.6666666666667,3,2,1,50,0,0
76331,-66.6666666666667,3,2,1,50,0,0
76845,-66.6666666666667,3,2,1,50,0,0
77017,-66.6666666666667,3,2,1,50,0,0
77360,-66.6666666666667,3,2,1,50,0,0
77702,-66.6666666666667,3,2,1,50,0,0
78045,-66.6666666666667,3,2,1,50,0,0
78388,-66.6666666666667,3,2,1,50,0,0
78560,-66.6666666666667,3,2,1,50,0,0
78902,-66.6666666666667,3,2,1,50,0,0
78988,-66.6666666666667,3,2,1,50,0,0
79417,-66.6666666666667,3,2,1,50,0,0
79760,-66.6666666666667,3,2,1,50,0,0
79845,-66.6666666666667,3,2,1,50,0,0
80445,-66.6666666666667,3,2,1,50,0,0
80788,-66.6666666666667,3,2,1,50,0,0
80960,-66.6666666666667,3,2,1,50,0,0
81302,-66.6666666666667,3,2,1,50,0,0
81645,-66.6666666666667,3,2,1,50,0,0
81817,-66.6666666666667,3,2,1,60,0,0
81988,-66.6666666666667,3,2,1,60,0,0
82160,-250,3,2,1,60,0,0
82331,-250,3,2,1,60,0,0
82502,-250,3,2,1,60,0,0
82674,-250,3,2,1,60,0,0
82845,-43.4782608695652,3,2,1,60,0,0
83017,-43.4782608695652,3,2,1,60,0,0
83188,-43.4782608695652,3,2,1,60,0,0
83360,-43.4782608695652,3,2,1,60,0,0
83531,-43.4782608695652,3,2,1,60,0,0
83702,-43.4782608695652,3,2,1,60,0,0
83874,-66.6666666666667,3,2,1,60,0,0
85760,-66.6666666666667,3,2,1,60,0,0
86445,-66.6666666666667,3,2,1,60,0,0
86788,-66.6666666666667,3,2,1,60,0,0
86960,-66.6666666666667,3,2,1,60,0,0
87131,-66.6666666666667,3,2,1,60,0,0
87302,-50,3,2,1,50,0,0
87474,-50,3,2,1,50,0,0
87645,-50,3,2,1,50,0,0
87817,-50,3,2,1,50,0,0
87988,-40,3,2,2,70,0,1
88160,-40,3,2,2,70,0,1
88674,-28.5714285714286,3,2,2,70,0,1
89017,-40,3,2,2,70,0,1
89702,-28.5714285714286,3,2,2,70,0,1
89874,-40,3,2,2,70,0,1
90731,-28.5714285714286,3,2,2,70,0,1
90902,-40,3,2,2,70,0,1
91245,-40,3,2,2,70,0,1
92102,-40,3,2,2,70,0,1
92788,-28.5714285714286,3,2,2,70,0,1
93131,-40,3,2,2,70,0,1
93817,-28.5714285714286,3,2,2,70,0,1
93988,-40,3,2,2,70,0,1
94845,-28.5714285714286,3,2,2,70,0,1
95360,-28.5714285714286,3,2,2,70,0,1
95531,-28.5714285714286,3,2,2,70,0,1
95874,-28.5714285714286,3,2,2,70,0,1
96045,-28.5714285714286,3,2,2,70,0,1
96217,-40,3,2,2,70,0,1
96902,-28.5714285714286,3,2,2,70,0,1
97245,-40,3,2,2,70,0,1
97931,-27.027027027027,3,2,2,70,0,1
98102,-37.037037037037,3,2,2,70,0,1
98274,-40,3,2,2,70,0,1
98960,-28.5714285714286,3,2,2,70,0,1
99131,-28.5714285714286,3,2,2,70,0,1
99302,-40,3,2,2,70,0,1
99474,-40,3,2,2,70,0,1
100331,-40,3,2,2,70,0,1
100502,-40,3,2,2,70,0,1
101017,-28.5714285714286,3,2,2,70,0,1
101360,-40,3,2,2,70,0,1
101531,-40,3,2,2,70,0,1
101960,-28.5714285714286,3,2,2,70,0,1
102388,-40,3,2,2,70,0,1
102560,-40,3,2,2,70,0,1
103074,-28.5714285714286,3,2,2,70,0,1
103245,-40,3,2,2,70,0,1
103417,-40,3,2,2,70,0,0
104102,-40,3,2,2,40,0,0
104445,-66.6666666666667,3,2,2,65,0,1
104531,-66.6666666666667,3,2,2,55,0,1
104788,-66.6666666666667,3,2,2,75,0,1
105131,-50,3,2,2,75,0,1
105560,-50,3,2,2,55,0,1
105817,-50,3,2,2,75,0,1
106502,-66.6666666666667,3,2,2,75,0,1
106588,-66.6666666666667,3,2,2,55,0,1
106845,-66.6666666666667,3,2,2,75,0,1
107188,-50,3,2,2,75,0,1
107617,-50,3,2,2,55,0,1
107874,-50,3,2,2,75,0,1
108560,-66.6666666666667,3,2,2,75,0,1
108645,-66.6666666666667,3,2,2,55,0,1
108902,-66.6666666666667,3,2,2,75,0,1
109245,-50,3,2,2,75,0,1
110617,-66.6666666666667,3,2,2,75,0,1
110702,-66.6666666666667,3,2,2,55,0,1
110960,-66.6666666666667,3,2,2,75,0,1
111645,-40,3,2,2,75,0,1
111731,-40,3,2,2,55,0,1
111988,-40,3,2,2,75,0,1
112331,-40,3,2,2,50,0,1
112674,-66.6666666666667,3,2,2,75,0,1
112760,-66.6666666666667,3,2,2,55,0,1
113017,-66.6666666666667,3,2,2,75,0,1
113360,-50,3,2,2,75,0,1
113788,-50,3,2,2,55,0,1
114045,-50,3,2,2,75,0,1
114731,-66.6666666666667,3,2,2,75,0,1
114817,-66.6666666666667,3,2,2,55,0,1
115074,-66.6666666666667,3,2,2,75,0,1
115417,-50,3,2,2,75,0,1
115845,-50,3,2,2,55,0,1
116102,-50,3,2,2,75,0,1
116788,-66.6666666666667,3,2,2,65,0,1
116960,-66.6666666666667,3,2,2,65,0,1
117817,-66.6666666666667,3,2,2,75,0,1
117902,-66.6666666666667,3,2,2,75,0,1
118845,-66.6666666666667,3,2,2,85,0,1
118931,-66.6666666666667,3,2,2,85,0,1
119702,-66.6666666666667,3,2,2,85,0,1
119874,-66.6666666666667,3,2,2,85,0,1
120388,-66.6666666666667,3,2,2,85,0,1
120517,-66.6666666666667,3,2,2,85,0,1
120560,-66.6666666666667,3,2,2,85,0,1
120645,-66.6666666666667,3,2,2,85,0,1
120731,-66.6666666666667,3,2,2,85,0,1
120817,-66.6666666666667,3,2,2,85,0,1
120902,-40,3,2,2,40,0,0
121245,-100,3,2,2,95,0,0
126045,-100,3,2,2,95,0,0

[Colours]
Combo1 : 0,128,255
Combo2 : 128,255,255
Combo3 : 128,128,255

[HitObjects]
103,150,1245,6,0,L|110:175,1,26.2500010013581,0|0,0:2|0:2,0:0:0:0:
58,231,1417,2,0,L|50:256,1,26.2500010013581,0|0,0:2|0:2,0:0:0:0:
94,321,1588,2,0,B|196:265|198:369|298:308,1,210.000008010865,2|0,0:2|0:2,0:0:0:0:
283,204,2445,6,0,L|295:243,1,26.2500010013581,0|0,0:2|0:2,0:0:0:0:
369,213,2617,2,0,P|379:171|354:113,2,105.000004005432,2|2|0,0:2|0:2|0:2,0:0:0:0:
383,356,3645,2,0,B|310:326|302:392|228:351,1,157.500006008148,2|0,0:2|0:2,0:0:0:0:
161,312,4331,2,0,P|191:280|204:274,1,52.5000020027161,2|0,0:2|0:2,0:2:0:0:
76,368,4674,6,0,P|79:290|133:217,1,157.500006008148,2|0,0:2|0:0,0:0:0:0:
265,211,5360,2,0,P|263:182|254:160,1,52.5000020027161,0|0,0:2|0:2,0:0:0:0:
202,106,5702,2,0,P|248:119|307:96,2,105.000004005432,2|0|0,0:2|0:2|0:2,0:0:0:0:
265,211,6731,2,0,P|304:215|363:291,2,140,2|2|2,0:2|0:2|0:2,0:0:0:0:
158,315,7760,5,2,0:2:0:0:
188,329,7931,1,0,0:0:0:0:
234,323,8102,1,0,0:2:0:0:
265,280,8274,1,0,0:2:0:0:
265,211,8445,5,2,0:2:0:0:
363,137,8617,1,0,0:2:0:0:
248,87,8788,2,0,P|240:104|238:127,1,42,2|0,0:2|0:2,0:0:0:0:
65,90,9474,5,2,0:2:0:0:
37,109,9560,1,2,0:2:0:0:
15,145,9645,1,2,0:2:0:0:
15,204,9731,1,2,0:2:0:0:
61,253,9817,2,0,P|99:268|146:249,1,77.0000023498536,6|0,0:0|0:3,0:0:0:0:
152,132,10074,5,0,0:2:0:0:
118,159,10160,2,0,P|107:175|105:205,1,35,10|0,0:2|0:2,0:0:0:0:
201,230,10331,2,0,P|187:209|153:191,1,35,2|0,0:2|0:2,0:0:0:0:
132,259,10502,1,0,0:0:0:0:
323,295,10674,5,0,0:0:0:0:
282,315,10760,1,0,0:0:0:0:
241,296,10845,1,2,0:2:0:0:
360,233,11017,2,0,P|385:224|403:227,1,35,10|0,0:2|0:0,0:0:0:0:
397,301,11188,1,0,0:2:0:0:
468,206,11360,5,2,0:2:0:0:
468,206,11445,1,0,0:2:0:0:
413,152,11531,1,2,0:2:0:0:
430,295,11702,2,0,P|408:301|380:294,1,35,10|0,0:2|0:2,0:0:0:0:
345,114,11874,6,0,P|292:110|254:75,1,77.0000023498536,6|0,0:2|0:2,0:0:0:0:
365,41,12131,1,0,0:2:0:0:
392,52,12217,2,0,P|408:71|416:97,1,35,10|0,0:2|0:2,0:0:0:0:
413,152,12388,1,2,0:2:0:0:
403,172,12474,1,0,0:2:0:0:
386,185,12560,1,2,0:2:0:0:
258,278,12731,1,0,0:2:0:0:
258,278,12817,1,0,0:0:0:0:
274,200,12902,6,0,P|298:191|321:193,1,38.5000011749268,0|0,0:2|0:0,0:0:0:0:
439,281,13074,2,0,P|434:255|421:236,1,38.5000011749268,10|0,0:2|0:2,0:0:0:0:
257,240,13245,6,0,P|276:223|298:217,1,38.5000011749268,2|0,0:2|0:0,0:0:0:0:
408,319,13417,2,0,P|412:293|406:271,1,38.5000011749268,0|0,0:2|0:2,0:0:0:0:
258,278,13588,6,0,P|270:255|289:242,1,38.5000011749268,10|0,0:2|0:2,0:0:0:0:
372,343,13760,2,0,P|385:320|387:297,1,38.5000011749268,8|0,0:2|0:2,0:0:0:0:
293,349,13931,6,0,P|252:357|206:335,1,77.0000023498536,6|0,0:0|0:0,0:0:0:0:
123,316,14188,1,0,0:0:0:0:
146,289,14274,2,0,P|166:281|191:281,1,35,10|0,0:2|0:0,0:0:0:0:
258,278,14445,2,0,P|252:256|226:226,1,35,0|0,0:2|0:0,0:0:0:0:
183,206,14617,1,2,0:2:0:0:
275,131,14788,5,8,0:0:0:0:
287,84,14874,1,0,0:2:0:0:
271,38,14960,1,6,0:2:0:0:
156,29,15131,2,0,P|169:21|191:16,1,35,0|0,0:2|0:2,0:0:0:0:
231,18,15302,1,10,0:2:0:0:
70,100,15474,5,0,0:2:0:0:
70,100,15560,1,0,0:2:0:0:
110,162,15645,1,2,0:2:0:0:
26,242,15817,2,0,P|46:224|67:219,1,35,10|0,0:2|0:2,0:0:0:0:
80,366,15988,6,0,P|74:325|88:290,1,77.0000023498536,6|2,0:2|0:2,0:0:0:0:
110,162,16245,1,0,0:2:0:0:
145,148,16331,2,0,P|169:147|194:158,1,35,10|0,0:2|0:2,0:0:0:0:
314,148,16502,1,2,0:2:0:0:
330,183,16588,1,0,0:2:0:0:
326,224,16674,1,2,0:2:0:0:
250,195,16845,5,10,0:2:0:0:
381,112,17017,1,2,0:2:0:0:
512,202,17188,2,0,P|506:184|489:160,1,35,10|2,0:2|0:2,0:0:0:0:
250,195,17360,5,2,0:2:0:0:
225,165,17445,1,2,0:2:0:0:
217,123,17531,1,2,0:2:0:0:
231,77,17617,1,2,0:2:0:0:
273,44,17702,2,0,P|293:34|312:32,1,35,10|0,0:2|0:2,0:0:0:0:
424,48,17874,2,0,P|443:62|454:77,1,35,10|0,0:2|0:2,0:0:0:0:
148,87,18045,5,6,0:2:0:0:
168,208,18217,5,0,0:0:0:0:
214,213,18302,1,0,0:0:0:0:
203,141,18388,1,8,0:0:0:0:
148,87,18560,5,0,0:0:0:0:
126,128,18645,1,0,0:0:0:0:
134,172,18731,1,0,0:0:0:0:
269,107,18902,5,0,0:0:0:0:
238,73,18988,1,0,0:0:0:0:
190,68,19074,1,0,0:0:0:0:
259,197,19245,5,0,0:0:0:0:
281,154,19331,1,0,0:0:0:0:
203,141,19417,1,8,0:0:0:0:
353,280,19588,5,0,0:0:0:0:
305,280,19674,1,0,0:0:0:0:
271,245,19760,1,0,0:0:0:0:
338,206,19931,5,8,0:0:0:0:
413,211,20017,1,0,0:0:0:0:
394,260,20102,1,0,0:0:0:0:
281,154,20274,5,0,0:0:0:0:
235,159,20360,1,0,0:0:0:0:
246,87,20445,1,8,0:0:0:0:
301,33,20617,5,0,0:0:0:0:
323,74,20702,1,0,0:0:0:0:
315,118,20788,1,0,0:0:0:0:
180,53,20960,5,0,0:0:0:0:
211,19,21045,1,0,0:0:0:0:
259,14,21131,1,0,0:0:0:0:
247,87,21302,5,8,0:0:0:0:
189,144,21388,1,0,0:0:0:0:
168,100,21474,1,0,0:0:0:0:
96,226,21645,5,0,0:0:0:0:
144,226,21731,1,0,0:0:0:0:
178,191,21817,1,0,0:0:0:0:
113,152,21988,5,8,0:0:0:0:
36,162,22074,1,0,0:0:0:0:
55,206,22160,1,0,0:0:0:0:
81,80,22331,5,0,0:0:0:0:
47,117,22417,1,0,0:0:0:0:
113,152,22502,1,8,0:0:0:0:
168,100,22674,5,0,0:0:0:0:
130,74,22760,1,0,0:0:0:0:
81,81,22845,1,0,0:0:0:0:
55,206,23017,5,0,0:0:0:0:
95,227,23102,1,0,0:0:0:0:
145,226,23188,1,0,0:0:0:0:
361,156,23360,5,0,0:0:0:0:
361,156,23445,1,0,0:0:0:0:
322,224,23531,2,0,P|294:196|282:140,1,70,8|0,0:0|0:0,0:0:0:0:
386,132,23788,5,0,0:0:0:0:
386,132,23874,2,0,P|358:159|338:166,1,35
230,113,24045,2,0,P|223:96|220:79,1,35,8|0,0:0|0:0,0:0:0:0:
331,0,24217,2,0,P|349:2|372:11,1,38.5000011749268
154,148,24388,5,2,0:0:0:0:
157,174,24474,1,0,0:0:0:0:
154,148,24560,1,0,0:0:0:0:
71,129,24731,5,2,0:0:0:0:
63,149,24817,1,0,0:0:0:0:
71,129,24903,1,0,0:0:0:0:
14,73,25074,5,2,0:0:0:0:
0,84,25160,1,0,0:0:0:0:
14,73,25246,1,0,0:0:0:0:
93,185,25417,6,0,P|110:199|121:242,1,52.5000020027161,8|0,0:2|0:2,0:0:0:0:
91,347,25588,2,0,P|96:318|123:288,1,52.5000020027161,0|0,0:2|0:2,0:0:0:0:
273,287,25760,5,0,0:2:0:0:
248,261,25845,1,0,0:2:0:0:
183,272,25931,2,0,P|201:261|224:258,1,35,10|0,0:2|0:0,0:0:0:0:
335,245,26102,2,0,P|350:270|352:296,1,52.5000020027161,0|0,0:2|0:2,0:0:0:0:
335,245,26274,6,0,P|397:246|445:356,1,157.500006008148,2|0,3:2|0:2,0:0:0:0:
261,336,26617,2,0,P|262:310|273:286,1,52.5000020027161,10|0,0:2|0:0,0:0:0:0:
335,245,26788,1,0,0:2:0:0:
261,336,26960,1,2,0:2:0:0:
427,179,27131,5,0,0:2:0:0:
452,109,27217,1,0,0:2:0:0:
410,45,27302,2,0,P|365:26|300:49,1,105.000004005432,0|2,3:2|0:2,0:0:0:0:
415,268,27560,1,0,0:0:0:0:
459,261,27645,2,0,P|500:221|509:156,1,105.000004005432,10|0,0:2|0:2,0:0:0:0:
236,161,27902,1,0,0:2:0:0:
226,202,27988,2,0,P|238:252|279:288,1,105.000004005432,2|10,0:2|0:2,0:0:0:0:
386,368,28245,5,0,0:2:0:0:
369,318,28331,2,0,P|301:283|247:302,1,105.000004005432,2|0,0:2|0:2,0:0:0:0:
48,360,28588,1,0,0:2:0:0:
91,369,28674,2,0,P|121:362|143:345,1,52.5000020027161,10|0,0:2|0:0,0:0:0:0:
101,207,28845,1,0,0:2:0:0:
76,242,28931,1,0,0:0:0:0:
77,287,29017,1,2,0:2:0:0:
283,230,29188,5,0,0:2:0:0:
362,219,29274,1,0,0:2:0:0:
412,274,29360,2,0,P|414:303|371:374,1,112,0|10,3:2|0:2,0:0:0:0:
206,246,29617,1,0,0:0:0:0:
170,207,29702,2,0,P|158:154|182:99,1,112,2|0,0:2|0:2,0:0:0:0:
350,139,29960,1,0,0:2:0:0:
305,76,30045,2,0,P|277:64|236:74,1,56,8|0,0:2|0:2,0:0:0:0:
285,259,30217,5,8,0:2:0:0:
259,304,30302,1,0,0:2:0:0:
215,328,30388,2,0,P|188:327|161:317,1,56,2|0,3:2|0:0,0:0:0:0:
75,216,30560,1,0,0:2:0:0:
122,198,30645,1,0,0:2:0:0:
170,207,30731,1,10,0:2:0:0:
450,212,30902,5,2,0:2:0:0:
429,254,30988,1,0,0:2:0:0:
388,281,31074,2,0,P|326:283|283:248,1,112,2|8,0:2|0:2,0:0:0:0:
280,84,31331,1,0,0:0:0:0:
326,106,31417,2,0,P|360:159|351:216,1,112,2|0,3:2|0:2,0:0:0:0:
221,296,31674,1,0,0:2:0:0:
205,245,31760,2,0,P|235:189|293:171,1,112,10|2,0:2|0:2,0:0:0:0:
434,215,32017,5,0,0:2:0:0:
473,251,32102,2,0,L|443:363,1,112,2|8,0:2|0:2,0:0:0:0:
130,384,32360,1,0,0:2:0:0:
95,350,32445,2,0,L|121:238,1,112,2|0,3:2|0:2,0:0:0:0:
141,39,32702,5,0,0:2:0:0:
173,73,32788,2,0,L|180:137,1,56,10|0,3:2|0:2,0:0:0:0:
257,139,32960,1,0,0:2:0:0:
237,185,33045,1,0,0:2:0:0:
194,210,33131,1,2,3:2:0:0:
41,116,33302,5,10,0:2:0:0:
20,128,33388,1,2,0:2:0:0:
0,170,33474,1,6,0:2:0:0:
12,215,33560,1,2,0:2:0:0:
44,261,33645,1,2,0:2:0:0:
48,325,33731,1,2,0:2:0:0:
0,360,33817,5,10,0:2:0:0:
48,325,33902,1,2,0:2:0:0:
105,340,33988,1,2,0:2:0:0:
152,303,34074,1,2,0:2:0:0:
210,305,34160,5,14,0:2:0:0:
233,291,34245,1,0,0:0:0:0:
248,293,34331,1,0,0:0:0:0:
256,299,34417,1,0,0:2:0:0:
320,349,34502,5,4,3:2:0:0:
330,333,34588,1,0,0:2:0:0:
335,315,34674,1,0,0:2:0:0:
335,296,34760,1,0,0:2:0:0:
320,349,34845,5,10,0:2:0:0:
335,315,34931,1,0,0:2:0:0:
369,290,35017,1,2,0:2:0:0:
410,289,35102,1,0,0:2:0:0:
425,271,35188,5,2,0:2:0:0:
426,254,35274,1,0,0:2:0:0:
423,244,35360,1,2,0:2:0:0:
420,239,35445,1,0,0:2:0:0:
347,206,35531,5,0,3:2:0:0:
328,205,35617,1,0,0:2:0:0:
310,209,35702,1,0,0:2:0:0:
294,219,35788,1,0,0:2:0:0:
347,206,35874,5,10,0:2:0:0:
310,210,35960,1,0,0:2:0:0:
271,193,36045,1,2,0:2:0:0:
250,158,36131,1,0,0:2:0:0:
223,130,36217,6,0,B|190:117|160:135,1,56,2|0,0:2|0:2,0:0:0:0:
163,251,36388,2,0,B|190:228|190:193,1,56,10|0,0:2|0:2,0:0:0:0:
112,66,36560,5,0,3:2:0:0:
96,55,36645,1,0,0:2:0:0:
78,50,36731,1,0,0:2:0:0:
59,50,36817,1,0,0:2:0:0:
116,70,36902,5,10,0:2:0:0:
151,89,36988,1,0,0:2:0:0:
193,85,37074,1,2,0:2:0:0:
224,63,37160,1,0,0:2:0:0:
248,53,37245,5,2,0:2:0:0:
265,52,37331,1,0,0:2:0:0:
275,55,37417,1,2,0:2:0:0:
280,58,37502,1,0,0:2:0:0:
364,70,37588,5,0,3:2:0:0:
367,50,37674,1,0,0:2:0:0:
362,32,37760,1,8,0:2:0:0:
353,16,37845,1,0,0:2:0:0:
364,75,37931,5,2,0:2:0:0:
365,115,38017,1,0,0:2:0:0:
389,148,38102,1,0,0:2:0:0:
424,165,38188,1,0,0:2:0:0:
463,165,38274,6,0,P|486:156|516:117,1,56,2|2,0:2|0:2,0:0:0:0:
389,190,38445,1,10,0:2:0:0:
358,259,38531,1,2,0:2:0:0:
395,328,38617,5,2,3:2:0:0:
379,337,38702,1,0,0:2:0:0:
361,342,38788,1,0,0:2:0:0:
341,339,38874,1,0,0:0:0:0:
291,317,38960,5,10,0:2:0:0:
316,306,39045,1,0,0:2:0:0:
344,304,39131,1,2,0:2:0:0:
371,312,39217,1,0,0:2:0:0:
395,328,39302,5,2,0:2:0:0:
412,329,39388,1,0,0:2:0:0:
422,326,39474,1,2,0:2:0:0:
427,323,39560,1,0,0:2:0:0:
484,270,39645,5,0,3:2:0:0:
475,254,39731,1,0,0:2:0:0:
470,236,39817,1,0,0:2:0:0:
473,216,39902,1,0,0:2:0:0:
495,166,39988,5,10,0:2:0:0:
505,191,40074,1,0,0:2:0:0:
507,219,40160,1,2,0:2:0:0:
499,246,40245,1,0,0:2:0:0:
484,270,40331,6,0,P|444:289|409:284,1,56,2|0,0:2|0:2,0:0:0:0:
382,176,40502,2,0,P|418:201|431:233,1,56,10|0,0:2|0:2,0:0:0:0:
315,215,40674,5,0,3:2:0:0:
306,199,40760,1,0,0:2:0:0:
301,181,40845,1,0,0:2:0:0:
304,161,40931,1,0,0:2:0:0:
313,125,41017,5,10,0:2:0:0:
323,150,41102,1,0,0:2:0:0:
325,178,41188,1,0,0:2:0:0:
317,205,41274,1,0,0:2:0:0:
281,237,41360,5,2,0:2:0:0:
233,283,41445,1,2,0:2:0:0:
230,353,41531,1,2,0:2:0:0:
293,384,41617,1,2,0:2:0:0:
369,366,41702,6,0,P|394:358|432:316,1,70,2|0,3:2|0:2,0:0:0:0:
313,125,41874,2,0,P|293:108|247:99,1,70,10|0,0:2|0:2,0:0:0:0:
113,296,42045,2,0,P|107:322|121:365,1,70,2|0,0:2|0:2,0:0:0:0:
398,29,42217,5,2,0:2:0:0:
430,89,42302,1,2,0:2:0:0:
390,143,42388,5,10,0:2:0:0:
413,188,42474,1,0,0:2:0:0:
379,223,42560,5,10,0:2:0:0:
397,259,42645,1,0,0:2:0:0:
388,330,42731,5,4,3:2:0:0:
368,325,42817,1,0,0:2:0:0:
352,316,42902,1,0,0:2:0:0:
338,303,42988,1,0,0:2:0:0:
388,330,43074,5,10,0:2:0:0:
352,316,43160,1,0,0:2:0:0:
310,322,43245,1,2,0:2:0:0:
280,351,43331,1,0,0:2:0:0:
257,349,43417,5,2,0:2:0:0:
244,337,43502,1,0,0:2:0:0:
239,328,43588,1,2,0:2:0:0:
238,322,43674,1,0,0:2:0:0:
267,252,43760,5,0,3:2:0:0:
247,246,43845,1,0,0:2:0:0:
229,245,43931,1,0,0:2:0:0:
211,250,44017,1,0,0:2:0:0:
267,252,44102,5,10,0:2:0:0:
229,246,44188,1,0,0:2:0:0:
195,220,44274,1,2,0:2:0:0:
184,180,44360,1,0,0:2:0:0:
167,146,44445,6,0,B|137:124|103:134,1,56,2|0,0:2|0:2,0:0:0:0:
77,247,44617,2,0,B|108:231|117:197,1,56,10|0,0:2|0:2,0:0:0:0:
84,67,44788,5,0,3:2:0:0:
79,48,44874,1,0,0:2:0:0:
79,29,44960,1,0,0:2:0:0:
84,11,45045,1,0,0:2:0:0:
88,71,45131,5,10,0:2:0:0:
98,110,45217,1,0,0:2:0:0:
84,149,45302,1,2,0:2:0:0:
52,173,45388,1,0,0:2:0:0:
38,194,45474,5,2,0:2:0:0:
33,211,45560,1,0,0:2:0:0:
33,221,45645,1,2,0:2:0:0:
34,226,45731,1,0,0:2:0:0:
95,269,45817,5,0,3:2:0:0:
83,285,45902,1,0,0:2:0:0:
67,294,45988,1,8,0:2:0:0:
49,299,46074,1,0,0:2:0:0:
99,265,46160,5,2,0:2:0:0:
128,238,46245,1,0,0:2:0:0:
168,231,46331,1,0,0:2:0:0:
205,244,46417,1,0,0:2:0:0:
233,272,46502,6,0,P|242:294|236:343,1,56,2|2,0:2|0:2,0:0:0:0:
198,202,46674,1,10,0:2:0:0:
225,131,46760,1,2,0:2:0:0:
273,71,46845,5,2,3:2:0:0:
257,62,46931,1,0,0:2:0:0:
239,57,47017,1,0,0:2:0:0:
219,60,47102,1,0,0:2:0:0:
169,82,47188,5,10,0:2:0:0:
194,93,47274,1,0,0:2:0:0:
222,95,47360,1,2,0:2:0:0:
249,87,47445,1,0,0:2:0:0:
273,71,47531,5,2,0:2:0:0:
290,70,47617,1,0,0:2:0:0:
300,73,47702,1,2,0:2:0:0:
305,76,47788,1,0,0:2:0:0:
330,148,47874,5,2,3:2:0:0:
321,164,47960,1,0,0:2:0:0:
316,182,48045,1,0,0:2:0:0:
319,202,48131,1,0,0:2:0:0:
341,252,48217,5,10,0:2:0:0:
351,227,48302,1,0,0:2:0:0:
353,199,48388,1,2,0:2:0:0:
345,172,48474,1,0,0:2:0:0:
330,148,48560,6,0,P|290:129|255:134,1,56,2|0,0:2|0:2,0:0:0:0:
228,242,48731,2,0,P|264:217|277:185,1,56,10|0,0:2|0:2,0:0:0:0:
200,171,48902,5,2,3:2:0:0:
184,162,48988,1,0,0:2:0:0:
166,157,49074,1,0,0:2:0:0:
146,160,49160,1,0,0:2:0:0:
110,169,49245,5,10,0:2:0:0:
135,179,49331,1,0,0:2:0:0:
163,181,49417,1,0,0:2:0:0:
190,173,49502,1,0,0:2:0:0:
218,103,49588,5,2,0:2:0:0:
190,63,49674,1,0,0:2:0:0:
129,39,49760,1,8,0:2:0:0:
61,61,49845,1,0,0:2:0:0:
16,140,49931,5,6,0:0:0:0:
29,225,50017,1,2,0:0:0:0:
85,284,50102,1,2,0:0:0:0:
159,302,50188,1,2,0:0:0:0:
227,273,50274,1,10,0:0:0:0:
262,211,50360,1,2,0:0:0:0:
261,141,50445,2,0,P|248:112|205:90,1,56,0|2,0:2|0:2,0:0:0:0:
279,343,50617,5,2,0:2:0:0:
360,372,50702,1,0,0:2:0:0:
435,331,50788,1,8,0:2:0:0:
455,246,50874,1,8,0:2:0:0:
412,173,50960,1,6,0:2:0:0:
270,187,51817,6,0,P|282:211|278:252,1,56,0|0,0:2|0:2,0:0:0:0:
237,308,51988,2,0,P|267:281|386:272,2,140,2|2|2,0:2|0:2|0:2,0:0:0:0:
84,292,53017,6,0,P|109:285|140:293,1,52.5000020027161,2|0,0:2|0:0,0:0:0:0:
237,308,53360,2,0,P|227:283|208:265,1,52.5000020027161,0|0,0:2|0:2,0:0:0:0:
134,290,53702,1,2,0:2:0:0:
49,260,53874,1,0,0:2:0:0:
14,155,54045,1,2,0:2:0:0:
228,192,54731,6,0,P|257:201|284:195,1,52.5000020027161,0|0,0:2|0:2,0:0:0:0:
352,96,55074,2,0,P|340:146|362:192,2,105.000004005432,2|0|0,0:2|0:2|0:2,0:0:0:0:
259,123,56102,2,0,P|215:72|172:66,2,105.000004005432,2|2|2,0:2|0:2|0:2,0:0:0:0:
251,214,57131,6,0,P|288:201|310:203,1,52.5000020027161,2|0,0:2|0:0,0:0:0:0:
367,308,57474,2,0,P|352:286|331:272,1,52.5000020027161,0|0,0:2|0:2,0:0:0:0:
251,214,57817,1,2,0:2:0:0:
239,105,57988,1,0,0:2:0:0:
329,5,58160,5,2,0:2:0:0:
239,105,58331,1,0,0:2:0:0:
251,214,58502,1,0,0:2:0:0:
331,272,58674,1,0,0:2:0:0:
420,191,58845,6,0,P|394:192|369:201,1,52.5000020027161,2|0,0:2|0:2,0:0:0:0:
411,268,59188,1,2,0:2:0:0:
276,312,60045,6,0,P|265:293|256:285,1,26.2500010013581,2|0,0:2|0:2,0:0:0:0:
188,259,60217,2,0,P|250:251|282:214,1,105.000004005432,2|2,0:2|0:2,0:0:0:0:
188,259,60902,1,2,0:2:0:0:
117,86,61245,2,0,P|123:148|178:184,1,121.800001022186,2|0,0:2|0:0,0:0:0:0:
337,267,61931,5,2,0:2:0:0:
460,286,62102,1,0,0:2:0:0:
250,314,62274,5,2,0:2:0:0:
355,297,62445,1,0,0:2:0:0:
160,258,62617,5,0,0:2:0:0:
253,277,62788,1,0,0:2:0:0:
73,305,62960,5,2,0:2:0:0:
157,294,63131,1,0,0:2:0:0:
26,233,63302,6,0,P|-7:282|0:341,2,121.800001022186,2|2|2,0:2|0:2|0:2,0:0:0:0:
174,186,64331,2,0,P|124:151|64:158,2,121.800001022186,2|2|2,0:2|0:2|0:2,0:0:0:0:
164,244,65360,6,0,P|165:204|180:178,1,60.9000005110931,2|0,0:2|0:0,0:0:0:0:
290,214,65702,5,0,0:2:0:0:
254,209,65874,1,0,0:2:0:0:
233,124,66045,5,2,0:2:0:0:
216,38,66217,1,0,0:2:0:0:
146,140,66388,5,2,0:2:0:0:
166,99,66560,1,0,0:2:0:0:
298,56,66731,5,0,0:2:0:0:
313,90,66902,1,0,0:2:0:0:
61,237,67074,5,2,0:2:0:0:
30,241,67160,1,0,0:2:0:0:
3,270,67245,1,0,0:2:0:0:
0,320,67331,1,0,0:2:0:0:
50,369,67417,2,0,B|98:403|152:365|152:365|201:332|255:361,1,210.000008010865,6|10,3:2|0:2,0:0:0:0:
452,281,68274,5,0,0:2:0:0:
404,272,68360,1,0,0:2:0:0:
364,293,68445,2,0,B|284:338|279:245|194:297,1,178.500003404617,6|2,3:2|3:2,0:0:0:0:
326,383,69131,5,10,0:2:0:0:
326,228,69302,1,2,0:2:0:0:
195,296,69474,2,0,B|111:217|160:132|259:157|240:228,1,238.00000453949,6|10,3:2|0:2,0:0:0:0:
241,102,70331,5,0,0:2:0:0:
274,118,70417,1,0,0:2:0:0:
301,148,70502,2,0,P|320:206|308:262,2,119.000002269745,6|2|10,3:2|0:2|0:2,0:0:0:0:
135,306,71531,6,0,B|250:382|250:249|357:314,1,238.00000453949,6|8,3:2|0:2,0:0:0:0:
198,248,72388,5,2,0:2:0:0:
166,220,72474,1,0,0:2:0:0:
153,178,72560,2,0,P|181:119|241:105,2,119.000002269745,6|2|10,3:2|0:2|0:2,0:0:0:0:
405,381,73588,6,0,P|375:232|278:339,1,357.000006809235,6|6,3:2|3:2,0:0:0:0:
356,312,74960,1,0,0:2:0:0:
133,250,75131,5,2,3:2:0:0:
282,172,75302,1,10,0:2:0:0:
275,329,75474,1,2,0:2:0:0:
81,185,75645,6,0,P|152:170|214:231,1,157.500006008148,6|0,3:2|0:0,0:0:0:0:
212,223,75988,1,10,0:2:0:0:
186,97,76331,1,2,0:2:0:0:
131,259,76502,5,0,0:2:0:0:
136,308,76588,1,0,0:2:0:0:
142,357,76674,1,6,3:2:0:0:
277,321,76845,2,0,L|208:311,1,52.5000020027161,8|0,0:2|0:0,0:0:0:0:
37,263,77017,1,2,0:2:0:0:
229,216,77188,1,0,3:2:0:0:
229,216,77274,1,0,0:2:0:0:
229,216,77360,1,10,0:2:0:0:
142,357,77531,1,2,0:2:0:0:
139,160,77702,5,6,3:2:0:0:
280,166,77874,1,0,0:2:0:0:
280,166,77960,1,0,0:0:0:0:
280,166,78045,2,0,L|349:156,1,52.5000020027161,10|0,0:2|0:0,0:0:0:0:
471,102,78217,1,0,0:2:0:0:
471,102,78302,1,0,0:0:0:0:
471,102,78388,2,0,L|402:92,1,52.5000020027161,2|0,0:2|0:0,0:0:0:0:
448,230,78560,5,0,0:2:0:0:
409,242,78645,1,0,0:2:0:0:
368,251,78731,2,0,L|302:264,1,52.5000020027161,6|0,3:2|0:2,0:0:0:0:
74,165,78902,5,8,0:2:0:0:
74,165,78988,1,0,0:2:0:0:
74,165,79074,1,0,0:0:0:0:
95,204,79160,1,0,0:0:0:0:
144,232,79245,1,0,0:0:0:0:
204,220,79331,1,0,0:0:0:0:
266,171,79417,5,10,0:0:0:0:
343,165,79502,1,2,0:0:0:0:
405,202,79588,1,10,0:0:0:0:
425,270,79674,1,2,0:0:0:0:
393,346,79760,5,6,3:2:0:0:
393,346,79845,1,0,0:0:0:0:
393,346,79931,1,0,0:2:0:0:
105,89,80102,5,10,0:2:0:0:
135,52,80188,1,0,0:0:0:0:
180,44,80274,1,0,0:2:0:0:
317,133,80445,5,2,0:2:0:0:
285,151,80531,1,0,0:0:0:0:
239,156,80617,1,8,0:2:0:0:
180,119,80702,1,0,0:2:0:0:
180,44,80788,1,6,3:2:0:0:
309,281,80960,5,0,0:2:0:0:
309,281,81045,1,0,0:0:0:0:
309,281,81131,1,10,0:2:0:0:
303,259,81217,1,0,0:0:0:0:
311,233,81302,1,0,3:2:0:0:
329,222,81388,1,0,0:0:0:0:
382,203,81474,1,2,0:2:0:0:
427,181,81560,1,0,0:0:0:0:
453,134,81645,1,8,0:2:0:0:
433,62,81731,1,0,0:2:0:0:
361,26,81817,1,12,3:2:0:0:
6,17,81988,5,2,3:2:0:0:
19,85,82074,1,0,0:2:0:0:
34,153,82160,2,0,L|37:169,1,14,10|0,3:2|0:2,0:0:0:0:
108,341,82331,5,2,3:2:0:0:
102,307,82417,1,0,0:2:0:0:
114,263,82502,2,0,P|117:257|123:253,1,14
221,61,82674,5,0,3:2:0:0:
299,67,82760,1,0,0:2:0:0:
364,114,82845,2,0,P|385:148|387:195,1,80.5000015354157,14|0,3:2|0:2,0:0:0:0:
300,232,83017,5,0,0:2:0:0:
271,198,83102,1,0,0:2:0:0:
264,256,83188,5,0,0:2:0:0:
256,208,83274,1,0,0:2:0:0:
224,252,83360,5,0,0:2:0:0:
244,216,83445,1,0,0:2:0:0:
194,221,83531,5,10,0:2:0:0:
230,207,83617,1,0,0:2:0:0:
195,177,83702,5,10,0:2:0:0:
221,192,83788,1,0,0:2:0:0:
224,143,83874,5,6,0:2:0:0:
256,192,83960,12,0,87302,0:0:0:0:
64,311,87474,5,2,0:2:0:0:
71,329,87560,1,0,0:2:0:0:
76,345,87645,5,2,0:2:0:0:
144,381,87731,1,0,0:2:0:0:
210,344,87817,5,2,0:2:0:0:
276,384,87902,1,0,0:2:0:0:
347,351,87988,6,0,P|386:320|515:367,1,175,6|0,3:2|0:2,0:0:0:0:
382,244,88245,1,8,0:2:0:0:
306,217,88331,2,0,P|289:148|320:92,1,87.5,2|0,0:2|0:0,0:0:0:0:
414,96,88502,5,8,0:2:0:0:
414,96,88588,1,0,0:2:0:0:
374,163,88674,2,0,B|256:128|272:240|128:192,1,245.000002336502,2|8,0:2|0:2,0:0:0:0:
449,21,88931,5,0,0:2:0:0:
490,89,89017,2,0,B|513:75|526:54|526:54|499:214,1,175,6|0,3:2|0:2,0:0:0:0:
191,102,89274,1,8,0:2:0:0:
230,37,89360,2,0,P|299:19|355:50,1,87.5,2|0,0:2|0:0,0:0:0:0:
374,384,89531,5,8,0:2:0:0:
383,315,89617,1,0,0:2:0:0:
394,246,89702,2,0,B|414:112,1,122.500001168251,2|0,0:2|0:0,0:0:0:0:
503,2,89874,2,0,L|489:89,1,87.5,10|0,0:2|0:2,0:0:0:0:
313,247,90045,6,0,B|237:202|234:291|149:239,1,175,6|0,3:2|0:2,0:0:0:0:
34,47,90302,1,8,0:2:0:0:
110,75,90388,2,0,P|127:144|108:183,1,87.5,2|0,0:2|0:2,0:0:0:0:
0,272,90560,2,0,P|42:229|112:228,1,87.5,10|0,0:2|0:2,0:0:0:0:
394,246,90731,6,0,L|414:109,1,122.500001168251,2|0,0:2|0:2,0:0:0:0:
293,30,90902,2,0,L|311:144,1,87.5,10|0,0:2|0:2,0:0:0:0:
418,334,91074,6,0,B|341:297|341:375|250:331,1,175,6|0,3:2|0:2,0:0:0:0:
159,168,91331,1,8,0:2:0:0:
223,117,91417,2,0,P|288:108|335:150,1,87.5,0|0,0:0|0:0,0:0:0:0:
339,193,91588,1,8,0:0:0:0:
340,212,91674,1,0,0:0:0:0:
342,230,91760,5,10,0:2:0:0:
278,269,91845,1,8,0:2:0:0:
210,237,91931,5,8,0:2:0:0:
141,271,92017,1,8,0:2:0:0:
71,235,92102,6,0,B|45:224|35:200|35:200|57:357,1,175,6|0,3:2|0:2,0:0:0:0:
203,384,92360,1,8,0:2:0:0:
277,353,92445,2,0,P|294:284|263:228,1,87.5,2|0,0:2|0:0,0:0:0:0:
141,271,92617,5,8,0:2:0:0:
141,271,92702,1,0,0:2:0:0:
213,299,92788,2,0,B|329:232|327:362|448:299,1,245.000002336502,2|8,0:2|0:2,0:0:0:0:
327,93,93045,5,0,0:2:0:0:
255,111,93131,2,0,B|229:100|219:76|219:76|246:262,1,175,6|0,3:2|0:2,0:0:0:0:
490,245,93388,1,8,0:2:0:0:
496,170,93474,2,0,P|445:120|381:119,1,87.5,2|0,0:2|0:0,0:0:0:0:
120,46,93645,5,8,0:2:0:0:
131,115,93731,1,0,0:2:0:0:
143,185,93817,2,0,B|168:324,1,122.500001168251,2|0,0:2|0:0,0:0:0:0:
262,384,93988,2,0,L|248:297,1,87.5,10|0,0:2|0:2,0:0:0:0:
219,89,94160,6,0,P|305:58|356:89,1,87.5,4|0,3:2|0:2,0:0:0:0:
471,250,94331,1,0,0:2:0:0:
386,275,94417,1,8,0:2:0:0:
307,237,94502,2,0,P|290:168|321:112,1,87.5,2|0,0:2|0:2,0:0:0:0:
387,25,94674,2,0,P|370:114|318:143,1,87.5,10|0,0:2|0:2,0:0:0:0:
113,43,94845,2,0,P|198:64|231:119,1,122.500001168251,2|0,0:2|0:2,0:0:0:0:
64,269,95017,2,0,P|113:196|175:183,1,122.500001168251,10|0,0:2|0:2,0:0:0:0:
199,331,95188,5,6,3:2:0:0:
223,352,95274,1,0,0:0:0:0:
267,369,95360,1,10,0:2:0:0:
324,362,95445,1,0,0:0:0:0:
377,314,95531,1,2,0:2:0:0:
411,241,95617,1,0,0:0:0:0:
393,163,95702,1,10,0:2:0:0:
330,114,95788,1,2,0:2:0:0:
253,108,95874,1,2,0:2:0:0:
234,35,95960,1,0,0:0:0:0:
303,0,96045,2,0,P|357:46|317:122,1,122.500001168251,10|0,0:2|0:0,0:0:0:0:
136,142,96217,6,0,P|204:195|305:155,1,175,6|0,3:2|0:2,0:0:0:0:
146,63,96474,1,8,0:2:0:0:
73,90,96560,2,0,P|56:129|59:173,1,87.5,2|0,0:2|0:0,0:0:0:0:
391,249,96731,5,8,0:2:0:0:
391,249,96817,1,0,0:2:0:0:
411,169,96902,2,0,P|366:96|190:186,1,245.000002336502,2|8,0:2|0:2,0:0:0:0:
138,341,97160,5,0,0:2:0:0:
56,331,97245,2,0,P|0:253|36:147,1,175,6|0,3:2|0:2,0:0:0:0:
81,22,97502,1,8,0:2:0:0:
145,64,97588,2,0,P|152:116|119:174,1,87.5,2|0,0:2|0:0,0:0:0:0:
56,331,97760,5,8,0:2:0:0:
126,319,97845,1,0,0:2:0:0:
196,305,97931,2,0,B|336:275,1,129.499999505997,2|0,0:2|0:0,0:0:0:0:
471,237,98102,2,0,L|380:215,1,94.5000003604889,10|8,0:2|0:2,0:0:0:0:
8,135,98274,6,0,B|84:179|87:90|172:143,1,175,6|0,3:2|0:2,0:0:0:0:
264,329,98531,1,10,0:2:0:0:
196,305,98617,2,0,P|179:236|210:180,1,87.5,2|0,0:2|0:2,0:0:0:0:
325,143,98788,2,0,P|283:173|202:161,1,87.5,10|0,0:2|0:2,0:0:0:0:
99,47,98960,6,0,B|84:19|84:19|65:142,1,122.500001168251,2|0,0:2|0:2,0:0:0:0:
30,274,99131,2,0,B|52:303|52:303|71:180,1,122.500001168251,10|0,0:2|0:2,0:0:0:0:
448,231,99302,6,0,P|494:286|487:387,1,175,6|0,3:2|0:2,0:0:0:0:
368,210,99560,1,8,0:2:0:0:
422,154,99645,2,0,P|476:155|521:203,1,87.5
348,134,99817,5,8,0:0:0:0:
338,122,99902,1,0,0:0:0:0:
328,106,99988,5,10,0:2:0:0:
264,67,100074,1,8,0:2:0:0:
196,99,100160,5,8,0:2:0:0:
127,65,100245,1,8,0:2:0:0:
59,107,100331,6,0,B|37:108|16:72|16:72|42:228,1,175,6|0,3:2|0:0,0:0:0:0:
295,241,100588,1,0,0:0:0:0:
238,185,100674,2,0,B|195:161|125:191,1,87.5,10|0,0:0|0:2,0:0:0:0:
512,267,100845,5,0,0:0:0:0:
512,267,100931,1,0,0:0:0:0:
470,196,101017,2,0,B|355:134|354:253|238:185,1,245.000002336502,10|2,0:2|0:2,0:0:0:0:
87,323,101274,5,0,0:2:0:0:
155,366,101360,2,0,P|267:346|297:263,1,175,14|0,3:2|0:0,0:0:0:0:
272,106,101617,1,0,0:0:0:0:
189,106,101702,2,0,P|153:165|157:207,1,87.5,10|0,0:0|0:0,0:0:0:0:
470,196,101874,5,0,0:0:0:0:
512,134,101960,1,0,0:0:0:0:
501,61,102045,2,0,P|467:18|398:0,1,122.500001168251,10|0,0:0|0:0,0:0:0:0:
183,0,102217,5,2,0:0:0:0:
172,75,102302,1,0,0:0:0:0:
161,151,102388,2,0,L|146:258,1,87.5,14|2,3:2|0:0,0:0:0:0:
38,129,102560,5,2,0:0:0:0:
56,210,102645,1,2,0:0:0:0:
71,293,102731,2,0,L|96:407,1,87.5,14|2,0:0|0:0,0:0:0:0:
288,219,102902,5,2,0:0:0:0:
288,219,102988,1,2,0:0:0:0:
288,219,103074,1,14,0:0:0:0:
286,164,103160,1,2,0:0:0:0:
318,113,103245,1,2,0:0:0:0:
381,97,103331,1,2,0:0:0:0:
446,123,103417,2,0,P|480:114|514:68,1,87.5,12|0,3:2|0:0,0:0:0:0:
396,339,103588,1,0,0:2:0:0:
396,339,103674,1,0,0:0:0:0:
396,339,103760,2,0,P|415:368|470:384,1,87.5,10|0,0:0|0:0,0:0:0:0:
391,205,103931,5,2,0:0:0:0:
369,240,104017,1,0,0:0:0:0:
324,256,104102,1,10,0:0:0:0:
272,240,104188,1,10,0:0:0:0:
219,204,104274,1,10,0:0:0:0:
148,214,104360,1,10,0:0:0:0:
96,270,104445,2,0,P|92:319|123:375,1,105.000004005432,6|0,3:2|0:0,0:0:0:0:
242,346,104702,5,0,0:0:0:0:
242,346,104788,2,0,L|305:337,3,52.5000020027161,10|0|2|0,0:0|0:0|0:0|0:0,0:0:0:0:
356,280,105131,1,2,0:0:0:0:
343,237,105217,1,0,0:0:0:0:
305,203,105302,1,10,0:0:0:0:
252,189,105388,1,0,0:0:0:0:
178,213,105474,2,0,P|206:251|252:263,1,70,2|0,3:2|0:0,0:0:0:0:
204,66,105645,5,0,0:0:0:0:
204,66,105731,1,0,0:0:0:0:
204,66,105817,2,0,P|186:94|179:129,1,70,10|0,0:0|0:0,0:0:0:0:
391,95,105988,1,0,0:0:0:0:
374,60,106074,1,0,0:0:0:0:
342,34,106160,2,0,P|306:35|277:56,1,70,2|2,0:0|0:0,0:0:0:0:
443,139,106331,2,0,P|422:110|389:95,1,70,10|2,0:0|0:0,0:0:0:0:
94,293,106502,6,0,P|136:270|200:293,1,105.000004005432,6|0,3:2|0:0,0:0:0:0:
293,338,106760,1,0,0:0:0:0:
293,338,106845,2,0,L|376:326,3,52.5000020027161,10|0|2|0,0:0|0:0|0:0|0:0,0:0:0:0:
417,270,107188,1,2,0:0:0:0:
417,270,107274,1,0,0:0:0:0:
471,210,107360,1,10,0:0:0:0:
481,246,107445,1,0,0:0:0:0:
492,284,107531,2,0,L|516:364,1,70,2|0,3:2|0:0,0:0:0:0:
256,258,107702,6,0,L|268:190,1,70,8|0,0:0|0:0,0:0:0:0:
286,112,107874,2,0,L|302:33,1,70,2|0,0:2|0:0,0:0:0:0:
101,144,108045,5,0,0:0:0:0:
101,144,108131,1,0,0:0:0:0:
101,144,108217,1,2,0:0:0:0:
107,188,108302,1,2,0:0:0:0:
138,221,108388,1,10,0:0:0:0:
182,230,108474,1,2,0:0:0:0:
256,258,108560,6,0,P|287:201|272:153,1,105.000004005432,6|0,3:2|0:0,0:0:0:0:
231,90,108817,1,0,0:0:0:0:
231,90,108902,2,0,L|241:26,3,52.5000020027161,10|0|2|0,0:0|0:0|0:0|0:0,0:0:0:0:
322,84,109245,1,2,0:0:0:0:
374,64,109331,1,0,0:0:0:0:
430,78,109417,1,8,0:0:0:0:
470,123,109502,1,0,0:0:0:0:
481,199,109588,2,0,P|433:192|399:158,1,70,2|0,3:2|0:0,0:0:0:0:
374,64,109760,5,0,0:0:0:0:
374,64,109845,1,0,0:0:0:0:
374,64,109931,2,0,P|380:30|413:-4,1,70,10|0,0:0|0:0,0:0:0:0:
303,104,110102,1,0,0:0:0:0:
262,113,110188,1,0,0:0:0:0:
223,92,110274,2,0,P|195:57|187:23,1,70,2|2,0:0|0:0,0:0:0:0:
164,226,110445,2,0,P|119:231|86:216,1,70,10|2,0:0|0:0,0:0:0:0:
321,208,110617,6,0,P|367:193|426:220,1,105.000004005432,6|0,3:2|0:0,0:0:0:0:
460,287,110874,1,0,0:0:0:0:
460,287,110960,2,0,L|528:299,3,52.5000020027161,10|0|2|0,0:0|0:0|0:0|0:0,0:0:0:0:
371,169,111302,1,2,0:0:0:0:
305,185,111388,1,0,0:0:0:0:
258,235,111474,1,2,0:0:0:0:
257,304,111560,1,0,0:0:0:0:
297,368,111645,6,0,P|237:379|201:353,1,87.5,2|0,3:2|0:0,0:0:0:0:
138,380,111817,2,0,P|104:354|82:305,1,87.5,8|0,0:0|0:0,0:0:0:0:
124,87,111988,6,0,P|163:130|167:175,1,87.5,2|0,0:0|0:0,0:0:0:0:
204,228,112160,2,0,P|197:267|166:307,1,87.5,10|0,0:0|0:0,0:0:0:0:
281,154,112331,5,10,0:0:0:0:
316,223,112417,1,10,0:0:0:0:
387,249,112502,1,10,0:0:0:0:
453,212,112588,1,10,0:0:0:0:
482,140,112674,6,0,P|471:92|419:55,1,105.000004005432,6|0,3:2|0:0,0:0:0:0:
345,66,112931,1,0,0:0:0:0:
345,66,113017,2,0,L|328:0,3,52.5000020027161,10|0|2|0,0:0|0:0|0:0|0:0,0:0:0:0:
249,33,113360,1,2,0:0:0:0:
188,9,113445,1,2,0:0:0:0:
121,23,113531,1,10,0:0:0:0:
63,70,113617,1,0,0:0:0:0:
30,140,113702,2,0,P|60:147|105:129,1,70,0|0,3:2|0:0,0:0:0:0:
332,197,113874,5,0,0:0:0:0:
332,197,113960,1,0,0:0:0:0:
332,197,114045,2,0,P|320:166|270:129,1,70,8|0,0:0|0:0,0:0:0:0:
58,230,114217,1,0,0:0:0:0:
58,230,114302,1,0,0:0:0:0:
58,230,114388,1,2,0:0:0:0:
37,297,114474,1,2,0:0:0:0:
87,349,114560,1,10,0:0:0:0:
156,325,114645,1,2,0:0:0:0:
176,255,114731,6,0,P|221:239|281:266,1,105.000004005432,6|0,3:2|0:0,0:0:0:0:
340,333,114988,1,0,0:0:0:0:
340,333,115074,2,0,L|405:314,3,52.5000020027161,10|0|2|0,0:0|0:0|0:0|0:0,0:0:0:0:
491,167,115417,1,0,0:0:0:0:
491,167,115502,1,0,0:0:0:0:
511,250,115588,1,10,0:0:0:0:
470,243,115674,1,0,0:0:0:0:
431,234,115760,2,0,L|355:217,1,70,0|0,3:2|0:0,0:0:0:0:
89,164,115931,6,0,L|163:149,1,70,8|0,0:0|0:0,0:0:0:0:
233,130,116102,2,0,L|301:117,1,70
491,167,116274,5,0,0:0:0:0:
491,167,116360,1,0,0:0:0:0:
491,167,116445,1,2,0:0:0:0:
421,130,116531,1,2,0:0:0:0:
363,173,116617,1,10,0:0:0:0:
373,242,116702,1,2,0:0:0:0:
319,292,116788,5,6,3:2:0:0:
283,303,116874,1,0,0:0:0:0:
237,293,116960,1,10,0:0:0:0:
202,247,117045,1,0,0:0:0:0:
190,185,117131,2,0,P|158:167|125:165,3,52.5000020027161,2|2|2|2,0:0|0:0|0:0|0:0,0:0:0:0:
52,267,117474,5,8,0:0:0:0:
69,315,117560,1,0,0:0:0:0:
115,354,117645,1,0,0:0:0:0:
179,355,117731,1,0,0:0:0:0:
235,317,117817,2,0,P|250:285|248:253,1,52.5000020027161,6|0,3:2|0:0,0:0:0:0:
190,80,117988,5,10,0:0:0:0:
143,111,118074,1,0,0:0:0:0:
120,159,118160,2,0,P|112:195|116:225,1,52.5000020027161,2|2,0:0|0:0,0:0:0:0:
356,316,118331,5,2,0:0:0:0:
294,317,118417,1,2,0:0:0:0:
251,275,118502,1,10,0:0:0:0:
251,197,118588,1,0,0:0:0:0:
277,113,118674,1,0,0:0:0:0:
216,50,118760,1,0,0:0:0:0:
132,77,118845,5,6,3:2:0:0:
168,126,118931,1,0,0:0:0:0:
225,137,119017,1,10,0:0:0:0:
277,113,119102,1,0,0:0:0:0:
331,67,119188,5,2,0:0:0:0:
370,50,119274,1,0,0:0:0:0:
413,55,119360,1,0,3:1:0:0:
442,88,119445,1,0,0:0:0:0:
465,159,119531,2,0,P|457:192|438:216,1,52.5000020027161,10|2,0:0|0:0,0:0:0:0:
249,96,119702,5,0,3:0:0:0:
249,96,119788,1,2,0:0:0:0:
157,115,119874,5,14,0:0:0:0:
106,180,119960,1,2,0:0:0:0:
106,258,120045,1,2,0:0:0:0:
164,309,120131,1,2,0:0:0:0:
237,303,120217,1,2,0:0:0:0:
282,246,120302,1,2,0:0:0:0:
261,178,120388,2,0,P|234:192|213:227,1,52.5000020027161,2|2,0:0|0:0,0:0:0:0:
359,177,120560,5,10,0:0:0:0:
414,149,120645,1,0,0:0:0:0:
465,159,120731,1,10,0:0:0:0:
500,194,120817,1,0,0:0:0:0:
502,266,120902,5,0,3:1:0:0:
487,313,120988,1,0,0:0:0:0:
479,343,121074,1,0,0:0:0:0:
474,362,121160,1,0,0:0:0:0:
393,384,121245,5,6,0:0:0:0:
