osu file format v14

[General]
AudioFilename: audio.mp3
AudioLeadIn: 0
PreviewTime: 86952
Countdown: 0
SampleSet: Soft
StackLeniency: 0.5
Mode: 0
LetterboxInBreaks: 0
EpilepsyWarning: 1
WidescreenStoryboard: 1

[Editor]
Bookmarks: 18037,23523,34494,49580,50952,67409,104437
DistanceSpacing: 1.5
BeatDivisor: 4
GridSize: 16
TimelineZoom: 1.900006

[Metadata]
Title:Crystal Illusion
TitleUnicode:Crystal Illusion
Artist:P4koo
ArtistUnicode:P4koo
Creator:Riana
Version:Hard
Source:
Tags:omc#3 dailycare morinaga skymin [_-scarlet-_] scarlet [ -scarlet- ] instrumental electronic
BeatmapID:1761161
BeatmapSetID:791944

[Difficulty]
HPDrainRate:5
CircleSize:3.5
OverallDifficulty:6
ApproachRate:8
SliderMultiplier:1.3
SliderTickRate:1

[Events]
//Background and Video events
0,0,"bg.jpg",0,0
//Break Periods
2,18073,22781
//Storyboard Layer 0 (Background)
//Storyboard Layer 1 (Fail)
//Storyboard Layer 2 (Pass)
//Storyboard Layer 3 (Foreground)
//Storyboard Layer 4 (Overlay)
//Storyboard Sound Samples

[TimingPoints]
560,342.857142857143,3,2,1,40,1,0
7074,-100,3,2,1,40,0,0
7417,-100,3,2,1,40,0,0
7760,-100,3,2,1,40,0,0
8788,-100,3,2,1,40,0,0
8960,-100,3,2,1,40,0,0
9474,-100,3,2,1,40,0,0
9817,-100,3,2,1,50,0,0
9988,-100,3,2,1,50,0,0
11874,-100,3,2,1,50,0,0
12045,-100,3,2,1,50,0,0
12560,-100,3,2,1,50,0,0
13074,-100,3,2,1,50,0,0
13245,-100,3,2,1,50,0,0
14788,-100,3,2,1,50,0,0
14960,-100,3,2,1,50,0,0
15302,-100,3,2,1,50,0,0
18045,-100,3,2,1,40,0,0
18217,-100,3,2,1,40,0,0
22160,-100,3,2,1,40,0,0
22845,-100,3,2,1,40,0,0
23188,-100,3,2,1,40,0,0
23531,-100,3,2,1,40,0,0
23874,-100,3,2,1,40,0,0
24045,-100,3,2,1,40,0,0
24217,-100,3,2,1,40,0,0
24560,-100,3,2,1,40,0,0
24902,-100,3,2,1,20,0,0
24988,-100,3,2,1,40,0,0
25245,-100,3,2,1,40,0,0
25417,-100,3,2,1,40,0,0
26274,-100,3,2,1,40,0,0
26617,-100,3,2,1,40,0,0
34502,-100,3,2,2,40,0,1
34588,-100,3,2,2,35,0,1
34845,-100,3,2,2,45,0,1
35017,-100,3,2,2,60,0,1
35188,-100,3,2,2,65,0,1
35360,-100,3,2,2,70,0,1
35531,-100,3,2,2,40,0,1
35617,-100,3,2,2,35,0,1
35874,-100,3,2,2,45,0,1
36045,-100,3,2,2,60,0,1
36217,-100,3,2,2,65,0,1
36388,-100,3,2,2,70,0,1
36560,-100,3,2,2,40,0,1
36645,-100,3,2,2,35,0,1
36902,-100,3,2,2,45,0,1
37074,-100,3,2,2,60,0,1
37245,-100,3,2,2,65,0,1
37417,-100,3,2,2,70,0,1
37588,-100,3,2,2,40,0,1
37674,-100,3,2,2,35,0,1
37931,-100,3,2,2,45,0,1
38102,-100,3,2,2,60,0,1
38274,-100,3,2,2,65,0,1
38445,-100,3,2,2,70,0,1
38617,-100,3,2,2,40,0,1
38702,-100,3,2,2,35,0,1
38960,-100,3,2,2,45,0,1
39131,-100,3,2,2,60,0,1
39302,-100,3,2,2,65,0,1
39474,-100,3,2,2,70,0,1
39645,-100,3,2,2,40,0,1
39731,-100,3,2,2,35,0,1
39988,-100,3,2,2,45,0,1
40160,-100,3,2,2,60,0,1
40331,-100,3,2,2,65,0,1
40502,-100,3,2,2,70,0,1
40674,-100,3,2,2,40,0,1
40760,-100,3,2,2,35,0,1
41017,-100,3,2,2,45,0,1
41360,-100,3,2,2,60,0,1
41702,-100,3,2,2,80,0,1
42731,-100,3,2,2,40,0,1
42817,-100,3,2,2,35,0,1
43074,-100,3,2,2,45,0,1
43245,-100,3,2,2,60,0,1
43417,-100,3,2,2,65,0,1
43588,-100,3,2,2,70,0,1
43760,-100,3,2,2,40,0,1
43845,-100,3,2,2,30,0,1
44102,-100,3,2,2,45,0,1
44274,-100,3,2,2,60,0,1
44445,-100,3,2,2,65,0,1
44617,-100,3,2,2,70,0,1
44788,-100,3,2,2,40,0,1
44874,-100,3,2,2,35,0,1
45131,-100,3,2,2,45,0,1
45302,-100,3,2,2,60,0,1
45474,-100,3,2,2,65,0,1
45645,-100,3,2,2,70,0,1
45817,-100,3,2,2,40,0,1
45902,-100,3,2,2,35,0,1
46160,-100,3,2,2,45,0,1
46331,-100,3,2,2,60,0,1
46502,-100,3,2,2,65,0,1
46503,-100,3,2,2,65,0,1
46674,-100,3,2,2,70,0,1
46845,-100,3,2,2,40,0,1
46931,-100,3,2,2,35,0,1
47188,-100,3,2,2,45,0,1
47360,-100,3,2,2,60,0,1
47531,-100,3,2,2,65,0,1
47702,-100,3,2,2,70,0,1
47874,-100,3,2,2,40,0,1
47960,-100,3,2,2,35,0,1
48217,-100,3,2,2,45,0,1
48388,-100,3,2,2,60,0,1
48560,-100,3,2,2,65,0,1
48731,-100,3,2,2,70,0,1
48902,-100,3,2,2,40,0,1
48988,-100,3,2,2,35,0,1
49245,-100,3,2,2,45,0,1
49417,-100,3,2,2,60,0,1
49588,-100,3,2,2,65,0,1
49760,-100,3,2,2,70,0,1
49931,-100,3,2,2,85,0,1
50274,-100,3,2,2,80,0,1
50360,-100,3,2,2,60,0,1
50788,-100,3,2,2,60,0,1
50874,-100,3,2,2,60,0,1
50960,-100,3,2,1,40,0,0
67074,-100,3,2,1,40,0,0
67416,-100,3,2,1,40,0,0
67417,-100,3,2,1,50,0,0
67760,-100,3,2,1,50,0,0
68102,-100,3,2,1,50,0,0
68274,-100,3,2,1,50,0,0
70160,-100,3,2,1,50,0,0
70331,-100,3,2,1,50,0,0
72217,-100,3,2,1,50,0,0
72388,-100,3,2,1,50,0,0
73245,-100,3,2,1,50,0,0
73417,-100,3,2,1,50,0,0
74274,-100,3,2,1,50,0,0
74360,-100,3,2,1,50,0,0
75645,-100,3,2,1,50,0,0
75988,-100,3,2,1,50,0,0
76331,-100,3,2,1,50,0,0
76845,-100,3,2,1,50,0,0
77017,-100,3,2,1,50,0,0
77360,-100,3,2,1,50,0,0
77702,-100,3,2,1,50,0,0
78045,-100,3,2,1,50,0,0
78388,-100,3,2,1,50,0,0
78560,-100,3,2,1,50,0,0
78902,-100,3,2,1,50,0,0
78988,-100,3,2,1,50,0,0
79417,-100,3,2,1,50,0,0
79588,-100,3,2,1,50,0,0
79760,-100,3,2,1,50,0,0
79845,-100,3,2,1,50,0,0
80445,-100,3,2,1,50,0,0
80788,-100,3,2,1,50,0,0
80960,-100,3,2,1,50,0,0
81302,-100,3,2,1,50,0,0
81645,-100,3,2,1,50,0,0
81817,-100,3,2,1,60,0,0
81988,-100,3,2,1,60,0,0
82160,-100,3,2,1,60,0,0
82331,-100,3,2,1,60,0,0
82502,-100,3,2,1,60,0,0
82674,-100,3,2,1,60,0,0
82845,-100,3,2,1,60,0,0
83017,-100,3,2,1,60,0,0
83188,-100,3,2,1,60,0,0
83360,-100,3,2,1,60,0,0
83531,-100,3,2,1,60,0,0
83702,-100,3,2,1,60,0,0
83874,-100,3,2,1,60,0,0
85760,-100,3,2,1,60,0,0
86445,-100,3,2,1,60,0,0
86788,-100,3,2,1,60,0,0
86960,-100,3,2,1,60,0,0
87131,-100,3,2,1,60,0,0
87302,-100,3,2,1,50,0,0
87474,-100,3,2,1,50,0,0
87645,-100,3,2,1,50,0,0
87817,-100,3,2,1,50,0,0
87988,-100,3,2,2,70,0,1
88160,-100,3,2,2,70,0,1
91245,-100,3,2,2,70,0,1
92102,-100,3,2,2,70,0,1
95360,-100,3,2,2,70,0,1
95531,-100,3,2,2,70,0,1
95874,-100,3,2,2,70,0,1
96045,-100,3,2,2,70,0,1
96217,-100,3,2,2,70,0,1
98274,-100,3,2,2,70,0,1
99474,-100,3,2,2,70,0,1
100331,-100,3,2,2,70,0,1
100502,-100,3,2,2,70,0,1
101360,-100,3,2,2,70,0,1
101531,-100,3,2,2,70,0,1
102388,-100,3,2,2,70,0,1
102560,-100,3,2,2,70,0,1
103417,-100,3,2,2,70,0,0
104102,-100,3,2,2,40,0,0
104445,-100,3,2,2,65,0,1
104531,-100,3,2,2,55,0,1
104788,-100,3,2,2,75,0,1
105560,-100,3,2,2,55,0,1
105817,-100,3,2,2,75,0,1
106588,-100,3,2,2,55,0,1
106845,-100,3,2,2,75,0,1
107617,-100,3,2,2,55,0,1
107874,-100,3,2,2,75,0,1
108645,-100,3,2,2,55,0,1
108902,-100,3,2,2,75,0,1
110702,-100,3,2,2,55,0,1
110960,-100,3,2,2,75,0,1
111731,-100,3,2,2,55,0,1
111988,-100,3,2,2,75,0,1
112331,-100,3,2,2,50,0,1
112674,-100,3,2,2,75,0,1
112760,-100,3,2,2,55,0,1
113017,-100,3,2,2,75,0,1
113788,-100,3,2,2,55,0,1
114045,-100,3,2,2,75,0,1
114817,-100,3,2,2,55,0,1
115074,-100,3,2,2,75,0,1
115845,-100,3,2,2,55,0,1
116102,-100,3,2,2,75,0,1
116788,-100,3,2,2,65,0,1
116960,-100,3,2,2,65,0,1
117817,-100,3,2,2,75,0,1
117902,-100,3,2,2,75,0,1
118845,-100,3,2,2,85,0,1
118931,-100,3,2,2,85,0,1
119702,-100,3,2,2,85,0,1
119874,-100,3,2,2,85,0,1
119960,-100,3,2,2,85,0,1
120045,-100,3,2,2,85,0,1
120131,-100,3,2,2,85,0,1
120217,-100,3,2,2,85,0,1
120302,-100,3,2,2,85,0,1
120388,-100,3,2,2,85,0,1
120474,-100,3,2,2,85,0,1
120560,-100,3,2,2,85,0,1
120645,-100,3,2,2,85,0,1
120731,-100,3,2,2,85,0,1
120817,-100,3,2,2,85,0,1
120902,-100,3,2,2,40,0,0
121245,-100,3,2,2,95,0,0
126045,-100,3,2,2,95,0,0

[Colours]
Combo1 : 0,128,255
Combo2 : 128,255,255
Combo3 : 128,128,255

[HitObjects]
166,103,1245,6,0,L|186:161,3,32.5,0|0|0|0,0:2|0:2|0:2|0:2,0:0:0:0:
171,172,1588,1,2,0:2:0:0:
255,163,2445,5,0,0:2:0:0:
255,163,2531,1,0,0:2:0:0:
255,163,2617,2,0,L|226:293,2,130,2|2|0,0:2|0:2|0:2,0:0:0:0:
171,172,3645,6,0,P|109:192|21:102,1,195,2|0,0:2|0:2,0:0:0:0:
114,99,4331,1,2,0:2:0:0:
114,99,4502,1,0,0:2:0:0:
114,99,4674,1,2,0:2:0:0:
287,157,5360,6,0,P|324:151|361:164,1,65,0|0,0:2|0:2,0:0:0:0:
382,229,5702,2,0,L|403:92,2,130,2|0|0,0:2|0:2|0:2,0:0:0:0:
260,283,6731,1,2,0:2:0:0:
175,182,7074,1,2,0:2:0:0:
246,78,7417,1,2,0:2:0:0:
363,131,7760,6,0,P|425:151|513:61,1,195,2|0,0:2|0:2,0:0:0:0:
421,60,8445,1,2,0:2:0:0:
421,60,8617,1,0,0:2:0:0:
421,60,8788,2,0,P|474:145|441:230,1,195,2|0,0:2|0:2,0:0:0:0:
299,215,9474,6,0,L|286:168,3,32.5,2|2|2|2,0:2|0:2|0:2|0:2,0:0:0:0:
309,247,9817,2,0,P|243:220|177:253,1,130,6|10,0:0|0:2,0:0:0:0:
246,311,10331,1,2,0:2:0:0:
246,311,10502,1,0,0:0:0:0:
97,324,10674,5,0,0:0:0:0:
97,324,10760,1,0,0:0:0:0:
97,324,10845,2,0,P|144:332|178:314,1,65,2|10,0:2|0:2,0:0:0:0:
168,189,11188,2,0,P|137:226|135:264,1,65,0|2,0:2|0:2,0:0:0:0:
246,311,11531,2,0,P|229:265|196:245,1,65,2|10,0:2|0:2,0:0:0:0:
312,229,11874,6,0,P|368:239|439:180,1,130,6|10,0:2|0:2,0:0:0:0:
354,151,12388,1,2,0:2:0:0:
354,151,12474,1,0,0:2:0:0:
354,151,12560,1,2,0:2:0:0:
383,73,12731,1,0,0:2:0:0:
317,17,12902,6,0,P|274:19|240:41,1,65,0|10,0:2|0:2,0:0:0:0:
224,178,13245,2,0,P|243:139|241:99,1,65,2|0,0:2|0:2,0:0:0:0:
125,18,13588,2,0,P|148:54|184:72,1,65,10|8,0:2|0:2,0:0:0:0:
317,17,13931,6,0,P|379:30|416:82,1,130,6|10,0:0|0:2,0:0:0:0:
321,113,14445,1,0,0:2:0:0:
321,113,14617,1,2,0:2:0:0:
390,178,14788,5,8,0:0:0:0:
390,178,14874,1,0,0:2:0:0:
390,178,14960,2,0,P|384:225|358:252,1,65,6|0,0:2|0:2,0:0:0:0:
236,211,15302,2,0,P|280:191|317:199,1,65,10|0,0:2|0:2,0:0:0:0:
334,322,15645,2,0,P|294:292|284:255,1,65,2|10,0:2|0:2,0:0:0:0:
374,239,15988,6,0,P|430:245|482:322,1,130,6|10,0:2|0:2,0:0:0:0:
420,371,16502,1,2,0:2:0:0:
420,371,16588,1,0,0:2:0:0:
420,371,16674,1,2,0:2:0:0:
334,322,16845,1,10,0:2:0:0:
251,369,17017,6,0,P|215:378|168:364,1,65,2|10,0:2|0:2,0:0:0:0:
107,254,17360,2,0,P|117:218|152:184,1,65,2|2,0:2|0:2,0:0:0:0:
277,190,17702,2,0,P|302:216|314:264,1,65,10|10,0:2|0:2,0:0:0:0:
256,192,23531,12,0,24902,0:0:0:0:
257,195,25245,5,0,3:2:0:0:
332,238,25417,2,0,P|346:196|334:150,1,65,8|0,0:2|0:2,0:0:0:0:
282,114,25760,1,0,0:2:0:0:
282,114,25845,1,0,0:2:0:0:
282,114,25931,2,0,P|268:72|280:26,1,65,10|0,0:2|0:2,0:0:0:0:
180,23,26274,6,0,P|132:3|43:35,2,130,2|10|2,3:2|0:2|0:2,0:0:0:0:
117,101,27131,1,0,0:2:0:0:
117,101,27217,1,0,0:2:0:0:
117,101,27302,2,0,P|109:150|118:184,1,65,0|2,3:2|0:2,0:0:0:0:
192,194,27645,2,0,P|230:225|264:234,1,65,10|0,0:2|0:2,0:0:0:0:
310,178,27988,2,0,P|356:160|381:135,1,65,2|10,0:2|0:2,0:0:0:0:
436,83,28331,6,0,P|465:155|442:207,2,130,2|10|2,0:2|0:2|0:2,0:0:0:0:
357,49,29188,1,0,0:2:0:0:
357,49,29274,1,0,0:2:0:0:
357,49,29360,2,0,P|314:25|279:22,1,65,0|10,3:2|0:2,0:0:0:0:
226,72,29702,2,0,P|227:122|241:155,1,65,2|0,0:2|0:2,0:0:0:0:
309,173,30045,2,0,P|352:148|372:119,1,65,8|8,0:2|0:2,0:0:0:0:
435,83,30388,6,0,P|454:130|413:215,1,130,2|10,3:2|0:2,0:0:0:0:
232,235,31074,2,0,P|229:280|242:316,1,65,2|8,0:2|0:2,0:0:0:0:
324,340,31417,2,0,P|327:295|314:259,1,65,2|0,3:2|0:2,0:0:0:0:
369,199,31760,2,0,P|400:193|433:198,1,65,10|2,0:2|0:2,0:0:0:0:
474,289,32102,2,0,P|443:295|411:291,1,65,2|8,0:2|0:2,0:0:0:0:
277,197,32445,6,0,P|242:147|263:61,2,130,2|10|2,3:2|3:2|3:2,0:0:0:0:
234,285,33302,1,10,0:2:0:0:
234,285,33388,1,2,0:2:0:0:
234,285,33474,2,0,L|174:296,3,32.5,6|2|2|2,0:2|0:2|0:2|0:2,0:0:0:0:
162,325,33817,2,0,L|102:314,3,32.5,10|2|2|2,0:2|0:2|0:2|0:2,0:0:0:0:
87,298,34160,2,0,L|27:309,3,32.5,14|0|0|0,0:2|0:0|0:0|0:2,0:0:0:0:
6,300,34502,6,0,P|-16:239|21:158,2,130,4|10|2,3:2|0:2|0:2,0:0:0:0:
92,234,35360,1,2,0:2:0:0:
112,135,35531,6,0,P|167:166|191:252,1,130,0|10,3:2|0:2,0:0:0:0:
348,228,36217,2,0,L|282:207,1,65,2|10,0:2|0:2,0:0:0:0:
234,132,36560,6,0,P|170:124|114:157,2,130,0|10|2,3:2|0:2|0:2,0:0:0:0:
192,225,37417,1,2,0:2:0:0:
230,316,37588,2,0,P|276:272|287:209,1,130,0|2,3:2|0:2,0:3:0:0:
181,129,38274,1,2,0:0:0:0:
194,223,38445,1,10,0:2:0:0:
194,223,38531,1,2,0:2:0:0:
194,223,38617,6,0,P|130:212|77:139,2,130,2|10|2,3:2|0:2|0:2,0:0:0:0:
181,129,39474,1,2,0:2:0:0:
270,163,39645,6,0,P|333:174|378:220,1,130,0|10,3:2|0:2,0:0:0:0:
291,356,40331,2,0,L|279:281,1,65,2|10,0:2|0:2,0:0:0:0:
191,270,40674,6,0,P|129:286|89:335,2,130,0|10|2,3:2|0:2|0:2,0:0:0:0:
280,291,41531,1,2,0:2:0:0:
280,291,41617,1,2,0:2:0:0:
280,291,41702,2,0,L|295:212,1,65,2|10,3:2|0:2,0:0:0:0:
316,140,42045,1,2,0:2:0:0:
412,134,42217,1,2,0:2:0:0:
412,134,42302,1,2,0:2:0:0:
412,134,42388,2,0,P|455:126|495:137,1,65,10|10,0:2|0:2,0:0:0:0:
451,218,42731,6,0,P|458:282|428:339,2,130,4|10|2,3:2|0:2|0:2,0:0:0:0:
369,171,43588,1,2,0:2:0:0:
364,265,43760,6,0,P|303:243|265:163,1,130,0|10,3:2|0:2,0:0:0:0:
315,36,44445,2,0,L|304:103,1,65,2|10,0:2|0:2,0:0:0:0:
213,111,44788,6,0,P|148:110|84:172,2,130,0|10|2,3:2|0:2|0:2,0:0:0:0:
268,189,45645,1,2,0:2:0:0:
179,207,45817,6,0,P|157:268|194:348,1,130,0|2,3:2|0:2,0:0:0:0:
346,310,46502,1,2,0:2:0:0:
377,221,46674,1,10,0:2:0:0:
377,221,46760,1,2,0:2:0:0:
377,221,46845,6,0,P|333:175|270:165,2,130,2|10|2,3:2|0:2|0:2,0:0:0:0:
369,317,47702,1,2,0:2:0:0:
460,285,47874,6,0,P|478:224|455:164,1,130,2|10,3:2|0:2,0:0:0:0:
386,37,48560,2,0,L|373:127,1,65,2|10,0:2|0:2,0:0:0:0:
311,170,48902,6,0,P|247:162|192:195,2,130,2|10|2,3:2|0:2|0:2,0:0:0:0:
370,250,49760,1,10,0:0:0:0:
370,250,49845,1,0,0:2:0:0:
370,250,49931,6,0,L|359:297,3,32.5,6|0|0|0,0:2|0:2|0:2|0:2,0:0:0:0:
322,312,50274,2,0,L|333:359,3,32.5,8|0|0|0,0:2|0:2|0:2|0:2,0:0:0:0:
288,380,50617,6,0,P|273:383|256:384,3,32.5,2|0|8|8,0:2|0:2|0:2|0:2,0:0:0:0:
204,359,50960,1,6,0:2:0:0:
233,84,51817,5,0,0:2:0:0:
233,84,51902,1,0,0:2:0:0:
233,84,51988,2,0,L|262:214,2,130,2|2|2,0:2|0:2|0:2,0:0:0:0:
317,93,53017,6,0,P|379:113|467:23,1,195,2|0,0:2|0:2,0:0:0:0:
374,20,53702,1,2,0:2:0:0:
374,20,53874,1,0,0:2:0:0:
317,93,54045,1,2,0:2:0:0:
331,198,54731,6,0,P|294:204|257:191,1,65,0|0,0:2|0:2,0:0:0:0:
231,125,55074,2,0,L|210:262,2,130,2|0|0,0:2|0:2|0:2,0:0:0:0:
358,72,56102,1,2,0:2:0:0:
443,173,56445,1,2,0:2:0:0:
372,277,56788,1,2,0:0:0:0:
255,224,57131,6,0,P|193:204|105:294,1,195,2|0,0:2|0:2,0:0:0:0:
78,384,57817,1,2,0:2:0:0:
78,384,57988,1,0,0:2:0:0:
78,384,58160,2,0,P|11:309|28:220,1,195,2|0,0:2|0:2,0:0:0:0:
93,167,58845,1,2,0:2:0:0:
93,167,59017,1,0,0:2:0:0:
13,138,59188,1,2,0:2:0:0:
111,284,60045,5,2,0:2:0:0:
111,284,60131,1,0,0:2:0:0:
111,284,60217,2,0,P|170:255|234:278,2,130,2|2|2,0:2|0:2|0:2,0:0:0:0:
177,347,61245,1,2,0:2:0:0:
227,123,61931,6,0,L|238:197,1,65,2|0,0:2|0:2,0:0:0:0:
317,252,62274,2,0,L|326:187,1,65,2|0,0:2|0:2,0:0:0:0:
403,127,62617,2,0,L|414:201,1,65,0|0,0:2|0:2,0:0:0:0:
491,261,62960,2,0,L|500:196,1,65,2|0,0:2|0:2,0:0:0:0:
414,192,63302,5,2,0:2:0:0:
326,188,63645,1,2,0:2:0:0:
239,188,63988,1,2,0:2:0:0:
414,192,64331,5,2,0:2:0:0:
326,188,64674,1,2,0:2:0:0:
239,188,65017,1,2,0:2:0:0:
111,115,65360,6,0,P|147:179|74:287,1,195,2|0,0:2|0:2,0:0:0:0:
154,350,66045,1,2,0:2:0:0:
154,350,66217,1,0,0:2:0:0:
154,350,66388,2,0,L|232:362,1,65,2|0,0:2|0:2,0:0:0:0:
221,275,66731,2,0,L|299:263,1,65,0|0,0:2|0:2,0:0:0:0:
386,319,67074,6,0,L|433:306,3,32.5,2|0|0|0,0:2|0:2|0:2|0:2,0:0:0:0:
354,329,67417,2,0,P|381:263|348:197,2,130,6|2|10,3:2|0:2|0:2,0:0:0:0:
281,368,68274,5,0,0:2:0:0:
281,368,68360,1,0,0:2:0:0:
281,368,68445,2,0,L|65:342,1,195,6|2,3:2|3:2,0:0:0:0:
27,292,69131,1,10,0:2:0:0:
27,292,69302,1,2,0:2:0:0:
82,229,69474,6,0,L|102:10,1,195,6|0,3:2|0:2,0:0:0:0:
183,13,70160,1,10,0:2:0:0:
249,82,70331,1,0,0:2:0:0:
249,82,70417,1,0,0:2:0:0:
249,82,70502,2,0,P|324:96|387:55,2,130,6|2|10,3:2|0:2|0:2,0:0:0:0:
102,124,71531,6,0,P|75:190|108:256,2,130,6|2|8,3:2|0:2|0:2,0:0:0:0:
175,194,72388,1,2,0:2:0:0:
175,194,72474,1,0,0:2:0:0:
175,194,72560,2,0,P|250:180|313:221,2,130,6|2|10,3:2|0:2|0:2,0:0:0:0:
393,224,73588,6,0,L|375:376,2,130,6|0|8,3:2|0:2|0:2,0:0:0:0:
305,166,74617,2,0,L|284:309,1,130,6|0,3:2|0:2,0:0:0:0:
206,229,75131,2,0,L|217:153,2,65,2|10|2,3:2|0:2|0:2,0:0:0:0:
119,175,75645,6,0,L|139:47,1,130,6|10,3:2|0:2,0:0:0:0:
299,128,76331,1,2,0:2:0:0:
284,224,76502,1,0,0:2:0:0:
284,224,76588,1,0,0:2:0:0:
284,224,76674,2,0,P|347:201|415:250,1,130,6|2,3:2|0:2,0:0:0:0:
483,215,77188,1,0,3:2:0:0:
512,136,77360,1,10,0:2:0:0:
452,76,77531,1,2,0:2:0:0:
366,90,77702,6,0,L|218:72,1,130,6|10,3:2|0:2,0:0:0:0:
98,127,78388,1,2,0:2:0:0:
189,147,78560,1,0,0:2:0:0:
189,147,78645,1,0,0:2:0:0:
189,147,78731,1,6,3:2:0:0:
210,228,78902,1,8,0:2:0:0:
152,297,79074,2,0,L|191:307,3,32.5,0|0|0|0,0:2|0:2|0:2|0:2,0:0:0:0:
223,320,79417,2,0,L|253:310,3,32.5,10|2|10|2,0:2|0:2|0:2|0:2,0:0:0:0:
292,255,79760,6,0,L|307:406,2,130,6|10|2,3:2|0:2|0:2,0:0:0:0:
216,200,80788,2,0,L|77:137,2,130,6|10|2,3:2|0:2|0:2,0:0:0:0:
305,167,81817,2,0,L|428:78,2,130,12|10|10,3:2|3:2|3:2,0:0:0:0:
216,200,82674,5,0,3:2:0:0:
216,200,82760,1,0,0:2:0:0:
216,200,82845,2,0,L|196:119,1,65,14|0,3:2|0:2,0:0:0:0:
182,53,83188,1,0,0:2:0:0:
116,113,83360,1,0,0:2:0:0:
57,187,83531,2,0,L|137:210,1,65,10|10,0:2|0:2,0:0:0:0:
203,225,83874,5,6,0:2:0:0:
256,192,84045,12,0,86960,0:0:0:0:
95,48,87988,6,0,L|111:166,1,97.5,6|8,3:2|0:2,0:0:0:0:
135,173,88331,2,0,L|122:262,1,65,2|8,0:2|0:2,0:0:0:0:
59,297,88674,1,2,0:2:0:0:
140,329,88845,1,8,0:2:0:0:
205,272,89017,6,0,L|293:279,1,65,6|0,3:2|0:2,0:0:0:0:
303,311,89274,1,8,0:2:0:0:
303,311,89360,2,0,L|392:298,1,65,2|8,0:2|0:2,0:0:0:0:
436,349,89702,1,2,0:2:0:0:
512,317,89874,1,10,0:2:0:0:
447,266,90045,6,0,L|438:166,1,97.5,6|8,3:2|0:2,0:0:0:0:
406,136,90388,2,0,L|419:47,1,65,2|10,0:2|0:2,0:0:0:0:
360,1,90731,1,2,0:2:0:0:
280,44,90902,1,10,0:2:0:0:
310,131,91074,6,0,L|222:138,1,65,6|0,3:2|0:2,0:0:0:0:
219,102,91331,1,8,0:2:0:0:
219,102,91417,2,0,L|130:89,1,65,0|8,0:0|0:0,0:0:0:0:
95,144,91760,2,0,L|105:187,3,32.5,10|8|8|8,0:2|0:2|0:2|0:2,0:0:0:0:
69,226,92102,6,0,L|157:233,1,65,6|0,3:2|0:2,0:0:0:0:
163,289,92360,1,8,0:2:0:0:
163,289,92445,1,2,0:2:0:0:
212,220,92617,1,8,0:2:0:0:
241,305,92788,2,0,L|341:290,1,97.5,2|0,0:2|0:2,0:0:0:0:
365,261,93131,6,0,L|453:268,1,65,6|0,3:2|0:2,0:0:0:0:
468,300,93388,1,8,0:2:0:0:
468,300,93474,1,2,0:2:0:0:
505,211,93645,1,8,0:2:0:0:
432,149,93817,1,2,0:2:0:0:
432,149,93988,1,10,0:2:0:0:
349,83,94160,6,0,L|336:199,1,97.5,4|8,3:2|0:2,0:0:0:0:
326,221,94502,1,2,0:2:0:0:
410,234,94674,1,10,0:2:0:0:
470,308,94845,2,0,L|394:324,1,65,2|10,0:2|0:2,0:0:0:0:
323,364,95188,6,0,P|298:363|286:357,3,32.5,6|0|10|0,3:2|0:0|0:2|0:0,0:0:0:0:
253,321,95531,2,0,P|228:322|216:328,3,32.5,2|0|10|2,0:2|0:0|0:2|0:2,0:0:0:0:
183,354,95874,2,0,L|101:341,1,65,2|10,0:2|0:2,0:0:0:0:
17,298,96217,6,0,L|38:182,1,97.5,6|8,3:2|0:2,0:0:0:0:
69,174,96560,2,0,L|56:85,1,65,2|8,0:2|0:2,0:0:0:0:
4,39,96902,1,2,0:2:0:0:
89,23,97074,1,8,0:2:0:0:
150,89,97245,6,0,L|238:82,1,65,6|0,3:2|0:2,0:0:0:0:
254,53,97502,1,8,0:2:0:0:
254,53,97588,2,0,L|343:66,1,65,2|8,0:2|0:2,0:0:0:0:
290,144,97931,1,2,0:2:0:0:
356,200,98102,1,10,0:2:0:0:
440,178,98274,6,0,L|423:286,1,97.5,6|10,3:2|0:2,0:0:0:0:
397,302,98617,2,0,L|410:391,1,65,2|10,0:2|0:2,0:0:0:0:
320,372,98960,1,2,0:2:0:0:
233,378,99131,1,10,0:2:0:0:
190,296,99302,6,0,L|102:289,1,65,6|0,3:2|0:2,0:0:0:0:
95,266,99560,1,8,0:2:0:0:
95,266,99645,2,0,L|6:279,1,65,0|8,0:0|0:0,0:0:0:0:
32,187,99988,2,0,L|42:144,3,32.5,10|0|8|8,0:2|0:0|0:2|0:2,0:0:0:0:
11,109,100331,6,0,L|99:102,1,65,6|0,3:2|0:0,0:0:0:0:
110,87,100588,1,0,0:0:0:0:
110,87,100674,1,10,0:0:0:0:
187,133,100845,1,0,0:0:0:0:
190,44,101017,2,0,L|297:56,1,97.5,10|0,0:2|0:2,0:0:0:0:
309,85,101360,6,0,L|397:78,1,65,14|0,3:2|0:0,0:0:0:0:
407,46,101617,1,0,0:0:0:0:
407,46,101702,1,10,0:0:0:0:
451,122,101874,1,0,0:0:0:0:
381,168,102045,1,10,0:0:0:0:
381,168,102217,1,2,0:0:0:0:
301,215,102388,6,0,L|309:313,1,97.5,14|2,3:2|0:0,0:0:0:0:
285,331,102731,1,14,0:0:0:0:
214,270,102902,1,2,0:0:0:0:
225,183,103074,2,0,L|239:100,1,65,14|2,0:0|0:0,0:0:0:0:
152,90,103417,2,0,L|141:154,1,65,12|0,3:2|0:2,0:0:0:0:
57,133,103760,2,0,L|67:68,1,65,10|2,0:0|0:0,0:0:0:0:
202,71,104102,6,0,L|196:113,3,32.5,10|10|10|10,0:0|0:0|0:0|0:0,0:0:0:0:
226,136,104445,2,0,P|287:114|368:151,2,130,6|10|2,3:2|0:0|0:0,0:0:0:0:
289,213,105302,1,10,0:0:0:0:
383,237,105474,2,0,P|352:292|266:316,2,130,2|10|2,3:2|0:0|0:0,0:0:0:0:
222,181,106502,6,0,P|158:173|102:206,2,130,6|10|2,3:2|0:0|0:0,0:0:0:0:
180,274,107360,1,10,0:0:0:0:
180,274,107445,1,0,0:0:0:0:
180,274,107531,2,0,P|244:282|300:249,2,130,2|2|2,3:2|0:2|0:0,0:0:0:0:
305,160,108560,6,0,P|316:96|389:43,2,130,6|10|2,3:2|0:0|0:0,0:0:0:0:
399,147,109417,1,8,0:0:0:0:
493,132,109588,2,0,P|482:195|436:240,2,130,2|10|2,3:2|0:0|0:0,0:0:0:0:
275,140,110617,6,0,P|336:122|395:145,2,130,6|10|2,3:2|0:0|0:0,0:0:0:0:
319,235,111645,1,2,3:2:0:0:
160,246,111988,1,2,0:0:0:0:
275,140,112331,2,0,P|283:97|272:57,1,65,10|10,0:0|0:0,0:0:0:0:
226,0,112674,6,0,P|162:-7|105:23,2,130,6|10|0,3:2|0:0|0:0,0:0:0:0:
279,76,113531,1,10,0:0:0:0:
188,87,113702,2,0,P|210:148|290:186,2,130,0|8|2,3:2|0:0|0:0,0:0:0:0:
356,155,114731,6,0,P|357:220|295:284,2,130,4|10|0,3:2|0:0|0:0,0:0:0:0:
262,182,115588,1,10,0:0:0:0:
262,182,115674,1,0,0:0:0:0:
262,182,115760,2,0,P|201:204|121:167,2,130,0|0|2,3:2|0:0|0:0,0:0:0:0:
133,281,116788,6,0,P|177:327|240:337,2,130,6|2|8,3:2|0:0|0:0,0:0:0:0:
140,185,117645,1,0,0:0:0:0:
50,218,117817,2,0,P|32:279|55:339,2,130,6|2|10,3:2|0:0|0:0,0:0:0:0:
191,73,118845,6,0,P|255:65|310:98,2,130,6|2|10,3:2|0:0|0:0,0:0:0:0:
132,153,119702,1,0,3:0:0:0:
132,153,119788,1,2,0:0:0:0:
132,153,119874,6,0,L|143:200,3,32.5,14|2|2|2,0:0|0:0|0:0|0:0,0:0:0:0:
220,214,120217,2,0,L|209:261,3,32.5,2|2|2|2,0:0|0:0|0:0|0:0,0:0:0:0:
285,283,120560,6,0,P|300:286|317:287,3,32.5,10|0|10|0,0:0|0:0|0:0|0:0,0:0:0:0:
387,233,120902,1,0,3:1:0:0:
187,172,121245,5,6,0:0:0:0:
