osu file format v14

[General]
AudioFilename: audio.mp3
AudioLeadIn: 0
PreviewTime: 86952
Countdown: 0
SampleSet: Soft
StackLeniency: 0.5
Mode: 0
LetterboxInBreaks: 0
EpilepsyWarning: 1
WidescreenStoryboard: 1

[Editor]
Bookmarks: 83780
DistanceSpacing: 1.2
BeatDivisor: 4
GridSize: 16
TimelineZoom: 1.900006

[Metadata]
Title:Crystal Illusion
TitleUnicode:Crystal Illusion
Artist:P4koo
ArtistUnicode:P4koo
Creator:Riana
Version:Dailycare's Insane
Source:
Tags:omc#3 dailycare morinaga skymin [_-scarlet-_] scarlet [ -scarlet- ] instrumental electronic
BeatmapID:1759323
BeatmapSetID:791944

[Difficulty]
HPDrainRate:5
CircleSize:4
OverallDifficulty:7.8
ApproachRate:9
SliderMultiplier:1.75
SliderTickRate:1

[Events]
//Background and Video events
0,0,"bg.jpg",0,0
//Break Periods
//Storyboard Layer 0 (Background)
//Storyboard Layer 1 (Fail)
//Storyboard Layer 2 (Pass)
//Storyboard Layer 3 (Foreground)
//Storyboard Layer 4 (Overlay)
//Storyboard Sound Samples

[TimingPoints]
560,342.857142857143,3,2,1,40,1,0
7074,-100,3,2,1,40,0,0
7417,-100,3,2,1,40,0,0
7760,-100,3,2,1,40,0,0
8788,-100,3,2,1,40,0,0
8960,-100,3,2,1,40,0,0
9817,-100,3,2,1,50,0,0
9988,-100,3,2,1,50,0,0
11874,-100,3,2,1,50,0,0
12045,-100,3,2,1,50,0,0
12560,-100,3,2,1,50,0,0
13074,-100,3,2,1,50,0,0
14788,-100,3,2,1,50,0,0
14960,-100,3,2,1,50,0,0
15302,-100,3,2,1,50,0,0
18045,-125,3,2,1,40,0,0
18217,-125,3,2,1,40,0,0
22160,-125,3,2,1,40,0,0
22845,-125,3,2,1,40,0,0
23188,-125,3,2,1,40,0,0
23531,-125,3,2,1,40,0,0
23874,-125,3,2,1,40,0,0
24045,-125,3,2,1,40,0,0
24217,-111.111111111111,3,2,1,40,0,0
24560,-111.111111111111,3,2,1,40,0,0
24902,-111.111111111111,3,2,1,40,0,0
25245,-111.111111111111,3,2,1,40,0,0
25417,-100,3,2,1,40,0,0
26274,-100,3,2,1,40,0,0
26617,-100,3,2,1,40,0,0
34502,-100,3,2,2,40,0,0
34674,-100,3,2,2,35,0,0
34845,-100,3,2,2,45,0,0
35017,-100,3,2,2,60,0,0
35188,-100,3,2,2,65,0,0
35359,-100,3,2,2,70,0,0
35531,-100,3,2,2,40,0,0
35702,-100,3,2,2,35,0,0
35874,-100,3,2,2,45,0,0
36045,-100,3,2,2,60,0,0
36217,-100,3,2,2,65,0,0
36388,-100,3,2,2,70,0,0
36560,-100,3,2,2,40,0,0
36731,-100,3,2,2,35,0,0
36902,-100,3,2,2,45,0,0
37074,-100,3,2,2,60,0,0
37245,-100,3,2,2,65,0,0
37416,-100,3,2,2,70,0,0
37588,-100,3,2,2,40,0,0
37760,-100,3,2,2,35,0,0
37931,-100,3,2,2,45,0,0
38102,-100,3,2,2,60,0,0
38274,-100,3,2,2,65,0,0
38445,-100,3,2,2,70,0,0
38617,-100,3,2,2,40,0,0
38788,-100,3,2,2,35,0,0
38960,-100,3,2,2,45,0,0
39131,-100,3,2,2,60,0,0
39302,-100,3,2,2,65,0,0
39473,-100,3,2,2,70,0,0
39645,-100,3,2,2,40,0,0
39817,-100,3,2,2,35,0,0
39988,-100,3,2,2,45,0,0
40160,-100,3,2,2,60,0,0
40331,-100,3,2,2,65,0,0
40502,-100,3,2,2,70,0,0
40674,-100,3,2,2,40,0,0
40845,-100,3,2,2,35,0,0
41017,-100,3,2,2,45,0,0
41360,-100,3,2,2,60,0,0
41702,-100,3,2,2,80,0,0
42731,-100,3,2,2,40,0,0
42902,-100,3,2,2,35,0,0
43074,-100,3,2,2,45,0,0
43245,-100,3,2,2,60,0,0
43417,-100,3,2,2,65,0,0
43588,-100,3,2,2,70,0,0
43760,-100,3,2,2,40,0,0
43931,-100,3,2,2,30,0,0
44102,-100,3,2,2,45,0,0
44274,-100,3,2,2,60,0,0
44445,-100,3,2,2,65,0,0
44617,-100,3,2,2,70,0,0
44788,-100,3,2,2,40,0,0
44960,-100,3,2,2,35,0,0
45131,-100,3,2,2,45,0,0
45302,-100,3,2,2,60,0,0
45474,-100,3,2,2,65,0,0
45645,-100,3,2,2,70,0,0
45817,-100,3,2,2,40,0,0
45988,-100,3,2,2,35,0,0
46160,-100,3,2,2,45,0,0
46331,-100,3,2,2,60,0,0
46503,-100,3,2,2,65,0,0
46674,-100,3,2,2,70,0,0
46845,-100,3,2,2,40,0,0
47017,-100,3,2,2,35,0,0
47188,-100,3,2,2,45,0,0
47359,-100,3,2,2,60,0,0
47531,-100,3,2,2,65,0,0
47702,-100,3,2,2,70,0,0
47874,-100,3,2,2,40,0,0
48045,-100,3,2,2,35,0,0
48217,-100,3,2,2,45,0,0
48388,-100,3,2,2,60,0,0
48560,-100,3,2,2,65,0,0
48731,-100,3,2,2,70,0,0
48902,-100,3,2,2,40,0,0
49073,-100,3,2,2,35,0,0
49245,-100,3,2,2,45,0,0
49416,-100,3,2,2,60,0,0
49588,-100,3,2,2,65,0,0
49759,-100,3,2,2,70,0,0
49931,-100,3,2,2,85,0,0
50445,-100,3,2,2,60,0,0
50788,-100,3,2,2,60,0,0
50874,-100,3,2,2,60,0,0
50960,-100,3,2,1,40,0,0
67074,-100,3,2,1,40,0,0
67416,-100,3,2,1,50,0,0
67760,-100,3,2,1,47,0,0
68102,-100,3,2,5,47,0,0
68274,-100,3,2,1,50,0,0
70160,-100,3,2,5,47,0,0
70331,-100,3,2,1,50,0,0
72217,-100,3,2,5,47,0,0
72388,-100,3,2,1,50,0,0
73245,-100,3,2,1,50,0,0
73417,-100,3,2,1,47,0,0
73588,-100,3,2,1,50,0,0
74274,-100,3,2,5,47,0,0
74360,-100,3,2,1,47,0,0
75131,-100,3,2,1,50,0,0
75645,-100,3,2,1,50,0,0
75988,-100,3,2,1,50,0,0
76331,-100,3,2,1,50,0,0
76845,-100,3,2,1,50,0,0
77017,-100,3,2,1,50,0,0
77360,-100,3,2,1,50,0,0
77702,-100,3,2,1,50,0,0
78045,-100,3,2,1,50,0,0
78388,-100,3,2,1,50,0,0
78560,-100,3,2,1,50,0,0
78902,-100,3,2,1,50,0,0
78988,-100,3,2,1,50,0,0
79417,-100,3,2,1,50,0,0
79588,-100,3,2,1,50,0,0
79760,-100,3,2,1,50,0,0
79845,-100,3,2,5,69,0,0
79931,-100,3,2,1,50,0,0
80445,-100,3,2,1,50,0,0
80788,-100,3,2,1,50,0,0
80960,-100,3,2,1,50,0,0
81302,-100,3,2,1,50,0,0
81645,-100,3,2,1,50,0,0
81817,-100,3,2,1,60,0,0
81988,-100,3,2,1,60,0,0
82160,-100,3,2,1,60,0,0
82331,-100,3,2,1,60,0,0
82502,-100,3,2,1,60,0,0
82674,-100,3,2,1,60,0,0
82845,-100,3,2,1,60,0,0
83017,-100,3,2,1,60,0,0
83188,-100,3,2,1,60,0,0
83360,-100,3,2,1,60,0,0
83531,-100,3,2,1,60,0,0
83702,-100,3,2,1,60,0,0
83874,-100,3,2,1,60,0,0
85760,-100,3,2,1,25,0,0
86445,-100,3,2,1,33,0,0
86788,-100,3,2,1,42,0,0
86960,-100,3,2,1,57,0,0
87131,-100,3,2,1,45,0,0
87302,-100,3,2,1,66,0,0
87474,-100,3,2,1,50,0,1
87560,-100,3,2,1,50,0,0
87645,-100,3,2,1,50,0,0
87817,-100,3,2,1,50,0,0
87988,-73.5294117647059,3,2,2,70,0,1
88160,-73.5294117647059,3,2,2,70,0,1
91245,-73.5294117647059,3,2,2,70,0,1
92102,-73.5294117647059,3,2,2,70,0,1
95360,-73.5294117647059,3,2,2,70,0,1
95531,-73.5294117647059,3,2,2,70,0,1
95874,-73.5294117647059,3,2,2,70,0,1
96045,-73.5294117647059,3,2,2,70,0,1
96217,-73.5294117647059,3,2,2,70,0,1
98274,-73.5294117647059,3,2,2,70,0,1
99474,-73.5294117647059,3,2,2,70,0,1
100331,-73.5294117647059,3,2,2,70,0,1
100502,-73.5294117647059,3,2,2,70,0,1
101360,-73.5294117647059,3,2,2,70,0,1
101531,-73.5294117647059,3,2,2,70,0,1
102388,-73.5294117647059,3,2,2,70,0,1
102560,-73.5294117647059,3,2,2,70,0,1
103417,-73.5294117647059,3,2,2,70,0,1
104102,-73.5294117647059,3,2,2,40,0,1
104445,-94.3396226415094,3,2,2,65,0,0
104617,-94.3396226415094,3,2,2,55,0,0
104788,-94.3396226415094,3,2,2,75,0,0
105131,-94.3396226415094,3,2,2,75,0,0
105645,-94.3396226415094,3,2,2,55,0,0
105817,-94.3396226415094,3,2,2,75,0,0
106673,-94.3396226415094,3,2,2,55,0,0
106845,-94.3396226415094,3,2,2,75,0,0
107702,-94.3396226415094,3,2,2,55,0,0
107874,-94.3396226415094,3,2,2,75,0,0
108731,-94.3396226415094,3,2,2,55,0,0
108902,-94.3396226415094,3,2,2,75,0,0
111816,-94.3396226415094,3,2,2,55,0,0
111988,-94.3396226415094,3,2,2,75,0,0
112331,-94.3396226415094,3,2,2,50,0,0
112674,-94.3396226415094,3,2,2,75,0,0
112845,-94.3396226415094,3,2,2,55,0,0
113016,-94.3396226415094,3,2,2,75,0,0
113873,-94.3396226415094,3,2,2,55,0,0
114045,-94.3396226415094,3,2,2,75,0,0
114902,-94.3396226415094,3,2,2,55,0,0
115074,-94.3396226415094,3,2,2,75,0,0
115931,-94.3396226415094,3,2,2,55,0,0
116102,-94.3396226415094,3,2,2,75,0,0
116788,-94.3396226415094,3,2,2,65,0,0
116960,-94.3396226415094,3,2,2,65,0,0
117817,-94.3396226415094,3,2,2,75,0,0
117902,-94.3396226415094,3,2,2,80,0,0
117988,-94.3396226415094,3,2,2,75,0,0
118845,-94.3396226415094,3,2,2,85,0,0
118931,-94.3396226415094,3,2,2,80,0,0
119017,-94.3396226415094,3,2,2,85,0,0
119702,-94.3396226415094,3,2,2,85,0,0
119874,-94.3396226415094,3,2,2,85,0,0
119960,-94.3396226415094,3,2,2,85,0,0
120045,-94.3396226415094,3,2,2,85,0,0
120131,-94.3396226415094,3,2,2,85,0,0
120217,-94.3396226415094,3,2,2,85,0,0
120302,-94.3396226415094,3,2,2,85,0,0
120388,-94.3396226415094,3,2,2,85,0,0
120474,-94.3396226415094,3,2,2,85,0,0
120560,-94.3396226415094,3,2,2,85,0,0
120645,-94.3396226415094,3,2,2,85,0,0
120731,-94.3396226415094,3,2,2,85,0,0
120817,-94.3396226415094,3,2,2,85,0,0
120902,-94.3396226415094,3,2,2,40,0,0
121245,-94.3396226415094,3,2,2,95,0,0

[Colours]
Combo1 : 0,128,255
Combo2 : 128,255,255
Combo3 : 128,128,255

[HitObjects]
141,76,1245,5,0,0:2:0:0:
141,80,1331,1,0,0:2:0:0:
142,84,1417,1,0,0:2:0:0:
142,88,1502,1,0,0:2:0:0:
143,93,1588,1,2,0:2:0:0:
205,146,2445,5,0,0:2:0:0:
204,150,2531,1,0,0:2:0:0:
203,154,2617,1,2,0:2:0:0:
155,214,2960,5,2,0:2:0:0:
184,287,3302,5,0,0:2:0:0:
164,359,3645,5,2,0:2:0:0:
164,359,4674,5,2,0:2:0:0:
155,214,5360,5,0,0:2:0:0:
184,287,5531,1,0,0:2:0:0:
164,359,5702,5,2,0:2:0:0:
30,292,6045,1,0,0:2:0:0:
155,214,6388,1,0,0:2:0:0:
115,290,6731,5,2,0:2:0:0:
75,222,7074,1,2,0:2:0:0:
65,144,7417,1,2,0:2:0:0:
115,290,7760,5,2,0:2:0:0:
115,290,8445,5,2,0:2:0:0:
65,144,8617,1,0,0:2:0:0:
214,171,8788,5,2,0:2:0:0:
133,203,8960,1,0,0:0:0:0:
65,144,9131,1,0,0:0:0:0:
82,62,9302,1,0,0:2:0:0:
157,24,9474,5,2,0:2:0:0:
161,24,9560,1,2,0:2:0:0:
165,25,9645,1,2,0:2:0:0:
169,25,9731,1,2,0:2:0:0:
174,26,9817,1,6,0:0:0:0:
271,86,9988,5,0,0:3:0:0:
271,86,10074,1,0,0:2:0:0:
271,86,10160,2,0,P|277:38|288:-14,1,87.5,10|2,0:2|0:2,0:0:0:0:
178,135,10502,1,0,0:0:0:0:
338,165,10674,2,0,L|343:208,1,43.75
289,267,10845,5,2,0:2:0:0:
423,192,11017,1,10,0:2:0:0:
485,316,11188,2,0,P|443:301|401:291,1,87.5,0|2,0:2|0:2,0:0:0:0:
387,289,11445,1,0,0:2:0:0:
373,289,11531,1,2,0:2:0:0:
229,200,11702,1,10,0:2:0:0:
279,358,11874,5,6,0:2:0:0:
318,176,12045,1,0,0:2:0:0:
318,176,12131,1,0,0:2:0:0:
318,176,12217,2,0,L|301:267,1,87.5,10|2,0:2|0:2,0:0:0:0:
207,105,12560,1,2,0:2:0:0:
229,200,12731,1,0,0:2:0:0:
400,143,12902,5,0,0:2:0:0:
417,45,13074,1,10,0:2:0:0:
321,27,13245,1,2,0:2:0:0:
304,125,13417,1,0,0:2:0:0:
133,177,13588,5,10,0:2:0:0:
133,177,13760,1,8,0:2:0:0:
28,27,13931,6,0,P|84:33|142:50,1,87.5,6|0,0:0|0:0,0:0:0:0:
126,45,14188,1,0,0:0:0:0:
138,51,14274,2,0,P|184:83|226:126,1,87.5,10|0,0:2|0:2,0:0:0:0:
232,271,14617,1,2,0:2:0:0:
363,171,14788,2,0,L|355:222,1,43.75,8|0,0:0|0:2,0:0:0:0:
288,191,14960,6,0,P|283:144|276:97,1,87.5,6|0,0:2|0:2,0:0:0:0:
413,264,15302,2,0,P|440:226|470:188,1,87.5,10|0,0:2|0:2,0:0:0:0:
297,338,15645,1,2,0:2:0:0:
445,369,15817,1,10,0:2:0:0:
333,266,15988,5,6,0:2:0:0:
185,344,16160,1,2,0:2:0:0:
185,344,16245,1,0,0:2:0:0:
185,344,16331,2,0,L|168:238,1,87.5,10|2,0:2|0:2,0:0:0:0:
175,246,16588,1,0,0:2:0:0:
168,232,16674,2,0,P|215:234|281:247,1,87.5,2|10,0:2|0:2,0:0:0:0:
482,101,17017,6,0,P|438:107|395:109,1,87.5,2|10,0:2|0:2,0:0:0:0:
306,84,17360,1,2,0:2:0:0:
331,169,17531,1,2,0:2:0:0:
368,23,17702,5,10,0:2:0:0:
245,154,17874,1,10,0:2:0:0:
414,192,18045,5,6,0:2:0:0:
486,152,18217,6,0,P|496:124|492:91,2,35,0|0|8,0:0|0:0|0:0,0:0:0:0:
416,113,18560,2,0,P|410:83|390:57,2,35
335,114,18902,2,0,P|315:91|285:78,2,35
266,155,19245,2,0,P|238:144|205:148,2,35,0|0|8,0:0|0:0|0:0,0:0:0:0:
226,225,19588,2,0,P|196:230|170:250,1,35
143,287,19760,2,0,P|127:234|115:203,1,70,0|8,0:0|0:0,0:0:0:0:
115,210,20017,1,0,0:0:0:0:
110,201,20102,5,0,0:0:0:0:
38,161,20274,6,0,P|28:133|32:100,2,35,0|0|8,0:0|0:0|0:0,0:0:0:0:
108,122,20617,2,0,P|113:92|133:66,2,35
189,123,20960,2,0,P|208:100|238:87,2,35
258,164,21302,2,0,P|285:153|319:157,1,35,8|0,0:0|0:0,0:0:0:0:
359,128,21474,2,0,P|354:159|346:229,1,70
349,210,21731,1,0,0:0:0:0:
350,222,21817,1,0,0:0:0:0:
295,70,21988,1,8,0:0:0:0:
438,176,22160,6,0,P|443:145|451:75,1,70
448,94,22417,1,0,0:0:0:0:
447,82,22502,1,8,0:0:0:0:
350,222,22674,1,0,0:0:0:0:
498,260,22845,2,0,P|467:266|401:286,1,70
274,384,23188,5,0,0:0:0:0:
343,314,23360,2,0,L|283:302,1,35
254,251,23531,2,0,P|231:296|231:325,1,70,8|0,0:0|0:0,0:0:0:0:
350,222,23874,1,0,0:0:0:0:
223,162,24045,1,8,0:0:0:0:
299,30,24217,6,0,P|304:67|313:135,1,78.7499975967408,0|2,0:0|0:0,0:0:0:0:
314,119,24474,1,0,0:0:0:0:
319,131,24560,1,0,0:0:0:0:
149,227,24731,2,0,L|139:276,2,39.3749987983704,2|0|0,0:0|0:0|0:0,0:0:0:0:
126,139,25074,5,2,0:0:0:0:
229,306,25245,1,0,0:0:0:0:
318,130,25417,5,8,0:2:0:0:
319,131,25588,2,0,L|202:161,1,87.5,0|0,0:2|0:2,0:0:0:0:
56,243,25931,2,0,L|173:273,1,87.5,10|0,0:2|0:2,0:0:0:0:
38,4,26274,6,0,P|0:53|1:166,1,175,2|10,3:2|0:2,0:0:0:0:
70,328,26788,2,0,P|64:274|44:212,1,87.5,0|2,0:2|0:2,0:0:0:0:
252,204,27131,5,0,0:2:0:0:
252,204,27217,1,0,0:2:0:0:
252,204,27302,2,0,P|258:150|278:88,1,87.5,0|2,3:2|0:2,0:0:0:0:
163,222,27645,5,10,0:2:0:0:
308,274,27817,1,0,0:2:0:0:
181,139,27988,2,0,L|77:154,1,87.5,2|10,0:2|0:2,0:0:0:0:
225,324,28331,6,0,P|269:286|394:284,1,175,2|10,0:2|0:2,0:0:0:0:
475,139,28845,2,0,L|455:250,1,87.5,0|2,0:2|0:2,0:0:0:0:
337,62,29188,5,0,0:2:0:0:
337,62,29274,1,0,0:2:0:0:
337,62,29360,2,0,L|357:173,1,87.5,0|10,3:2|0:2,0:0:0:0:
381,278,29702,5,2,0:2:0:0:
475,139,29874,1,0,0:2:0:0:
502,223,30045,2,0,P|460:222|403:187,1,87.5,8|8,0:2|0:2,0:0:0:0:
200,200,30388,6,0,P|272:206|358:136,1,175,2|10,3:2|0:2,0:0:0:0:
255,10,30902,1,2,0:2:0:0:
404,47,31074,2,0,L|290:76,1,87.5,2|8,0:2|0:2,0:0:0:0:
121,177,31417,5,2,3:2:0:0:
180,50,31588,1,0,0:2:0:0:
279,152,31760,2,0,L|165:123,1,87.5,10|2,0:2|0:2,0:0:0:0:
14,34,32102,2,0,P|71:31|115:11,1,87.5,2|8,0:2|0:2,0:0:0:0:
109,12,32360,1,0,0:2:0:0:
118,3,32445,1,2,3:2:0:0:
118,3,33302,6,0,L|109:63,1,43.75,10|2,0:2|0:2,0:0:0:0:
68,115,33474,5,6,0:2:0:0:
70,122,33560,1,2,0:2:0:0:
71,129,33645,1,2,0:2:0:0:
72,136,33731,1,2,0:2:0:0:
73,143,33817,1,10,0:2:0:0:
74,151,33902,1,2,0:2:0:0:
75,158,33988,1,2,0:2:0:0:
76,165,34074,1,2,0:2:0:0:
77,172,34160,1,14,0:2:0:0:
78,179,34245,1,0,0:0:0:0:
79,187,34331,1,0,0:0:0:0:
80,194,34417,1,0,0:2:0:0:
81,201,34502,5,4,3:2:0:0:
156,155,34674,1,0,0:2:0:0:
186,241,34845,1,10,0:2:0:0:
184,248,34931,1,0,0:2:0:0:
183,255,35017,1,2,0:2:0:0:
256,192,35188,6,0,L|256:80,1,87.5,2|2,0:2|0:2,0:0:0:0:
431,183,35531,5,0,3:2:0:0:
356,229,35702,1,0,0:2:0:0:
326,143,35874,1,10,0:2:0:0:
328,136,35960,1,0,0:2:0:0:
329,129,36045,1,2,0:2:0:0:
409,90,36217,5,2,0:2:0:0:
256,192,36388,1,10,0:2:0:0:
103,90,36560,5,0,3:2:0:0:
177,42,36731,1,0,0:2:0:0:
101,4,36902,1,10,0:2:0:0:
94,3,36988,1,0,0:2:0:0:
87,1,37074,1,2,0:2:0:0:
19,58,37245,6,0,P|30:103|40:167,1,87.5,2|2,0:2|0:2,0:0:0:0:
37,143,37588,5,0,3:2:0:0:
186,241,37760,1,8,0:2:0:0:
78,319,37931,2,0,P|85:275|96:233,1,87.5,2|0,0:2|0:2,0:0:0:0:
237,86,38274,5,2,0:2:0:0:
275,298,38445,1,10,0:2:0:0:
431,183,38617,5,2,3:2:0:0:
356,229,38788,1,0,0:2:0:0:
326,143,38960,1,10,0:2:0:0:
328,136,39045,1,0,0:2:0:0:
329,129,39131,1,2,0:2:0:0:
256,192,39302,6,0,L|256:304,1,87.5,2|2,0:2|0:2,0:0:0:0:
81,201,39645,5,0,3:2:0:0:
156,155,39817,1,0,0:2:0:0:
186,241,39988,1,10,0:2:0:0:
184,248,40074,1,0,0:2:0:0:
183,255,40160,1,2,0:2:0:0:
103,294,40331,5,2,0:2:0:0:
256,192,40502,1,10,0:2:0:0:
409,294,40674,5,0,3:2:0:0:
335,342,40845,1,0,0:2:0:0:
411,380,41017,1,10,0:2:0:0:
418,381,41102,1,0,0:2:0:0:
425,383,41188,1,0,0:2:0:0:
493,326,41360,6,0,P|482:281|472:217,1,87.5,2|2,0:2|0:2,0:0:0:0:
474,240,41617,1,2,0:2:0:0:
475,241,41702,1,2,3:2:0:0:
323,157,41874,5,10,0:2:0:0:
431,81,42045,2,0,P|423:124|412:166,1,87.5,2|2,0:2|0:2,0:0:0:0:
420,180,42302,1,2,0:2:0:0:
387,207,42388,1,10,0:2:0:0:
373,245,42474,1,0,0:2:0:0:
373,289,42560,2,0,L|323:280,1,43.75,10|0,0:2|0:2,0:0:0:0:
256,224,42731,5,4,3:2:0:0:
187,268,42902,1,0,0:2:0:0:
118,230,43074,1,10,0:2:0:0:
115,223,43160,1,0,0:2:0:0:
112,216,43245,1,2,0:2:0:0:
44,264,43417,6,0,P|59:310|72:372,1,87.5,2|2,0:2|0:2,0:0:0:0:
256,224,43760,5,0,3:2:0:0:
325,268,43931,1,0,0:2:0:0:
394,230,44102,1,10,0:2:0:0:
397,223,44188,1,0,0:2:0:0:
400,216,44274,1,2,0:2:0:0:
468,264,44445,5,2,0:2:0:0:
338,384,44617,1,10,0:2:0:0:
256,224,44788,5,0,3:2:0:0:
220,149,44960,1,0,0:2:0:0:
290,105,45131,1,10,0:2:0:0:
291,97,45217,1,0,0:2:0:0:
292,89,45302,1,2,0:2:0:0:
256,16,45474,6,0,P|218:25|143:35,1,87.5,2|2,0:2|0:2,0:0:0:0:
170,32,45817,5,0,3:2:0:0:
372,108,45988,1,8,0:2:0:0:
220,149,46160,2,0,P|258:158|333:168,1,87.5,2|0,0:2|0:2,0:0:0:0:
454,275,46502,5,2,0:2:0:0:
256,352,46674,1,10,0:2:0:0:
58,275,46845,5,2,3:2:0:0:
141,242,47017,1,0,0:2:0:0:
54,104,47188,2,0,P|69:163|79:228,1,87.5,10|2,0:2|0:2,0:0:0:0:
232,6,47531,2,0,P|220:48|212:91,1,87.5,2|2,0:2|0:2,0:0:0:0:
152,151,47874,5,2,3:2:0:0:
270,258,48045,1,0,0:2:0:0:
238,178,48217,1,10,0:2:0:0:
211,328,48388,1,2,0:2:0:0:
320,193,48560,5,2,0:2:0:0:
279,55,48731,1,10,0:2:0:0:
447,95,48902,6,0,L|336:115,1,87.5,2|0,3:2|0:2,0:0:0:0:
360,110,49160,1,0,0:2:0:0:
360,110,49245,2,0,P|370:65|373:15,1,87.5,10|0,0:2|0:2,0:0:0:0:
251,264,49588,2,0,P|241:219|238:169,1,87.5,2|8,0:2|0:2,0:0:0:0:
104,62,49931,5,6,0:0:0:0:
125,24,50017,1,2,0:0:0:0:
161,3,50102,1,2,0:0:0:0:
206,3,50188,1,2,0:0:0:0:
246,20,50274,1,10,0:0:0:0:
266,58,50360,1,2,0:0:0:0:
298,85,50445,1,0,0:2:0:0:
337,87,50531,1,2,0:2:0:0:
371,76,50617,5,2,0:2:0:0:
371,80,50702,1,0,0:2:0:0:
370,84,50788,1,8,0:2:0:0:
370,88,50874,1,8,0:2:0:0:
369,93,50960,1,6,0:2:0:0:
307,146,51817,5,0,0:2:0:0:
308,150,51902,1,0,0:2:0:0:
309,154,51988,1,2,0:2:0:0:
357,214,52331,5,2,0:2:0:0:
328,287,52674,5,2,0:2:0:0:
348,359,53017,5,2,0:2:0:0:
348,359,54045,5,2,0:2:0:0:
357,214,54731,5,0,0:2:0:0:
328,287,54902,1,0,0:2:0:0:
348,359,55074,5,2,0:2:0:0:
482,292,55417,1,0,0:2:0:0:
357,214,55760,1,0,0:2:0:0:
397,290,56102,5,2,0:2:0:0:
437,222,56445,1,2,0:2:0:0:
447,144,56788,1,2,0:2:0:0:
397,290,57131,5,2,0:2:0:0:
397,290,57817,5,2,0:2:0:0:
447,144,57988,1,0,0:2:0:0:
298,171,58160,5,2,0:2:0:0:
379,203,58331,1,0,0:2:0:0:
447,144,58502,1,0,0:2:0:0:
430,62,58674,1,0,0:2:0:0:
355,24,58845,5,2,0:2:0:0:
256,96,59017,1,0,0:2:0:0:
157,24,59188,5,2,0:2:0:0:
115,91,60045,5,2,0:2:0:0:
116,95,60131,1,0,0:2:0:0:
117,99,60217,1,2,0:2:0:0:
155,164,60560,5,2,0:2:0:0:
234,76,60902,5,2,0:2:0:0:
286,233,61245,5,2,0:2:0:0:
286,233,61931,5,2,0:2:0:0:
313,155,62102,1,0,0:2:0:0:
234,171,62274,1,2,0:2:0:0:
220,281,62445,5,0,0:2:0:0:
147,270,62617,1,0,0:2:0:0:
95,364,62788,5,0,0:2:0:0:
23,334,62960,1,2,0:2:0:0:
102,209,63131,1,0,0:2:0:0:
172,339,63302,5,2,0:2:0:0:
243,354,63645,1,2,0:2:0:0:
307,318,63988,1,2,0:2:0:0:
448,261,64331,5,2,0:2:0:0:
377,276,64674,1,2,0:2:0:0:
313,240,65017,1,2,0:2:0:0:
356,82,65360,5,2,0:2:0:0:
356,82,66045,5,2,0:2:0:0:
376,201,66217,1,0,0:2:0:0:
263,156,66388,1,2,0:2:0:0:
191,195,66560,5,0,0:2:0:0:
137,131,66731,1,0,0:2:0:0:
61,161,66902,1,0,0:2:0:0:
7,101,67074,5,2,0:2:0:0:
8,96,67160,1,0,0:2:0:0:
8,92,67245,1,0,0:2:0:0:
9,88,67331,1,0,0:2:0:0:
9,84,67417,1,6,3:2:0:0:
113,250,68274,5,0,0:2:0:0:
112,246,68360,1,0,0:2:0:0:
112,242,68445,1,6,3:2:0:0:
156,176,68960,5,2,3:2:0:0:
220,256,69131,1,10,0:2:0:0:
296,129,69302,1,2,0:2:0:0:
417,283,69474,1,6,3:2:0:0:
417,283,70331,5,0,0:2:0:0:
418,279,70417,1,0,0:2:0:0:
418,275,70502,1,6,3:2:0:0:
362,214,70845,5,2,0:2:0:0:
476,174,71188,1,10,0:2:0:0:
356,344,71531,1,6,3:2:0:0:
356,344,72388,5,2,0:2:0:0:
356,348,72474,1,0,0:2:0:0:
357,352,72560,1,6,3:2:0:0:
286,382,72902,5,2,0:2:0:0:
156,266,73245,1,10,0:2:0:0:
84,292,73588,1,6,3:2:0:0:
84,292,75131,5,2,3:2:0:0:
286,382,75302,1,10,0:2:0:0:
262,164,75474,1,2,0:2:0:0:
209,272,75645,5,6,3:2:0:0:
284,252,75988,1,10,0:2:0:0:
359,232,76331,1,2,0:2:0:0:
178,173,76502,5,0,0:2:0:0:
174,171,76588,1,0,0:2:0:0:
170,171,76674,1,6,3:2:0:0:
230,117,76845,5,8,0:2:0:0:
95,151,77017,5,2,0:2:0:0:
20,131,77360,1,10,0:2:0:0:
150,97,77531,5,2,0:2:0:0:
311,137,77702,5,6,3:2:0:0:
386,117,78045,1,10,0:2:0:0:
461,97,78388,1,2,0:2:0:0:
315,39,78560,5,0,0:2:0:0:
311,37,78645,1,0,0:2:0:0:
307,37,78731,1,6,3:2:0:0:
199,104,78902,5,8,0:2:0:0:
203,102,78988,1,0,0:2:0:0:
207,102,79074,5,0,0:0:0:0:
244,125,79160,1,0,0:0:0:0:
256,166,79245,1,0,0:0:0:0:
240,207,79331,1,0,0:0:0:0:
200,225,79417,5,10,0:0:0:0:
160,256,79502,1,2,0:0:0:0:
151,308,79588,1,10,0:0:0:0:
172,355,79674,1,2,0:0:0:0:
220,373,79760,6,0,P|272:360|321:350,1,87.5,6|0,3:2|0:2,0:0:0:0:
452,380,80102,1,10,0:2:0:0:
339,257,80274,1,0,0:2:0:0:
483,160,80445,2,0,P|482:199|458:253,1,87.5,2|8,0:2|0:2,0:0:0:0:
453,250,80702,1,0,0:2:0:0:
441,253,80788,5,6,3:2:0:0:
418,83,80960,1,0,0:2:0:0:
350,162,81131,1,10,0:2:0:0:
350,162,81217,1,0,0:0:0:0:
350,162,81302,2,0,L|419:177,1,43.75,0|0,3:2|0:0,0:0:0:0:
418,83,81474,5,2,0:2:0:0:
417,77,81560,1,0,0:0:0:0:
416,72,81645,1,8,0:2:0:0:
415,66,81731,1,0,0:2:0:0:
414,61,81817,5,12,3:2:0:0:
162,162,81988,1,2,3:2:0:0:
350,162,82160,5,10,3:2:0:0:
98,61,82331,1,2,3:2:0:0:
256,0,82502,5,0,0:0:0:0:
256,0,82674,2,0,L|256:48,1,43.75,0|0,3:2|0:2,0:0:0:0:
256,128,82845,5,14,3:2:0:0:
256,135,82931,1,0,0:2:0:0:
256,142,83017,1,0,0:2:0:0:
256,149,83102,1,0,0:2:0:0:
256,157,83188,1,0,0:2:0:0:
256,164,83274,1,0,0:2:0:0:
256,171,83360,1,0,0:2:0:0:
256,179,83445,1,0,0:2:0:0:
256,186,83531,1,10,0:2:0:0:
256,193,83617,1,0,0:2:0:0:
256,200,83702,1,10,0:2:0:0:
256,208,83788,1,0,0:2:0:0:
256,215,83874,5,6,0:2:0:0:
241,90,87474,5,2,0:2:0:0:
259,100,87560,1,0,0:2:0:0:
306,100,87645,5,2,0:2:0:0:
324,110,87731,1,0,0:2:0:0:
371,110,87817,5,2,0:2:0:0:
389,120,87902,1,0,0:2:0:0:
436,120,87988,6,0,P|395:128|326:206,1,119.000000726318,6|0,3:2|0:2,0:0:0:0:
158,205,88245,2,0,P|199:198|290:248,1,119.000000726318,8|0,0:2|0:0,0:0:0:0:
345,262,88502,2,0,L|335:328,1,59.5000003631592,8|0,0:2|0:2,0:0:0:0:
273,377,88674,5,2,0:2:0:0:
121,290,88845,5,8,0:2:0:0:
121,290,88931,1,0,0:2:0:0:
121,290,89017,2,0,P|106:220|73:143,1,119.000000726318,6|0,3:2|0:2,0:0:0:0:
178,16,89274,2,0,P|187:75|139:129,1,119.000000726318,8|0,0:2|0:0,0:0:0:0:
74,93,89531,1,8,0:2:0:0:
260,14,89702,5,2,0:2:0:0:
338,120,89874,1,10,0:2:0:0:
507,74,90045,6,0,L|374:55,1,119.000000726318,6|0,3:2|0:2,0:0:0:0:
338,120,90302,2,0,P|271:130|213:173,1,119.000000726318,8|0,0:2|0:2,0:0:0:0:
194,231,90560,1,10,0:2:0:0:
74,93,90731,5,2,0:2:0:0:
253,54,90902,1,10,0:2:0:0:
194,231,91074,1,6,3:2:0:0:
173,110,91245,5,0,0:2:0:0:
172,117,91331,1,8,0:2:0:0:
170,122,91417,5,0,0:0:0:0:
199,154,91502,1,0,0:0:0:0:
240,167,91588,1,8,0:0:0:0:
282,164,91674,1,0,0:0:0:0:
316,137,91760,5,10,0:2:0:0:
354,98,91845,1,8,0:2:0:0:
408,90,91931,1,8,0:2:0:0:
459,112,92017,1,8,0:2:0:0:
486,164,92102,6,0,L|464:300,1,119.000000726318,6|0,3:2|0:2,0:0:0:0:
334,194,92360,2,0,L|405:318,1,119.000000726318,8|0,0:2|0:0,0:0:0:0:
289,335,92617,2,0,L|345:354,1,59.5000003631592,8|0,0:2|0:2,0:0:0:0:
432,362,92788,5,2,0:2:0:0:
249,265,92960,5,8,0:2:0:0:
249,265,93045,1,0,0:2:0:0:
249,265,93131,2,0,P|186:271|120:200,1,119.000000726318,6|0,3:2|0:2,0:0:0:0:
0,360,93388,2,0,P|51:323|54:226,1,119.000000726318,8|0,0:2|0:0,0:0:0:0:
31,203,93645,1,8,0:2:0:0:
217,145,93817,5,2,0:2:0:0:
87,62,93988,1,10,0:2:0:0:
244,18,94160,6,0,P|176:-5|116:4,1,119.000000726318,4|0,3:2|0:2,0:0:0:0:
87,62,94417,2,0,P|25:99|-6:151,1,119.000000726318,8|0,0:2|0:2,0:0:0:0:
31,203,94674,1,10,0:2:0:0:
199,258,94845,5,2,0:2:0:0:
180,164,95017,1,10,0:2:0:0:
161,70,95188,1,6,3:2:0:0:
387,103,95360,5,10,0:2:0:0:
385,109,95445,1,0,0:0:0:0:
376,137,95531,5,2,0:2:0:0:
374,143,95617,1,0,0:0:0:0:
367,168,95702,5,10,0:2:0:0:
366,175,95788,1,2,0:2:0:0:
364,180,95874,1,2,0:2:0:0:
363,187,95960,1,0,0:0:0:0:
361,192,96045,1,10,0:2:0:0:
359,197,96131,1,0,0:0:0:0:
350,228,96217,6,0,P|310:175|317:92,1,119.000000726318,6|0,3:2|0:2,0:0:0:0:
156,31,96474,2,0,P|221:60|281:49,1,119.000000726318,8|0,0:2|0:0,0:0:0:0:
330,7,96731,2,0,L|412:25,1,59.5000003631592,8|0,0:2|0:2,0:0:0:0:
459,54,96902,5,2,0:2:0:0:
464,205,97074,5,8,0:2:0:0:
464,205,97160,1,0,0:2:0:0:
464,205,97245,2,0,P|409:206|327:242,1,119.000000726318,6|0,3:2|0:2,0:0:0:0:
270,199,97502,2,0,P|255:268|230:340,1,119.000000726318,8|0,0:2|0:0,0:0:0:0:
173,365,97760,1,8,0:2:0:0:
349,227,97931,5,2,0:2:0:0:
207,141,98102,1,10,0:2:0:0:
79,240,98274,6,0,P|142:248|212:183,1,119.000000726318,6|0,3:2|0:2,0:0:0:0:
207,141,98531,2,0,P|219:92|227:6,1,119.000000726318,10|0,0:2|0:2,0:0:0:0:
153,0,98788,1,10,0:2:0:0:
355,78,98960,5,2,0:2:0:0:
188,222,99131,1,10,0:2:0:0:
153,0,99302,1,6,3:2:0:0:
229,116,99474,5,0,0:2:0:0:
231,111,99560,1,8,0:2:0:0:
232,104,99645,5,0,0:0:0:0:
197,76,99731,1,0,0:0:0:0:
151,77,99817,1,8,0:0:0:0:
116,105,99902,1,0,0:0:0:0:
74,87,99988,5,10,0:2:0:0:
95,139,100074,1,8,0:2:0:0:
87,194,100160,1,8,0:2:0:0:
54,240,100245,1,8,0:2:0:0:
1,258,100331,6,0,P|67:261|139:281,1,119.000000726318,6|0,3:2|0:0,0:0:0:0:
185,312,100588,2,0,L|249:305,1,59.5000003631592,0|10,0:0|0:0,0:0:0:0:
374,191,100845,2,0,L|438:184,1,59.5000003631592
500,224,101017,2,0,L|512:105,1,119.000000726318,10|2,0:2|0:2,0:0:0:0:
506,90,101274,1,0,0:2:0:0:
497,76,101360,6,0,P|429:73|373:28,1,119.000000726318,14|0,3:2|0:0,0:0:0:0:
226,6,101702,1,10,0:0:0:0:
277,174,101874,1,0,0:0:0:0:
219,107,102045,5,10,0:0:0:0:
248,88,102131,1,0,0:0:0:0:
285,89,102217,2,0,L|357:111,1,59.5000003631592,2|0,0:0|0:0,0:0:0:0:
363,185,102388,5,14,3:2:0:0:
237,255,102560,1,2,0:0:0:0:
217,252,102645,1,2,0:0:0:0:
201,249,102731,1,14,0:0:0:0:
305,323,102902,1,2,0:0:0:0:
277,174,103074,5,14,0:0:0:0:
140,357,103245,2,0,L|126:268,1,59.5000003631592,2|2,0:0|0:0,0:0:0:0:
87,234,103417,5,12,3:2:0:0:
199,130,103588,1,0,0:2:0:0:
196,150,103674,1,0,0:0:0:0:
193,166,103760,1,10,0:0:0:0:
43,108,103931,1,2,0:0:0:0:
40,92,104017,1,0,0:0:0:0:
37,71,104102,5,10,0:0:0:0:
86,83,104188,1,10,0:0:0:0:
135,77,104274,1,10,0:0:0:0:
174,46,104360,1,10,0:0:0:0:
192,0,104445,5,6,3:2:0:0:
354,40,104617,2,0,P|306:49|226:70,1,92.7500001415253,0|10,0:0|0:0,0:0:0:0:
110,167,104960,1,2,0:0:0:0:
190,234,105131,2,0,P|238:225|318:204,1,92.7500001415253,2|10,0:0|0:0,0:0:0:0:
294,207,105388,1,0,0:0:0:0:
306,196,105474,6,0,P|298:247|292:312,1,92.7500001415253,2|0,3:2|0:0,0:0:0:0:
240,140,105817,1,10,0:0:0:0:
388,213,105988,1,0,0:0:0:0:
214,367,106160,2,0,P|208:320|201:275,1,92.7500001415253,2|10,0:0|0:0,0:0:0:0:
201,275,106417,1,2,0:0:0:0:
201,275,106502,6,0,L|303:288,1,92.7500001415253,6|0,3:2|0:0,0:0:0:0:
119,356,106845,1,10,0:0:0:0:
48,200,107017,1,2,0:0:0:0:
117,267,107188,5,2,0:0:0:0:
198,98,107360,1,10,0:0:0:0:
198,98,107445,1,0,0:0:0:0:
198,98,107531,1,2,3:2:0:0:
134,172,107702,1,8,0:0:0:0:
11,71,107874,6,0,P|60:77|111:86,1,92.7500001415253,2|0,0:2|0:0,0:0:0:0:
368,49,108217,2,0,P|318:42|268:34,1,92.7500001415253,2|10,0:0|0:0,0:0:0:0:
264,30,108474,1,2,0:0:0:0:
253,23,108560,5,6,3:2:0:0:
212,189,108731,2,0,L|198:98,1,92.7500001415253,0|10,0:0|0:0,0:0:0:0:
239,333,109074,1,2,0:0:0:0:
317,266,109245,2,0,L|337:121,1,139.125000212288,2|0,0:0|0:0,0:0:0:0:
333,117,109588,6,0,P|387:124|446:130,1,92.7500001415253,2|0,3:2|0:0,0:0:0:0:
495,185,109931,1,10,0:0:0:0:
510,99,110102,1,0,0:0:0:0:
431,301,110274,6,0,P|417:232|403:186,1,92.7500001415253,2|10,0:0|0:0,0:0:0:0:
360,352,110617,2,0,P|312:324|177:310,1,185.500000283051,6|10,3:2|0:0,0:0:0:0:
49,366,111131,5,2,0:0:0:0:
49,366,111217,1,0,0:0:0:0:
49,366,111302,1,2,0:0:0:0:
171,188,111474,1,2,0:0:0:0:
98,269,111645,6,0,L|1:252,1,92.7500001415253,2|8,3:2|0:0,0:0:0:0:
262,171,111988,2,0,L|165:188,1,92.7500001415253,2|10,0:0|0:0,0:0:0:0:
328,52,112331,5,10,0:0:0:0:
321,56,112417,1,10,0:0:0:0:
315,60,112502,1,10,0:0:0:0:
308,64,112588,1,10,0:0:0:0:
301,68,112674,5,6,3:2:0:0:
371,212,112845,2,0,P|385:159|387:103,1,92.7500001415253,0|10,0:0|0:0,0:0:0:0:
273,341,113188,1,2,0:0:0:0:
187,277,113360,2,0,P|173:224|171:168,1,92.7500001415253,2|10,0:0|0:0,0:0:0:0:
173,175,113617,1,0,0:0:0:0:
179,165,113702,6,0,P|130:178|61:193,1,92.7500001415253,0|0,3:2|0:0,0:0:0:0:
258,213,114045,1,8,0:0:0:0:
147,77,114217,1,0,0:0:0:0:
349,17,114388,2,0,L|324:140,1,92.7500001415253,2|10,0:0|0:0,0:0:0:0:
330,107,114645,1,2,0:0:0:0:
330,107,114731,6,0,P|276:97|221:90,1,92.7500001415253,6|0,3:2|0:0,0:0:0:0:
417,53,115074,1,10,0:0:0:0:
346,209,115245,1,2,0:0:0:0:
431,152,115417,5,0,0:0:0:0:
497,337,115588,1,10,0:0:0:0:
497,337,115674,1,0,0:0:0:0:
497,337,115760,1,0,3:2:0:0:
430,256,115931,1,8,0:0:0:0:
312,368,116102,6,0,P|365:361|422:331,1,92.7500001415253
160,215,116445,2,0,P|127:172|108:111,1,92.7500001415253,2|10,0:0|0:0,0:0:0:0:
111,124,116702,1,2,0:0:0:0:
114,112,116788,5,6,3:2:0:0:
242,248,116960,1,10,0:0:0:0:
78,280,117131,1,2,0:0:0:0:
225,158,117302,1,2,0:0:0:0:
285,350,117474,6,0,P|240:338|166:325,1,92.7500001415253,8|0,0:0|0:0,0:0:0:0:
182,328,117731,1,0,0:0:0:0:
170,329,117817,5,6,3:2:0:0:
397,289,117988,1,10,0:0:0:0:
225,158,118160,1,2,0:0:0:0:
284,262,118331,1,2,0:0:0:0:
361,63,118502,6,0,P|351:107|339:178,1,92.7500001415253,10|0,0:0|0:0,0:0:0:0:
343,168,118760,1,0,0:0:0:0:
345,181,118845,1,6,3:2:0:0:
237,24,119017,6,0,L|248:84,1,46.3750000707626,10|0,0:0|0:0,0:0:0:0:
225,158,119188,1,2,0:0:0:0:
467,108,119360,6,0,L|456:168,1,46.3750000707626,0|0,3:1|0:0,0:0:0:0:
479,242,119531,1,10,0:0:0:0:
279,239,119702,6,0,L|290:299,1,46.3750000707626,0|2,3:0|0:0,0:0:0:0:
338,350,119874,5,14,0:0:0:0:
292,343,119960,1,2,0:0:0:0:
247,336,120045,1,2,0:0:0:0:
201,329,120131,1,2,0:0:0:0:
155,322,120217,1,2,0:0:0:0:
110,315,120302,1,2,0:0:0:0:
64,308,120388,2,0,L|-1:295,1,46.3750000707626,2|2,0:0|0:0,0:0:0:0:
105,233,120560,5,10,0:0:0:0:
105,233,120645,1,0,0:0:0:0:
105,233,120731,2,0,L|40:220,1,46.3750000707626,10|0,0:0|0:0,0:0:0:0:
83,147,120902,5,0,3:1:0:0:
77,145,120988,1,0,0:0:0:0:
71,144,121074,1,0,0:0:0:0:
65,143,121160,1,0,0:0:0:0:
60,142,121245,5,6,0:0:0:0:
