osu file format v14

[General]
AudioFilename: audio.mp3
AudioLeadIn: 0
PreviewTime: 86952
Countdown: 0
SampleSet: Soft
StackLeniency: 0.2
Mode: 0
LetterboxInBreaks: 0
EpilepsyWarning: 1
WidescreenStoryboard: 1

[Editor]
Bookmarks: 3894,9809,10152,12209,14523,15552,18037,20737,26266,33123,34494,50952,52323,67409,83866,87980,104437,112709,121237
DistanceSpacing: 0.8
BeatDivisor: 4
GridSize: 4
TimelineZoom: 2.400006

[Metadata]
Title:Crystal Illusion
TitleUnicode:Crystal Illusion
Artist:P4koo
ArtistUnicode:P4koo
Creator:Riana
Version:[ -Scarlet- ]'s Expert
Source:
Tags:omc#3 dailycare morinaga skymin [_-scarlet-_] scarlet [ -scarlet- ] instrumental electronic
BeatmapID:1962277
BeatmapSetID:791944

[Difficulty]
HPDrainRate:6
CircleSize:5
OverallDifficulty:8.4
ApproachRate:9.3
SliderMultiplier:2
SliderTickRate:1

[Events]
//Background and Video events
0,0,"bg.jpg",0,0
//Break Periods
2,18245,21606
//Storyboard Layer 0 (Background)
//Storyboard Layer 1 (Fail)
//Storyboard Layer 2 (Pass)
//Storyboard Layer 3 (Foreground)
//Storyboard Layer 4 (Overlay)
//Storyboard Sound Samples

[TimingPoints]
560,342.857142857143,3,2,1,40,1,0
1588,-125,3,2,1,40,0,0
3645,-100,3,2,1,40,0,0
5702,-125,3,2,1,40,0,0
9817,-100,3,2,1,40,0,0
11702,-83.3333333333333,3,2,1,40,0,0
13245,-100,3,2,1,40,0,0
13588,-125,3,2,1,40,0,0
13931,-83.3333333333333,3,2,1,40,0,0
14960,-71.4285714285714,3,2,1,40,0,0
15302,-100,3,2,1,40,0,0
15645,-125,3,2,1,40,0,0
16331,-100,3,2,1,40,0,0
16674,-83.3333333333333,3,2,1,40,0,0
17017,-100,3,2,1,40,0,0
17702,-83.3333333333333,3,2,1,40,0,0
17874,-71.4285714285714,3,2,1,40,0,0
22160,-333.333333333333,3,2,1,40,0,0
22845,-250,3,2,1,40,0,0
23531,-200,3,2,1,40,0,0
24217,-166.666666666667,3,2,1,40,0,0
24560,-142.857142857143,3,2,1,40,0,0
24902,-125,3,2,1,40,0,0
25245,-100,3,2,1,40,0,0
25417,-90.9090909090909,3,2,1,40,0,0
25588,-83.3333333333333,3,2,1,40,0,0
25760,-76.9230769230769,3,2,1,40,0,0
25931,-71.4285714285714,3,2,1,40,0,0
26102,-66.6666666666667,3,2,1,40,0,0
26274,-83.3333333333333,3,2,1,40,0,0
31417,-100,3,2,1,40,0,0
31760,-83.3333333333333,3,2,1,40,0,0
32102,-71.4285714285714,3,2,1,40,0,0
32445,-100,3,2,1,40,0,0
34502,-100,4,2,2,40,0,1
34588,-100,4,2,2,35,0,0
34845,-100,4,2,2,45,0,0
35017,-100,4,2,2,60,0,0
35188,-66.6666666666667,4,2,2,65,0,0
35360,-66.6666666666667,4,2,2,70,0,0
35531,-100,4,2,2,40,0,1
35617,-100,4,2,2,35,0,0
35874,-100,4,2,2,45,0,0
36045,-100,4,2,2,60,0,0
36217,-66.6666666666667,4,2,2,65,0,0
36388,-66.6666666666667,4,2,2,70,0,0
36560,-100,4,2,2,40,0,1
36645,-100,4,2,2,35,0,0
36902,-100,4,2,2,45,0,0
37074,-100,4,2,2,60,0,0
37245,-66.6666666666667,4,2,2,65,0,0
37417,-66.6666666666667,4,2,2,70,0,0
37588,-100,4,2,2,40,0,1
37674,-100,4,2,2,35,0,0
37931,-100,4,2,2,45,0,0
38102,-100,4,2,2,60,0,0
38274,-66.6666666666667,4,2,2,65,0,0
38445,-66.6666666666667,4,2,2,70,0,0
38617,-100,4,2,2,40,0,1
38702,-100,4,2,2,35,0,0
38960,-100,4,2,2,45,0,0
39131,-100,4,2,2,60,0,0
39302,-66.6666666666667,4,2,2,65,0,0
39474,-66.6666666666667,4,2,2,70,0,0
39645,-100,4,2,2,40,0,1
39731,-100,4,2,2,35,0,0
39988,-100,4,2,2,45,0,0
40160,-100,4,2,2,60,0,0
40331,-66.6666666666667,4,2,2,65,0,0
40502,-66.6666666666667,4,2,2,70,0,0
40674,-100,4,2,2,40,0,1
40760,-100,4,2,2,35,0,0
41017,-100,4,2,2,45,0,0
41360,-100,4,2,2,60,0,0
41702,-100,4,2,2,80,0,0
42217,-66.6666666666667,4,2,2,80,0,0
42560,-66.6666666666667,4,2,2,80,0,0
42731,-100,4,2,2,40,0,1
42817,-100,4,2,2,35,0,0
43074,-100,4,2,2,45,0,0
43245,-100,4,2,2,60,0,0
43417,-66.6666666666667,4,2,2,65,0,0
43588,-66.6666666666667,4,2,2,70,0,0
43760,-100,4,2,2,40,0,1
43845,-100,4,2,2,30,0,0
44102,-100,4,2,2,45,0,0
44274,-100,4,2,2,60,0,0
44445,-66.6666666666667,4,2,2,65,0,0
44617,-66.6666666666667,4,2,2,70,0,0
44788,-100,4,2,2,40,0,1
44874,-100,4,2,2,35,0,0
45131,-100,4,2,2,45,0,0
45302,-100,4,2,2,60,0,0
45474,-66.6666666666667,4,2,2,65,0,0
45645,-66.6666666666667,4,2,2,70,0,0
45817,-100,4,2,2,40,0,1
45902,-100,4,2,2,35,0,0
46160,-100,4,2,2,45,0,0
46331,-100,4,2,2,60,0,0
46502,-66.6666666666667,4,2,2,65,0,0
46674,-66.6666666666667,4,2,2,70,0,0
46845,-100,4,2,2,40,0,1
46931,-100,4,2,2,35,0,0
47188,-100,4,2,2,45,0,0
47360,-100,4,2,2,60,0,0
47531,-66.6666666666667,4,2,2,65,0,0
47702,-66.6666666666667,4,2,2,70,0,0
47874,-100,4,2,2,40,0,1
47960,-100,4,2,2,35,0,0
48217,-100,4,2,2,45,0,0
48388,-100,4,2,2,60,0,0
48560,-66.6666666666667,4,2,2,65,0,0
48731,-66.6666666666667,4,2,2,70,0,0
48902,-100,4,2,2,40,0,1
48988,-100,4,2,2,35,0,0
49245,-100,4,2,2,45,0,0
49417,-100,4,2,2,60,0,0
49588,-66.6666666666667,4,2,2,65,0,0
49760,-66.6666666666667,4,2,2,70,0,0
49931,-100,4,2,2,85,0,0
50274,-100,4,2,2,80,0,0
50360,-100,4,2,2,60,0,0
50960,-117.647058823529,4,2,1,40,0,0
67417,-100,4,2,1,50,0,0
81817,-100,4,2,1,60,0,0
87302,-100,4,2,1,50,0,0
87988,-83.3333333333333,4,2,2,70,0,1
90731,-100,4,2,2,70,0,1
90902,-125,4,2,2,70,0,1
91074,-83.3333333333333,4,2,2,70,0,1
94845,-71.4285714285714,4,2,2,70,0,1
95017,-62.5,4,2,2,70,0,1
95188,-83.3333333333333,4,2,2,70,0,1
98960,-100,4,2,2,70,0,1
99131,-125,4,2,2,70,0,1
99302,-83.3333333333333,4,2,2,70,0,1
103074,-71.4285714285714,4,2,2,70,0,1
103245,-62.5,4,2,2,70,0,1
103417,-50,4,2,2,70,0,1
103931,-83.3333333333333,4,2,2,70,0,1
104102,-83.3333333333333,4,2,2,40,0,0
104445,-100,4,2,2,65,0,1
104531,-100,4,2,2,55,0,0
104788,-100,4,2,2,75,0,0
105131,-66.6666666666667,4,2,2,75,0,0
105474,-100,4,2,2,75,0,1
105560,-100,4,2,2,55,0,0
105817,-100,4,2,2,75,0,0
106160,-66.6666666666667,4,2,2,75,0,0
106502,-76.9230769230769,4,2,2,75,0,1
106588,-100,4,2,2,55,0,0
106845,-100,4,2,2,75,0,0
107017,-100,4,2,2,75,0,0
107188,-66.6666666666667,4,2,2,75,0,0
107531,-100,4,2,2,75,0,1
107874,-100,4,2,2,75,0,0
108217,-66.6666666666667,4,2,2,75,0,0
108560,-100,4,2,2,75,0,1
108645,-100,4,2,2,55,0,0
108902,-100,4,2,2,75,0,0
109245,-66.6666666666667,4,2,2,75,0,0
109588,-100,4,2,2,75,0,1
109674,-100,4,2,2,75,0,0
110274,-66.6666666666667,4,2,2,75,0,0
110617,-76.9230769230769,4,2,2,75,0,1
110702,-100,4,2,2,55,0,0
110960,-100,4,2,2,75,0,0
111131,-100,4,2,2,75,0,0
111302,-66.6666666666667,4,2,2,75,0,0
111645,-100,4,2,2,75,0,1
111731,-100,4,2,2,55,0,0
111988,-100,4,2,2,75,0,0
112160,-100,4,2,2,75,0,0
112331,-100,4,2,2,50,0,0
112674,-100,4,2,2,75,0,1
112760,-100,4,2,2,55,0,0
113017,-100,4,2,2,75,0,0
113188,-100,4,2,2,75,0,0
113360,-66.6666666666667,4,2,2,75,0,0
113702,-100,4,2,2,75,0,1
113788,-100,4,2,2,55,0,0
114045,-100,4,2,2,75,0,0
114388,-66.6666666666667,4,2,2,75,0,0
114731,-100,4,2,2,75,0,1
114817,-100,4,2,2,55,0,0
115074,-100,4,2,2,75,0,0
115245,-100,4,2,2,75,0,0
115417,-66.6666666666667,4,2,2,75,0,0
115760,-100,4,2,2,75,0,1
115845,-100,4,2,2,55,0,0
116102,-100,4,2,2,75,0,0
116445,-66.6666666666667,4,2,2,75,0,0
116788,-100,4,2,2,65,0,1
116874,-100,4,2,2,65,0,0
117474,-66.6666666666667,4,2,2,65,0,0
117817,-100,4,2,2,75,0,1
117902,-100,4,2,2,75,0,0
118502,-66.6666666666667,4,2,2,75,0,0
118845,-100,4,2,2,85,0,1
118974,-100,4,2,2,85,0,0
119531,-66.6666666666667,4,2,2,85,0,0
119874,-100,4,2,2,85,0,0
120902,-166.666666666667,4,2,2,40,0,0
121245,-100,4,2,2,95,0,0

[Colours]
Combo1 : 131,98,185
Combo2 : 83,179,181
Combo3 : 141,152,228
Combo4 : 56,165,143

[HitObjects]
47,93,1245,5,0,0:2:0:0:
53,121,1331,1,0,0:2:0:0:
60,150,1417,1,0,0:2:0:0:
70,178,1502,1,0,0:2:0:0:
78,206,1588,5,2,0:2:0:0:
157,222,1760,1,0,0:2:0:0:
227,184,1931,1,2,0:2:0:0:
265,114,2102,1,0,0:2:0:0:
263,33,2274,1,0,0:2:0:0:
421,110,2445,1,0,0:2:0:0:
408,84,2531,1,0,0:2:0:0:
415,56,2617,6,0,P|375:51|338:76,1,80,2|0,0:2|0:2,0:0:0:0:
265,114,2960,2,0,P|224:104|193:150,1,80,2|0,0:2|0:2,0:0:0:0:
132,178,3302,2,0,P|81:183|77:223,1,80,0|0,0:2|0:2,0:0:0:0:
144,354,3645,6,0,P|148:297|126:241,1,100,2|0,0:2|0:0,0:0:0:0:
135,256,3988,1,0,0:2:0:0:
229,332,4160,1,0,0:2:0:0:
347,347,4331,1,2,0:2:0:0:
452,291,4502,1,0,0:2:0:0:
510,185,4674,5,2,0:2:0:0:
510,185,5360,1,0,0:2:0:0:
494,117,5531,1,0,0:2:0:0:
476,49,5702,6,0,P|421:57|382:91,1,80,2|0,0:2|0:2,0:0:0:0:
337,167,6045,1,0,0:2:0:0:
356,153,6217,1,0,0:2:0:0:
292,38,6388,1,0,0:2:0:0:
315,40,6560,1,0,0:2:0:0:
241,208,6731,6,0,P|220:160|219:114,1,80,2|0,0:2|0:2,0:0:0:0:
292,38,7074,1,2,0:2:0:0:
286,61,7245,1,0,0:2:0:0:
154,36,7417,1,2,0:2:0:0:
162,58,7588,1,0,0:2:0:0:
28,170,7760,6,0,B|47:118|97:106|97:106|127:148|181:137,1,160,2|0,0:2|0:2,0:0:0:0:
241,23,8274,1,0,0:2:0:0:
162,58,8445,1,2,0:2:0:0:
233,109,8617,1,0,0:2:0:0:
130,215,8788,5,2,0:2:0:0:
162,58,8960,1,0,0:2:0:0:
252,223,9131,5,2,0:2:0:0:
233,109,9302,1,0,0:2:0:0:
363,213,9474,5,2,0:2:0:0:
351,187,9560,1,2,0:2:0:0:
354,157,9645,1,2,0:2:0:0:
343,130,9731,1,2,0:2:0:0:
345,108,9817,6,0,P|419:103|447:120,1,100,6|0,0:0|0:3,0:0:0:0:
504,259,10074,1,0,0:2:0:0:
438,282,10160,2,0,P|438:206|450:171,1,100,10|2,0:2|0:2,0:0:0:0:
496,67,10417,1,0,0:2:0:0:
479,49,10502,6,0,P|456:38|428:41,1,50,0|0,0:0|0:0,0:0:0:0:
269,148,10674,1,0,0:0:0:0:
288,85,10760,1,0,0:0:0:0:
330,36,10845,6,0,P|364:85|374:141,1,100,2|10,0:2|0:2,0:0:0:0:
343,267,11102,1,0,0:0:0:0:
284,223,11188,2,0,P|229:235|189:279,1,100,0|2,0:2|0:2,0:0:0:0:
155,372,11445,1,0,0:2:0:0:
141,364,11531,6,0,P|135:339|155:304,1,50,2|0,0:2|0:2,0:2:0:0:
68,312,11702,2,0,P|70:286|102:260,1,59.9999981689454,10|0,0:2|0:2,0:2:0:0:
150,155,11874,6,0,P|178:195|198:278,1,119.999996337891,6|0,0:2|0:2,0:0:0:0:
341,346,12131,1,0,0:2:0:0:
344,281,12217,2,0,P|277:291|235:342,1,119.999996337891,10|2,0:2|0:2,0:0:0:0:
78,330,12474,1,0,0:2:0:0:
93,262,12560,6,0,L|115:144,1,119.999996337891,2|0,0:2|0:2,0:2:0:0:
183,36,12817,1,0,0:0:0:0:
193,49,12902,6,0,L|262:35,1,59.9999981689454,0|0,0:2|0:0,0:0:0:0:
314,129,13074,2,0,L|255:140,1,59.9999981689454,10|0,0:2|0:2,0:0:0:0:
264,54,13245,6,0,L|334:44,1,50,2|0,0:2|0:0,0:0:0:0:
379,138,13417,2,0,L|329:145,1,50,0|0,0:2|0:2,0:0:0:0:
337,60,13588,6,0,L|403:50,1,40,10|0,0:2|0:2,0:0:0:0:
441,144,13760,2,0,L|402:151,1,40,8|0,0:2|0:2,0:0:0:0:
460,30,13931,6,0,P|464:92|428:159,1,119.999996337891,6|0,0:0|0:0,0:0:0:0:
416,307,14188,1,0,0:0:0:0:
349,322,14274,2,0,P|337:276|355:205,1,119.999996337891,10|0,0:2|0:2,0:0:0:0:
498,189,14531,1,0,0:0:0:0:
484,205,14617,6,0,P|460:220|411:204,1,59.9999981689454,2|0,0:2|0:2,0:0:0:0:
221,45,14788,1,8,0:0:0:0:
286,35,14874,1,0,0:2:0:0:
352,27,14960,6,0,B|395:51|395:51|358:205,1,139.999995727539,6|0,0:2|0:2,0:2:0:0:
242,191,15217,1,0,0:2:0:0:
234,145,15302,6,0,L|221:45,1,100,10|0,0:2|0:2,0:0:0:0:
93,0,15560,1,0,0:2:0:0:
90,19,15645,6,0,L|79:117,1,80,2|10,0:2|0:2,0:0:0:0:
98,170,15902,1,0,0:2:0:0:
98,170,15988,6,0,P|117:162|136:145,1,40,6|0,0:2|0:2,0:0:0:0:
199,169,16160,2,0,P|203:154|197:120,1,40,2|0,0:2|0:2,0:0:0:0:
338,8,16331,6,0,P|331:27|332:56,1,50,10|0,0:2|0:2,0:0:0:0:
272,96,16502,2,0,P|280:108|315:126,1,50,2|0,0:2|0:2,0:0:0:0:
372,296,16674,6,0,P|349:279|313:275,1,59.9999981689454,2|0,0:2|0:2,0:0:0:0:
306,203,16845,2,0,P|284:209|255:234,1,59.9999981689454,10|0,0:2|0:2,0:0:0:0:
199,356,17017,6,0,P|203:331|184:286,1,50,2|2,0:2|0:2,0:0:0:0:
82,247,17188,1,10,0:2:0:0:
82,247,17274,1,2,0:2:0:0:
82,247,17360,2,0,P|109:231|125:206,1,50,2|2,0:2|0:2,0:0:0:0:
139,92,17531,1,2,0:2:0:0:
139,92,17617,1,2,0:2:0:0:
139,92,17702,6,0,P|172:92|199:67,1,59.9999981689454,10|0,0:2|0:2,0:0:0:0:
291,166,17874,2,0,P|315:133|316:82,1,69.9999978637696,10|0,0:2|0:2,0:0:0:0:
433,40,18045,5,6,0:2:0:0:
55,137,22160,6,0,L|96:129,1,29.9999990844727,2|0,0:0|0:0,0:0:0:0:
134,61,22502,2,0,L|104:56,1,29.9999990844727,0|0,0:0|0:0,0:0:0:0:
152,175,22845,6,0,P|163:155|165:132,1,40,2|0,0:0|0:0,0:0:0:0:
212,17,23188,2,0,P|223:46|221:67,1,40
272,145,23531,6,0,P|303:143|327:136,1,50,2|0,0:0|0:0,0:0:0:0:
375,43,23874,2,0,P|399:44|424:49,1,50,0|0,0:0|0:0,0:0:0:0:
490,233,24217,6,0,L|408:246,1,59.9999981689454,2|0,0:0|0:0,0:0:0:0:
367,311,24474,1,0,0:0:0:0:
358,297,24560,6,2,L|266:289,1,69.9999978637696,2|0,0:0|0:0,0:0:0:0:
231,212,24817,1,0,0:0:0:0:
223,226,24902,6,0,L|123:241,1,80,2|0,0:0|0:0,0:0:0:0:
100,339,25160,1,0,0:0:0:0:
107,351,25245,6,0,P|122:338|125:301,1,50,0|0,3:2|0:0,0:0:0:0:
143,237,25417,2,0,P|140:212|117:181,1,55.0000016784668,8|0,0:2|0:2,0:2:0:0:
9,122,25588,6,0,P|42:137|71:126,1,59.9999981689454,0|0,0:2|0:2,0:2:0:0:
154,101,25760,2,0,P|176:74|177:27,1,64.9999970245363,0|0,0:2|0:2,0:2:0:0:
61,7,25931,6,0,P|93:14|100:65,1,69.9999978637696,10|0,0:2|0:0,0:0:0:0:
164,166,26102,2,0,P|160:204|143:237,1,75.0000028610231,0|0,0:2|0:2,0:0:0:0:
22,340,26274,6,0,P|65:312|167:326,1,119.999996337891,2|0,3:2|0:2,0:0:0:0:
191,342,26531,1,0,0:2:0:0:
196,363,26617,1,10,0:2:0:0:
358,350,26788,1,0,0:2:0:0:
316,354,26874,1,0,0:0:0:0:
274,360,26960,6,0,L|256:228,1,119.999996337891,2|0,0:2|0:2,0:2:0:0:
248,175,27217,1,0,0:2:0:0:
241,109,27302,1,0,3:2:0:0:
370,25,27474,2,0,P|409:30|429:55,1,59.9999981689454,2|0,0:2|0:0,0:0:0:0:
485,94,27645,6,0,P|408:87|348:122,1,119.999996337891,10|0,0:2|0:2,0:0:0:0:
325,166,27902,1,0,0:2:0:0:
325,166,27988,2,0,P|311:202|344:232,1,59.9999981689454,2|0,0:2|0:2,0:2:0:0:
387,224,28160,2,0,P|401:188|368:158,1,59.9999981689454,10|0,0:2|0:2,0:2:0:0:
297,65,28331,6,0,P|244:94|167:103,1,119.999996337891,2|0,0:2|0:2,0:0:0:0:
136,59,28588,1,0,0:2:0:0:
135,37,28674,1,10,0:2:0:0:
37,151,28845,1,0,0:2:0:0:
77,139,28931,1,0,0:0:0:0:
117,127,29017,6,0,L|148:294,1,119.999996337891,2|0,0:2|0:2,0:0:0:0:
150,310,29274,1,0,0:2:0:0:
166,373,29360,1,0,3:2:0:0:
25,262,29531,2,0,P|51:231|84:228,1,59.9999981689454,10|0,0:2|0:0,0:0:0:0:
138,244,29702,6,0,P|201:243|265:205,1,119.999996337891,2|0,0:2|0:2,0:0:0:0:
267,148,29960,1,0,0:2:0:0:
267,148,30045,2,0,P|272:124|250:95,1,59.9999981689454,8|0,0:2|0:2,0:2:0:0:
187,114,30217,2,0,P|182:138|204:167,1,59.9999981689454,8|0,0:2|0:2,0:2:0:0:
279,355,30388,6,0,P|297:293|335:240,1,119.999996337891,2|0,3:2|0:2,0:0:0:0:
395,258,30645,1,0,0:2:0:0:
402,275,30731,1,10,0:2:0:0:
495,166,30902,1,2,0:2:0:0:
453,175,30988,1,0,0:2:0:0:
411,184,31074,6,0,L|417:60,1,119.999996337891,2|8,0:2|0:2,0:2:0:0:
322,50,31331,1,0,0:0:0:0:
329,41,31417,6,0,P|275:53|261:121,1,100,2|0,3:2|0:2,0:2:0:0:
177,83,31674,1,0,0:2:0:0:
171,69,31760,6,0,P|130:106|150:178,1,119.999996337891,10|2,0:2|0:2,0:2:0:0:
60,192,32017,1,0,0:2:0:0:
47,175,32102,6,0,P|30:227|87:294,1,139.999995727539,2|8,0:2|0:2,0:2:0:0:
150,359,32360,1,0,0:2:0:0:
156,351,32445,6,0,L|237:341,1,50,2|0,3:2|0:2,0:2:0:0:
231,228,32617,1,0,0:2:0:0:
236,236,32702,1,0,0:2:0:0:
242,243,32788,6,0,L|317:252,1,50,10|0,3:2|0:2,0:2:0:0:
346,339,32960,1,0,0:2:0:0:
351,330,33045,1,0,0:2:0:0:
356,321,33131,6,0,L|436:313,1,50,2|0,3:2|0:2,0:2:0:0:
480,362,33302,1,10,0:2:0:0:
494,324,33388,1,2,0:2:0:0:
487,284,33474,1,6,0:2:0:0:
462,252,33560,1,2,0:2:0:0:
426,233,33645,1,2,0:2:0:0:
386,235,33731,1,2,0:2:0:0:
348,250,33817,5,10,0:2:0:0:
342,225,33902,1,2,0:2:0:0:
336,200,33988,1,2,0:2:0:0:
330,175,34074,1,2,0:2:0:0:
325,150,34160,2,0,L|312:91,3,50,14|0|0|0,0:2|0:0|0:0|0:2,0:0:0:0:
425,47,34502,5,4,3:2:0:0:
444,76,34588,1,0,0:2:0:0:
451,110,34674,1,0,0:2:0:0:
441,143,34760,1,0,0:2:0:0:
419,170,34845,1,10,0:2:0:0:
407,203,34931,1,0,0:2:0:0:
415,237,35017,1,2,0:2:0:0:
436,264,35102,1,0,0:2:0:0:
475,267,35188,6,0,P|498:233|458:206,1,75.0000028610231,8|0,0:2|0:2,0:2:0:0:
364,108,35360,2,0,P|318:114|290:138,1,75.0000028610231,8|0,0:2|0:2,0:2:0:0:
187,256,35531,5,0,3:2:0:0:
204,225,35617,1,0,0:2:0:0:
207,190,35702,1,0,0:2:0:0:
197,156,35788,1,0,0:2:0:0:
174,129,35874,1,10,0:2:0:0:
142,113,35960,1,0,0:2:0:0:
107,114,36045,1,2,0:2:0:0:
74,127,36131,1,0,0:2:0:0:
47,151,36217,6,0,P|64:191|99:186,1,75.0000028610231,8|0,0:2|0:2,0:0:0:0:
187,256,36388,2,0,P|223:247|250:219,1,75.0000028610231,8|0,0:2|0:2,0:0:0:0:
319,53,36560,5,0,3:2:0:0:
305,85,36645,1,0,0:2:0:0:
304,120,36731,1,0,0:2:0:0:
318,151,36817,1,0,0:2:0:0:
346,171,36902,1,10,0:2:0:0:
363,201,36988,1,0,0:2:0:0:
369,235,37074,1,2,0:2:0:0:
354,267,37160,1,0,0:2:0:0:
332,300,37245,6,0,P|301:283|255:314,1,75.0000028610231,8|0,0:2|0:2,0:2:0:0:
157,367,37417,2,0,P|171:333|165:264,1,75.0000028610231,8|0,0:2|0:2,0:2:0:0:
24,174,37588,5,0,3:2:0:0:
54,190,37674,1,0,0:2:0:0:
87,199,37760,1,8,0:2:0:0:
121,200,37845,1,0,0:2:0:0:
155,192,37931,1,2,0:2:0:0:
186,176,38017,1,0,0:2:0:0:
211,152,38102,1,0,0:2:0:0:
230,122,38188,1,0,0:2:0:0:
245,86,38274,6,0,P|236:63|183:58,1,75.0000028610231,8|2,0:2|0:2,0:0:0:0:
43,59,38445,2,0,P|77:88|90:149,1,75.0000028610231,8|2,0:2|0:2,0:0:0:0:
92,322,38617,5,2,3:2:0:0:
123,306,38702,1,0,0:2:0:0:
158,304,38788,1,0,0:2:0:0:
186,323,38874,1,0,0:2:0:0:
210,347,38960,1,10,0:2:0:0:
244,353,39045,1,0,0:2:0:0:
277,342,39131,1,2,0:2:0:0:
298,314,39217,1,0,0:2:0:0:
313,280,39302,6,0,P|294:270|308:216,1,75.0000028610231,10|0,0:2|0:2,0:2:0:0:
285,93,39474,2,0,P|319:76|365:74,1,75.0000028610231,10|0,0:2|0:2,0:0:0:0:
485,28,39645,5,0,3:2:0:0:
461,53,39731,1,0,0:2:0:0:
439,80,39817,1,0,0:2:0:0:
420,109,39902,1,0,0:2:0:0:
406,141,39988,1,10,0:2:0:0:
396,174,40074,1,0,0:2:0:0:
392,208,40160,1,2,0:2:0:0:
396,242,40245,1,0,0:2:0:0:
410,279,40331,6,0,P|381:282|368:340,1,75.0000028610231,10|0,0:2|0:2,0:2:0:0:
239,364,40502,2,0,P|240:322|279:257,1,75.0000028610231,10|0,0:2|0:2,0:2:0:0:
288,118,40674,5,0,3:2:0:0:
273,150,40760,1,0,0:2:0:0:
245,171,40845,1,0,0:2:0:0:
214,187,40931,1,0,0:2:0:0:
179,183,41017,1,10,0:2:0:0:
147,168,41102,1,0,0:2:0:0:
112,172,41188,1,0,0:2:0:0:
82,190,41274,1,0,0:2:0:0:
70,223,41360,6,0,P|60:254|69:286,1,50,10|2,0:2|0:2,0:0:0:0:
214,370,41531,1,10,0:2:0:0:
189,338,41617,1,2,0:2:0:0:
154,321,41702,6,0,P|159:295|184:272,1,50,2|0,3:2|0:2,0:2:0:0:
251,298,41874,2,0,P|266:282|300:275,1,50,10|0,0:2|0:2,0:2:0:0:
341,339,42045,2,0,P|372:335|409:354,1,50,2|0,0:2|0:2,0:2:0:0:
512,315,42217,5,2,0:2:0:0:
484,290,42302,1,2,0:2:0:0:
448,276,42388,6,0,P|452:233|465:194,1,75.0000028610231,10|0,0:2|0:2,0:2:0:0:
369,176,42560,2,0,P|395:132|422:107,1,75.0000028610231,10|0,0:2|0:2,0:0:0:0:
489,16,42731,5,4,3:2:0:0:
462,39,42817,1,0,0:2:0:0:
430,54,42902,1,0,0:2:0:0:
394,52,42988,1,0,0:2:0:0:
362,37,43074,1,10,0:2:0:0:
326,34,43160,1,0,0:2:0:0:
294,49,43245,1,2,0:2:0:0:
271,76,43331,1,0,0:2:0:0:
261,118,43417,6,0,P|281:136|255:180,1,75.0000028610231,10|0,0:2|0:2,0:2:0:0:
138,247,43588,2,0,P|147:210|144:173,1,75.0000028610231,10|0,0:2|0:2,0:2:0:0:
32,92,43760,5,0,3:2:0:0:
55,66,43845,1,0,0:2:0:0:
84,47,43931,1,0,0:2:0:0:
118,40,44017,1,0,0:2:0:0:
152,41,44102,1,10,0:2:0:0:
185,52,44188,1,0,0:2:0:0:
215,68,44274,1,2,0:2:0:0:
238,93,44360,1,0,0:2:0:0:
261,118,44445,6,0,P|296:113|305:74,1,75.0000028610231,10|0,0:2|0:2,0:2:0:0:
389,2,44617,2,0,P|412:38|423:83,1,75.0000028610231,10|0,0:2|0:2,0:0:0:0:
433,222,44788,5,0,3:2:0:0:
409,196,44874,1,0,0:2:0:0:
377,181,44960,1,0,0:2:0:0:
342,179,45045,1,0,0:2:0:0:
311,196,45131,1,10,0:2:0:0:
280,214,45217,1,0,0:2:0:0:
245,217,45302,1,2,0:2:0:0:
213,202,45388,1,0,0:2:0:0:
189,169,45474,6,0,P|161:162|141:197,1,75.0000028610231,10|0,0:2|0:2,0:2:0:0:
38,273,45645,2,0,P|48:309|75:337,1,75.0000028610231,10|0,0:2|0:2,0:0:0:0:
261,365,45817,5,0,3:2:0:0:
240,337,45902,1,0,0:2:0:0:
227,303,45988,1,8,0:2:0:0:
221,268,46074,1,0,0:2:0:0:
224,233,46160,1,2,0:2:0:0:
231,199,46245,1,0,0:2:0:0:
245,166,46331,1,0,0:2:0:0:
268,139,46417,1,0,0:2:0:0:
302,129,46502,6,0,P|331:125|356:167,1,75.0000028610231,10|2,0:2|0:2,0:0:0:0:
320,318,46674,2,0,P|336:285|382:252,1,75.0000028610231,10|2,0:2|0:2,0:0:0:0:
487,361,46845,5,2,3:2:0:0:
454,338,46931,1,0,0:2:0:0:
434,302,47017,1,0,0:2:0:0:
435,262,47102,1,0,0:2:0:0:
445,223,47188,1,10,0:2:0:0:
470,192,47274,1,0,0:2:0:0:
472,151,47360,1,2,0:2:0:0:
452,116,47445,1,0,0:2:0:0:
419,95,47531,6,0,P|380:92|369:124,1,75.0000028610231,10|0,0:2|0:2,0:0:0:0:
277,246,47702,2,0,P|260:209|262:168,1,75.0000028610231,10|0,0:2|0:2,0:0:0:0:
333,17,47874,5,2,3:2:0:0:
302,43,47960,1,0,0:2:0:0:
273,70,48045,1,0,0:2:0:0:
241,94,48131,1,0,0:2:0:0:
207,116,48217,1,10,0:2:0:0:
173,137,48302,1,0,0:2:0:0:
137,156,48388,1,2,0:2:0:0:
99,169,48474,1,0,0:2:0:0:
66,171,48560,6,0,P|40:188|97:228,1,75.0000028610231,10|0,0:2|0:2,0:2:0:0:
98,367,48731,2,0,P|133:348|175:313,1,75.0000028610231,10|0,0:2|0:2,0:0:0:0:
232,172,48902,5,2,3:2:0:0:
271,165,48988,1,0,0:2:0:0:
307,181,49074,1,0,0:2:0:0:
327,215,49160,1,0,0:2:0:0:
352,245,49245,1,10,0:2:0:0:
389,258,49331,1,0,0:2:0:0:
426,244,49417,1,0,0:2:0:0:
459,223,49502,1,0,0:2:0:0:
476,186,49588,6,0,P|466:163|408:164,1,75.0000028610231,10|0,0:2|0:2,0:0:0:0:
338,32,49760,2,0,P|303:58|281:109,1,75.0000028610231,8|0,0:2|0:2,0:0:0:0:
99,20,49931,5,6,0:2:0:0:
156,49,50017,1,0,0:2:0:0:
200,89,50102,1,0,0:2:0:0:
223,138,50188,1,0,0:2:0:0:
239,187,50274,1,8,0:2:0:0:
241,232,50360,1,0,0:2:0:0:
238,272,50445,1,0,0:2:0:0:
221,303,50531,1,0,0:2:0:0:
197,323,50617,6,0,L|206:374,1,50,2|0,0:2|0:2,0:0:0:0:
32,360,50788,2,0,L|46:313,1,50,8|8,0:2|0:2,0:0:0:0:
118,368,50960,5,6,0:2:0:0:
118,368,51817,2,0,P|131:353|129:329,1,42.5000008106232,0|0,0:2|0:2,0:2:0:0:
73,289,51988,6,0,P|105:291|152:258,1,85.0000016212464,2|0,0:2|0:2,0:2:0:0:
224,234,52331,2,0,P|209:205|158:180,1,85.0000016212464,2|0,0:2|0:2,0:2:0:0:
106,128,52674,2,0,P|88:154|92:211,1,85.0000016212464,2|0,0:2|0:2,0:2:0:0:
239,332,53017,6,0,P|284:308|345:294,1,85.0000016212464,2|0,0:2|0:0,0:0:0:0:
381,354,53360,1,0,0:2:0:0:
441,307,53531,1,0,0:2:0:0:
472,228,53702,1,2,0:2:0:0:
487,135,53874,1,0,0:2:0:0:
459,36,54045,5,2,0:2:0:0:
459,36,54731,1,0,0:2:0:0:
387,62,54902,1,0,0:2:0:0:
354,131,55074,6,0,P|319:144|255:139,1,85.0000016212464,2|0,0:2|0:2,0:0:0:0:
245,65,55417,1,2,0:2:0:0:
264,62,55588,1,0,0:2:0:0:
250,221,55760,1,2,0:2:0:0:
269,223,55931,1,0,0:2:0:0:
194,144,56102,6,0,P|139:144|79:163,1,85.0000016212464,2|0,0:2|0:2,0:0:0:0:
107,231,56445,1,2,0:2:0:0:
126,228,56617,1,0,0:2:0:0:
74,80,56788,1,2,0:2:0:0:
92,76,56960,1,0,0:2:0:0:
194,144,57131,6,0,P|209:187|209:257,1,85.0000016212464,2|0,0:2|0:2,0:2:0:0:
84,365,57474,1,0,0:2:0:0:
147,309,57645,1,0,0:2:0:0:
231,317,57817,1,2,0:2:0:0:
231,317,57988,1,0,0:2:0:0:
369,360,58160,5,2,0:2:0:0:
308,288,58331,1,0,0:2:0:0:
296,203,58502,1,0,0:2:0:0:
317,129,58674,1,0,0:2:0:0:
353,72,58845,1,2,0:2:0:0:
403,40,59017,1,2,0:2:0:0:
453,38,59188,6,0,B|476:69|490:108|481:144|481:144|460:117|426:108,1,170.000003242493,2|0,0:2|0:2,0:2:0:0:
311,12,59702,1,0,0:2:0:0:
353,72,59874,1,2,0:2:0:0:
315,139,60045,1,2,0:2:0:0:
303,145,60131,1,2,0:2:0:0:
290,147,60217,6,0,P|260:117|302:76,1,85.0000016212464,2|0,0:2|0:2,0:2:0:0:
353,72,60560,2,0,P|396:63|426:106,1,85.0000016212464,2|0,0:2|0:2,0:0:0:0:
388,164,60902,2,0,P|356:215|303:242,1,85.0000016212464,2|0,0:2|0:2,0:0:0:0:
273,366,61245,6,0,P|281:321|266:247,1,85.0000016212464,2|0,0:2|0:0,0:0:0:0:
221,217,61588,1,0,0:2:0:0:
153,269,61760,1,0,0:2:0:0:
151,353,61931,1,2,0:2:0:0:
151,353,62102,1,0,0:2:0:0:
32,283,62274,5,2,0:2:0:0:
153,269,62445,1,0,0:2:0:0:
77,171,62617,5,2,0:2:0:0:
163,198,62788,1,0,0:2:0:0:
135,100,62960,5,2,0:2:0:0:
196,133,63131,1,0,0:2:0:0:
249,83,63302,6,0,P|283:109|268:143,1,85.0000016212464,2|0,0:2|0:2,0:2:0:0:
313,213,63645,2,0,P|298:245|229:250,1,85.0000016212464,2|0,0:2|0:2,0:2:0:0:
210,346,63988,2,0,P|164:330|124:287,1,85.0000016212464,2|0,0:2|0:2,0:0:0:0:
137,306,64331,6,0,P|129:258|113:209,1,85.0000016212464,2|0,0:2|0:2,0:2:0:0:
46,97,64674,2,0,P|91:114|142:124,1,85.0000016212464,2|0,0:2|0:2,0:2:0:0:
270,121,65017,2,0,P|232:151|197:190,1,85.0000016212464,2|0,0:2|0:2,0:2:0:0:
246,340,65360,6,0,P|247:300|267:239,1,85.0000016212464,2|0,0:2|0:0,0:0:0:0:
335,221,65702,1,0,0:2:0:0:
395,281,65874,1,0,0:2:0:0:
349,352,66045,1,2,0:2:0:0:
349,352,66217,1,0,0:2:0:0:
258,256,66388,5,2,0:2:0:0:
335,221,66560,1,0,0:2:0:0:
406,174,66731,1,0,0:2:0:0:
450,102,66902,1,0,0:2:0:0:
372,24,67074,5,2,0:2:0:0:
364,38,67160,1,0,0:2:0:0:
358,54,67245,1,0,0:2:0:0:
355,70,67331,1,0,0:2:0:0:
352,87,67417,6,0,P|307:88|233:113,1,100,6|0,3:2|0:2,0:2:0:0:
114,35,67760,2,0,P|167:56|163:101,1,100,2|0,0:2|0:2,0:0:0:0:
236,179,68102,2,0,P|222:239|179:279,1,100,10|0,0:2|0:2,0:0:0:0:
82,324,68360,1,0,0:2:0:0:
82,324,68445,6,0,B|61:269|61:269|196:366,1,200,6|0,3:2|0:2,0:0:0:0:
384,353,68960,6,0,P|371:329|345:314,1,50,2|0,3:2|0:2,0:2:0:0:
403,256,69131,2,0,P|380:242|349:242,1,50,10|0,0:2|0:2,0:2:0:0:
366,161,69302,2,0,P|339:160|312:175,1,50,2|0,0:2|0:2,0:2:0:0:
242,281,69474,6,0,P|250:240|240:176,1,100,6|0,3:2|0:2,0:2:0:0:
98,73,69817,2,0,P|147:115|198:111,1,100,2|0,0:2|0:2,0:0:0:0:
285,103,70160,2,0,P|326:69|395:57,1,100,10|0,0:2|0:2,0:0:0:0:
486,23,70417,1,0,0:2:0:0:
486,23,70502,6,0,B|464:29|451:43|451:43|455:76|429:125,1,100,6|8,3:2|0:2,0:0:0:0:
409,221,70845,2,0,B|414:198|409:180|409:180|378:167|349:120,1,100,2|0,0:2|3:2,0:0:0:0:
280,55,71188,2,0,B|296:71|314:75|314:75|341:55|396:53,1,100,10|0,0:2|3:2,0:0:0:0:
221,171,71531,6,0,B|142:139|100:223|12:154,1,200,6|2,3:2|0:2,0:0:0:0:
9,78,72045,2,0,P|49:62|77:121,1,100,0|8,0:0|0:2,0:0:0:0:
171,240,72388,1,2,0:2:0:0:
168,249,72474,1,0,0:2:0:0:
164,258,72560,6,0,P|190:293|156:334,1,100,6|8,3:2|0:2,0:2:0:0:
17,353,72902,2,0,P|43:321|122:293,1,100,2|0,0:2|3:2,0:2:0:0:
164,258,73245,2,0,P|213:253|269:282,1,100,10|0,0:2|3:2,0:2:0:0:
379,367,73588,5,6,3:2:0:0:
441,335,73760,1,0,0:2:0:0:
390,286,73931,1,0,0:2:0:0:
327,317,74102,1,0,0:2:0:0:
465,266,74274,6,0,P|434:215|429:174,1,100,8|0,0:2|0:2,0:0:0:0:
487,48,74617,1,6,3:2:0:0:
443,102,74788,1,8,0:2:0:0:
378,128,74960,1,0,0:2:0:0:
247,19,75131,5,2,3:2:0:0:
151,153,75302,1,10,0:2:0:0:
17,52,75474,1,2,0:2:0:0:
200,209,75645,6,0,P|230:162|210:112,1,100,6|0,3:2|0:2,0:2:0:0:
37,204,75988,2,0,P|87:176|132:207,1,100,10|0,0:2|0:2,0:2:0:0:
200,209,76331,2,0,P|231:257|220:343,1,100,2|0,0:2|0:2,0:0:0:0:
90,342,76588,1,0,0:2:0:0:
90,342,76674,6,0,B|30:341|30:341|176:291,1,200,6|2,3:2|0:2,3:2:0:0:
323,224,77188,6,0,P|321:255|300:283,1,50,0|0,3:2|0:2,0:0:0:0:
428,222,77360,2,0,P|415:243|394:257,1,50,10|0,0:2|0:2,0:0:0:0:
512,285,77531,2,0,P|484:298|448:294,1,50,2|0,0:2|0:2,0:0:0:0:
306,359,77702,6,0,P|351:338|411:333,1,100,6|0,3:2|0:2,0:2:0:0:
512,285,78045,2,0,P|520:249|494:177,1,100,10|0,0:2|0:2,0:2:0:0:
489,78,78388,2,0,P|433:45|379:52,1,100,2|0,0:2|0:2,0:0:0:0:
341,74,78645,1,0,0:2:0:0:
336,97,78731,5,6,3:2:0:0:
246,200,78902,1,8,0:2:0:0:
263,176,78988,1,0,0:2:0:0:
271,146,79074,1,0,0:2:0:0:
269,115,79160,1,0,0:2:0:0:
255,88,79245,1,0,0:2:0:0:
231,69,79331,1,0,0:2:0:0:
204,55,79417,5,10,0:2:0:0:
166,87,79502,1,2,0:2:0:0:
116,80,79588,1,10,0:2:0:0:
74,107,79674,1,2,0:2:0:0:
23,111,79760,6,0,P|40:165|47:215,1,100,6|0,3:2|0:2,0:2:0:0:
132,345,80102,2,0,P|142:295|156:241,1,100,10|0,0:2|0:2,0:2:0:0:
255,88,80445,2,0,P|252:138|244:201,1,100,2|8,0:2|0:2,0:2:0:0:
282,252,80702,1,0,0:2:0:0:
282,252,80788,6,0,P|314:247|312:181,1,100,6|0,3:2|0:2,0:2:0:0:
255,88,81131,2,0,P|220:63|151:101,1,100,10|0,0:2|3:2,0:2:0:0:
67,25,81474,2,0,P|45:76|37:140,1,100,2|8,0:2|0:2,0:2:0:0:
43,206,81731,1,0,0:2:0:0:
43,206,81817,6,0,P|70:200|92:180,1,50,12|0,3:2|0:2,0:2:0:0:
161,208,81988,2,0,P|168:185|167:157,1,50,2|0,3:2|0:2,0:2:0:0:
149,30,82160,6,0,P|153:54|167:74,1,50,10|0,3:2|0:2,0:2:0:0:
247,174,82331,2,0,P|262:154|271:115,1,50,2|0,3:2|0:2,0:2:0:0:
345,10,82502,2,0,P|343:42|351:68,1,50,10|0,3:2|0:2,0:0:0:0:
414,151,82674,1,0,3:2:0:0:
461,135,82760,1,0,0:2:0:0:
508,119,82845,5,14,3:2:0:0:
507,158,82931,1,0,0:2:0:0:
487,192,83017,1,0,0:2:0:0:
453,213,83102,1,0,0:2:0:0:
413,221,83188,1,0,0:2:0:0:
378,240,83274,1,0,0:2:0:0:
357,274,83360,1,0,0:2:0:0:
347,313,83445,1,0,0:2:0:0:
351,352,83531,6,0,P|372:348|401:329,1,50,10|0,0:2|0:2,0:2:0:0:
498,279,83702,2,0,P|496:244|481:211,1,50,10|0,0:2|0:2,0:2:0:0:
408,105,83874,5,6,0:2:0:0:
256,192,85931,12,0,87302,0:2:0:0:
68,357,87474,5,2,0:2:0:0:
78,328,87560,1,0,0:2:0:0:
89,300,87645,1,2,0:2:0:0:
101,272,87731,1,0,0:2:0:0:
115,245,87817,1,2,0:2:0:0:
129,219,87902,1,0,0:2:0:0:
146,192,87988,6,0,B|188:207|188:207|210:232|210:232|258:245,1,119.999996337891,6|0,3:2|0:2,0:2:0:0:
319,259,88245,1,8,0:2:0:0:
319,259,88331,1,2,0:2:0:0:
191,356,88502,6,0,P|212:328|199:294,1,59.9999981689454,8|0,0:2|0:2,0:0:0:0:
250,243,88674,2,0,P|240:191|216:172,1,59.9999981689454,2|0,0:2|0:2,0:0:0:0:
60,156,88845,1,8,0:2:0:0:
124,141,88931,1,0,0:2:0:0:
188,127,89017,6,0,B|242:115|242:115|227:42,1,119.999996337891,6|0,3:2|0:2,0:0:0:0:
169,25,89274,1,8,0:2:0:0:
169,25,89360,1,2,0:2:0:0:
294,3,89531,6,0,P|313:18|291:62,1,59.9999981689454,8|0,0:2|0:2,0:0:0:0:
408,40,89702,2,0,P|399:76|360:96,1,59.9999981689454,2|0,0:2|0:0,0:0:0:0:
483,125,89874,2,0,P|453:149|415:167,1,59.9999981689454,10|0,0:2|0:2,0:0:0:0:
271,129,90045,6,0,P|325:149|368:221,1,119.999996337891,6|0,3:2|0:2,0:0:0:0:
386,261,90302,1,8,0:2:0:0:
386,261,90388,1,2,0:2:0:0:
322,351,90560,6,0,P|297:333|264:336,1,59.9999981689454,10|0,0:2|0:2,0:0:0:0:
240,269,90731,2,0,P|216:271|183:309,1,50,2|0,0:2|0:2,0:2:0:0:
122,285,90902,2,0,P|105:301|102:339,1,40,10|0,0:2|0:2,0:0:0:0:
10,381,91074,6,0,P|31:326|27:262,1,119.999996337891,6|0,3:2|0:2,0:2:0:0:
6,191,91331,1,8,0:2:0:0:
6,191,91417,1,0,0:0:0:0:
125,194,91588,1,8,0:0:0:0:
121,213,91674,1,0,0:0:0:0:
116,233,91760,5,10,0:2:0:0:
157,256,91845,1,8,0:2:0:0:
204,248,91931,1,8,0:2:0:0:
246,224,92017,1,8,0:2:0:0:
261,181,92102,6,0,L|397:151,1,119.999996337891,6|0,3:2|0:2,0:2:0:0:
445,136,92360,1,8,0:2:0:0:
445,136,92445,1,2,0:2:0:0:
329,92,92617,6,0,P|354:78|410:91,1,59.9999981689454,8|0,0:2|0:2,0:0:0:0:
447,14,92788,2,0,P|466:27|480:91,1,59.9999981689454,2|0,0:2|0:2,0:0:0:0:
438,215,92960,1,8,0:2:0:0:
421,278,93045,1,0,0:2:0:0:
409,343,93131,6,0,B|482:363|482:363|504:273,1,119.999996337891,6|0,3:2|0:2,0:2:0:0:
503,255,93388,1,8,0:2:0:0:
503,255,93474,1,2,0:2:0:0:
363,229,93645,6,0,P|340:247|359:286,1,59.9999981689454,8|0,0:2|0:2,0:0:0:0:
295,376,93817,2,0,P|277:345|292:309,1,59.9999981689454,2|0,0:2|0:0,0:0:0:0:
183,230,93988,2,0,P|210:267|209:308,1,59.9999981689454,10|0,0:2|0:2,0:0:0:0:
52,372,94160,6,0,P|87:351|140:284,1,119.999996337891,4|0,3:2|0:2,0:2:0:0:
109,227,94417,1,8,0:2:0:0:
109,227,94502,1,2,0:2:0:0:
0,154,94674,6,0,P|26:175|58:168,1,59.9999981689454,10|0,0:2|0:2,0:2:0:0:
109,227,94845,2,0,P|139:198|141:162,1,69.9999978637696,2|0,0:2|0:2,0:2:0:0:
221,125,95017,2,0,P|220:86|204:44,1,80,10|0,0:2|0:2,0:2:0:0:
21,83,95188,6,0,P|75:76|150:91,1,119.999996337891,6|10,3:2|0:2,0:0:0:0:
139,86,95445,1,0,0:0:0:0:
139,86,95531,1,2,0:2:0:0:
244,203,95702,1,10,0:2:0:0:
219,168,95788,1,2,0:2:0:0:
221,125,95874,6,0,P|246:108|296:119,1,59.9999981689454,2|0,0:2|0:0,0:0:0:0:
412,50,96045,1,10,0:2:0:0:
404,40,96131,1,0,0:0:0:0:
398,29,96217,6,0,P|363:86|357:155,1,119.999996337891,6|0,3:2|0:2,0:2:0:0:
362,206,96474,1,8,0:2:0:0:
362,206,96560,1,2,0:2:0:0:
512,337,96731,6,0,P|483:316|442:327,1,59.9999981689454,8|0,0:2|0:2,0:0:0:0:
399,265,96902,2,0,P|368:293|352:344,1,59.9999981689454,2|0,0:2|0:2,0:0:0:0:
166,357,97074,1,8,0:2:0:0:
231,344,97160,1,0,0:2:0:0:
296,367,97245,6,0,B|296:294|296:294|264:253,1,119.999996337891,6|0,3:2|0:2,0:2:0:0:
201,257,97502,1,8,0:2:0:0:
201,257,97588,1,2,0:2:0:0:
45,372,97760,6,0,P|77:363|66:314,1,59.9999981689454,8|0,0:2|0:2,0:0:0:0:
129,284,97931,2,0,P|126:245|99:218,1,59.9999981689454,2|0,0:2|0:0,0:0:0:0:
122,141,98102,2,0,P|90:108|54:91,1,59.9999981689454,10|8,0:2|0:2,0:0:0:0:
22,200,98274,6,0,P|89:148|166:142,1,119.999996337891,6|0,3:2|0:2,0:2:0:0:
191,148,98531,1,10,0:2:0:0:
191,148,98617,1,2,0:2:0:0:
224,20,98788,6,0,P|246:60|227:111,1,59.9999981689454,10|0,0:2|0:2,0:2:0:0:
317,112,98960,2,0,P|302:135|257:161,1,50,2|0,0:2|0:2,0:0:0:0:
291,228,99131,2,0,P|268:236|229:220,1,40,10|0,0:2|0:2,0:2:0:0:
191,148,99302,6,0,P|182:211|151:287,1,119.999996337891,6|0,3:2|0:2,0:2:0:0:
129,326,99560,1,8,0:2:0:0:
129,326,99645,1,0,0:0:0:0:
239,369,99817,1,8,0:0:0:0:
236,357,99902,1,0,0:0:0:0:
232,345,99988,5,10,0:2:0:0:
279,352,100074,1,8,0:2:0:0:
326,344,100160,1,8,0:2:0:0:
366,317,100245,1,8,0:2:0:0:
393,277,100331,6,0,P|445:254|480:318,1,119.999996337891,6|0,3:2|0:0,0:2:0:0:
468,361,100588,1,0,0:0:0:0:
468,361,100674,1,10,0:0:0:0:
308,263,100845,6,0,P|309:237|357:212,1,59.9999981689454,0|0,0:0|0:0,0:0:0:0:
303,138,101017,2,0,P|331:130|380:146,1,59.9999981689454,10|0,0:2|0:2,0:0:0:0:
446,277,101188,1,2,0:2:0:0:
414,214,101274,1,0,0:2:0:0:
437,152,101360,6,0,B|451:77|451:77|399:65,1,119.999996337891,14|0,3:2|0:0,0:0:0:0:
345,56,101617,1,0,0:0:0:0:
345,56,101702,1,10,0:0:0:0:
224,157,101874,5,0,0:0:0:0:
223,138,101960,1,0,0:0:0:0:
222,120,102045,1,10,0:0:0:0:
220,102,102131,1,0,0:0:0:0:
217,84,102217,1,2,0:0:0:0:
214,66,102302,1,0,0:0:0:0:
208,48,102388,6,0,P|158:38|117:101,1,119.999996337891,14|2,3:2|0:0,0:0:0:0:
143,155,102645,1,2,0:0:0:0:
143,155,102731,1,14,0:0:0:0:
39,353,102902,6,0,P|50:326|92:323,1,59.9999981689454,2|2,0:0|0:0,0:0:0:0:
105,237,103074,2,0,P|155:238|173:278,1,69.9999978637696,14|2,0:0|0:0,0:0:0:0:
243,206,103245,2,0,P|295:231|312:277,1,80,2|2,0:0|0:0,0:0:0:0:
399,341,103417,6,0,B|359:367|359:367|403:216,1,200,12|0,3:2|0:2,0:0:0:0:
421,152,103674,1,0,0:0:0:0:
442,87,103760,1,10,0:0:0:0:
277,20,103931,6,0,P|282:53|255:73,1,59.9999981689454,2|0,0:0|0:0,0:0:0:0:
184,113,104102,1,10,0:0:0:0:
160,109,104188,1,10,0:0:0:0:
136,103,104274,1,10,0:0:0:0:
112,98,104360,1,10,0:0:0:0:
74,88,104445,5,6,3:2:0:0:
103,69,104531,1,0,0:0:0:0:
138,71,104617,1,0,0:0:0:0:
168,88,104702,1,0,0:0:0:0:
184,113,104788,1,10,0:0:0:0:
203,142,104874,1,0,0:0:0:0:
236,152,104960,1,2,0:0:0:0:
270,147,105045,1,0,0:0:0:0:
303,126,105131,6,0,P|296:97|246:79,1,75.0000028610231,10|0,0:0|0:0,0:2:0:0:
121,155,105302,2,0,P|102:186|108:244,1,75.0000028610231,10|0,0:0|0:0,0:2:0:0:
62,355,105474,5,2,3:2:0:0:
86,329,105560,1,0,0:0:0:0:
114,309,105645,1,0,0:0:0:0:
144,290,105731,1,0,0:0:0:0:
176,277,105817,1,10,0:0:0:0:
210,270,105902,1,0,0:0:0:0:
244,267,105988,1,0,0:0:0:0:
279,269,106074,1,0,0:0:0:0:
313,285,106160,6,0,P|337:274|336:224,1,75.0000028610231,10|2,0:0|0:0,0:0:0:0:
409,122,106331,2,0,P|392:98|332:86,1,75.0000028610231,10|2,0:0|0:0,0:0:0:0:
212,27,106502,5,6,3:2:0:0:
236,51,106588,1,0,0:0:0:0:
246,84,106674,1,0,0:0:0:0:
238,118,106760,1,0,0:0:0:0:
228,151,106845,1,10,0:0:0:0:
233,185,106931,1,0,0:0:0:0:
249,216,107017,1,2,0:0:0:0:
280,232,107102,1,0,0:0:0:0:
321,225,107188,6,0,P|336:202|303:163,1,75.0000028610231,10|0,0:0|0:0,0:2:0:0:
172,79,107360,2,0,P|133:95|95:156,1,75.0000028610231,10|0,0:0|0:0,0:2:0:0:
8,215,107531,5,2,3:2:0:0:
43,213,107617,1,0,0:0:0:0:
77,217,107702,1,8,0:0:0:0:
109,227,107788,1,0,0:0:0:0:
139,244,107874,1,2,0:2:0:0:
166,266,107960,1,0,0:0:0:0:
190,290,108045,1,0,0:0:0:0:
212,317,108131,1,0,0:0:0:0:
230,358,108217,6,0,P|201:379|156:348,1,75.0000028610231,10|2,0:0|0:0,0:0:0:0:
46,284,108388,2,0,P|56:247|77:217,1,75.0000028610231,10|2,0:0|0:0,0:0:0:0:
15,51,108560,5,6,3:2:0:0:
33,80,108645,1,0,0:0:0:0:
58,104,108731,1,0,0:0:0:0:
92,112,108817,1,0,0:0:0:0:
125,101,108902,1,10,0:0:0:0:
158,91,108988,1,0,0:0:0:0:
192,96,109074,1,2,0:0:0:0:
218,118,109160,1,0,0:0:0:0:
231,157,109245,6,0,P|278:156|290:112,1,75.0000028610231,10|0,0:0|0:0,0:2:0:0:
339,11,109417,2,0,P|366:31|392:82,1,75.0000028610231,8|0,0:0|0:0,0:0:0:0:
512,109,109588,5,2,3:2:0:0:
479,121,109674,1,0,0:0:0:0:
448,138,109760,1,0,0:0:0:0:
422,161,109845,1,0,0:0:0:0:
397,186,109931,1,10,0:0:0:0:
378,215,110017,1,0,0:0:0:0:
365,247,110102,1,0,0:0:0:0:
359,281,110188,1,0,0:0:0:0:
361,320,110274,6,0,P|388:343|426:312,1,75.0000028610231,10|2,0:0|0:0,0:2:0:0:
512,241,110445,2,0,P|499:199|460:153,1,75.0000028610231,10|2,0:0|0:0,0:2:0:0:
436,51,110617,5,6,3:2:0:0:
417,80,110702,1,0,0:0:0:0:
391,103,110788,1,0,0:0:0:0:
357,113,110874,1,0,0:0:0:0:
321,110,110960,1,10,0:0:0:0:
291,91,111045,1,0,0:0:0:0:
259,76,111131,1,2,0:0:0:0:
224,83,111217,1,0,0:0:0:0:
187,103,111302,6,0,P|177:134|209:156,1,75.0000028610231,10|0,0:0|0:0,0:0:0:0:
225,264,111474,2,0,P|262:265|328:233,1,75.0000028610231,10|0,0:0|0:0,0:0:0:0:
467,311,111645,5,2,3:2:0:0:
467,311,111731,1,0,0:0:0:0:
467,311,111817,2,0,P|465:339|438:381,1,50,8|0,0:0|0:0,0:0:0:0:
369,344,111988,1,2,0:0:0:0:
369,344,112074,1,0,0:0:0:0:
369,344,112160,2,0,P|371:316|398:274,1,50,10|0,0:0|0:0,0:0:0:0:
430,234,112331,5,10,0:0:0:0:
420,189,112417,1,10,0:0:0:0:
409,145,112502,1,10,0:0:0:0:
396,101,112588,1,10,0:0:0:0:
445,83,112674,5,6,3:2:0:0:
418,59,112760,1,0,0:0:0:0:
383,57,112845,1,0,0:0:0:0:
354,76,112931,1,0,0:0:0:0:
324,94,113017,1,10,0:0:0:0:
290,104,113102,1,0,0:0:0:0:
256,95,113188,1,2,0:0:0:0:
227,74,113274,1,0,0:0:0:0:
220,38,113360,6,0,P|234:23|297:46,1,75.0000028610231,8|0,0:0|0:0,0:2:0:0:
393,140,113531,2,0,P|400:179|386:213,1,75.0000028610231,10|0,0:0|0:0,0:2:0:0:
283,337,113702,5,0,3:2:0:0:
292,303,113788,1,0,0:0:0:0:
292,267,113874,1,0,0:0:0:0:
289,232,113960,1,0,0:0:0:0:
278,198,114045,1,8,0:0:0:0:
262,166,114131,1,0,0:0:0:0:
240,138,114217,1,0,0:0:0:0:
212,115,114302,1,0,0:0:0:0:
178,104,114388,6,0,P|138:105|119:147,1,75.0000028610231,10|2,0:0|0:0,0:2:0:0:
0,175,114560,2,0,P|32:191|64:236,1,75.0000028610231,10|2,0:0|0:0,0:0:0:0:
78,331,114731,5,4,3:2:0:0:
82,296,114817,1,0,0:0:0:0:
105,269,114902,1,0,0:0:0:0:
137,257,114988,1,0,0:0:0:0:
171,264,115074,1,10,0:0:0:0:
206,264,115160,1,0,0:0:0:0:
236,247,115245,1,2,0:0:0:0:
255,217,115331,1,0,0:0:0:0:
257,176,115417,6,0,P|220:164|190:191,1,75.0000028610231,8|0,0:0|0:0,0:2:0:0:
151,349,115588,2,0,P|194:330|249:330,1,75.0000028610231,10|0,0:0|0:0,0:0:0:0:
379,366,115760,5,0,3:2:0:0:
359,337,115845,1,0,0:0:0:0:
342,306,115931,1,8,0:0:0:0:
333,271,116017,1,0,0:0:0:0:
327,236,116102,1,0,0:0:0:0:
327,201,116188,1,0,0:0:0:0:
337,167,116274,1,0,0:0:0:0:
358,139,116360,1,0,0:0:0:0:
387,121,116445,6,0,P|421:122|429:168,1,75.0000028610231,10|2,0:0|0:0,0:0:0:0:
498,248,116617,2,0,P|468:248|413:273,1,75.0000028610231,10|2,0:0|0:0,0:0:0:0:
319,364,116788,5,6,3:2:0:0:
342,331,116874,1,0,0:0:0:0:
346,291,116960,1,10,0:0:0:0:
335,252,117045,1,0,0:0:0:0:
303,227,117131,1,2,0:0:0:0:
276,196,117217,1,2,0:0:0:0:
268,156,117302,1,2,0:0:0:0:
283,119,117388,1,2,0:0:0:0:
311,93,117474,6,0,P|352:111|350:144,1,75.0000028610231,8|0,0:0|0:0,0:0:0:0:
256,300,117645,2,0,P|236:305|159:260,1,75.0000028610231,8|0,0:0|0:0,0:0:0:0:
0,209,117817,5,6,3:2:0:0:
37,222,117902,1,0,0:0:0:0:
76,226,117988,1,10,0:0:0:0:
115,221,118074,1,0,0:0:0:0:
153,209,118160,1,2,0:0:0:0:
185,186,118245,1,2,0:0:0:0:
210,154,118331,1,2,0:0:0:0:
226,117,118417,1,2,0:0:0:0:
233,78,118502,6,0,P|209:65|158:98,1,75.0000028610231,10|0,0:0|0:0,0:2:0:0:
14,100,118674,2,0,P|47:124|70:160,1,75.0000028610231,8|0,0:0|0:0,0:0:0:0:
115,311,118845,5,6,3:2:0:0:
148,288,118931,1,0,0:0:0:0:
185,274,119017,1,10,0:0:0:0:
225,273,119102,1,0,0:0:0:0:
260,289,119188,1,2,0:0:0:0:
297,303,119274,1,0,0:0:0:0:
336,310,119360,1,0,3:1:0:0:
373,297,119445,1,0,0:0:0:0:
403,269,119531,6,0,P|404:244|342:221,1,75.0000028610231,10|2,0:0|0:0,0:0:0:0:
247,113,119702,2,0,P|270:78|315:62,1,75.0000028610231,0|2,3:0|0:0,0:0:0:0:
437,40,119874,5,14,0:0:0:0:
408,97,119960,1,2,0:0:0:0:
368,141,120045,1,2,0:0:0:0:
319,164,120131,1,2,0:0:0:0:
270,180,120217,1,2,0:0:0:0:
225,187,120302,1,2,0:0:0:0:
185,184,120388,1,2,0:0:0:0:
151,173,120474,1,2,0:0:0:0:
124,158,120560,5,10,0:0:0:0:
120,143,120645,1,0,0:0:0:0:
116,128,120731,1,10,0:0:0:0:
113,113,120817,1,0,0:0:0:0:
108,96,120902,6,0,L|117:61,1,29.9999990844727,0|0,3:1|0:0,0:0:0:0:
39,46,121074,2,0,L|31:75,1,29.9999990844727
52,147,121245,5,6,0:0:0:0:
