osu file format v14

[General]
AudioFilename: audio.mp3
AudioLeadIn: 0
PreviewTime: 87980
Countdown: 0
SampleSet: Soft
StackLeniency: 0.2
Mode: 0
LetterboxInBreaks: 0
WidescreenStoryboard: 0

[Editor]
DistanceSpacing: 0.8
BeatDivisor: 4
GridSize: 4
TimelineZoom: 1.900006

[Metadata]
Title:Crystal Illusion
TitleUnicode:Crystal Illusion
Artist:P4koo
ArtistUnicode:P4koo
Creator:Beomsan
Version:milr_'s Expert
Source:
Tags:Osu fan cafe mapping contest #3 OMC#3 Down milr_ [White_Music] Cellina Mandu- Reana Beom Nasmoeb Rieri ProEzreal
BeatmapID:1676675
BeatmapSetID:797393

[Difficulty]
HPDrainRate:6
CircleSize:5
OverallDifficulty:7.8
ApproachRate:9
SliderMultiplier:2
SliderTickRate:1

[Events]
//Background and Video events
0,0,"omcbackground.png",0,0
//Break Periods
2,84066,86352
//Storyboard Layer 0 (Background)
//Storyboard Layer 1 (Fail)
//Storyboard Layer 2 (Pass)
//Storyboard Layer 3 (Foreground)
//Storyboard Sound Samples

[TimingPoints]
552,342.857142857143,3,2,69,65,1,0
9809,-133.333333333333,3,2,69,65,0,0
10323,-100,3,2,69,65,0,0
11866,-133.333333333333,3,2,69,65,0,0
12380,-100,3,2,69,65,0,0
13923,-133.333333333333,3,2,69,65,0,0
14437,-100,3,2,69,65,0,0
15980,-133.333333333333,3,2,69,65,0,0
16494,-100,3,2,69,65,0,0
18380,-111.111111111111,3,2,69,65,0,0
18723,-125,3,2,69,65,0,0
19066,-142.857142857143,3,2,69,65,0,0
19409,-125,3,2,69,65,0,0
19752,-111.111111111111,3,2,69,65,0,0
20094,-100,3,2,69,65,0,0
20437,-111.111111111111,3,2,69,65,0,0
20780,-125,3,2,69,65,0,0
21123,-142.857142857143,3,2,69,65,0,0
21466,-125,3,2,69,65,0,0
21809,-111.111111111111,3,2,69,65,0,0
22152,-100,3,2,69,65,0,0
22494,-111.111111111111,3,2,69,65,0,0
22837,-125,3,2,69,65,0,0
23180,-142.857142857143,3,2,69,65,0,0
23523,-125,3,2,69,65,0,0
23866,-111.111111111111,3,2,69,65,0,0
24209,-100,3,2,69,65,0,0
24552,-111.111111111111,3,2,69,65,0,0
24894,-125,3,2,69,65,0,0
25237,-142.857142857143,3,2,69,65,0,0
25580,-125,3,2,69,65,0,0
25752,-111.111111111111,3,2,69,65,0,0
25923,-100,3,2,69,65,0,0
33466,-133.333333333333,3,2,69,65,0,0
34494,-133.333333333333,3,2,69,65,0,1
50952,-133.333333333333,3,2,69,65,0,0
51809,-133.333333333333,3,2,69,50,0,0
58152,-200,3,2,69,50,0,0
67408,-133.333333333333,3,2,69,65,0,0
86780,-133.333333333333,3,2,69,65,0,0
86952,-133.333333333333,3,2,69,65,0,0
87980,-90.9090909090909,3,2,69,65,0,1
104437,-100,3,2,69,65,0,0
121752,-100,3,2,69,57,0,0
122266,-100,3,2,69,49,0,0
122780,-100,3,2,69,41,0,0
123294,-100,3,2,69,33,0,0
123809,-100,3,2,69,25,0,0
124323,-100,3,2,69,17,0,0
124837,-100,3,2,69,9,0,0
125009,-100,3,2,69,5,0,0

[Colours]
Combo1 : 112,226,203
Combo2 : 46,129,231
Combo3 : 35,177,149
Combo4 : 118,172,239
SliderBorder : 250,250,250
SliderTrackOverride : 189,189,189

[HitObjects]
108,192,9466,5,2,2:3:0:0:
135,166,9551,1,2,2:3:0:0:
171,158,9637,1,2,2:3:0:0:
206,170,9723,1,2,2:3:0:0:
230,199,9809,6,0,L|221:331,1,112.500004291535,2|0,2:3|0:0,0:0:0:0:
316,372,10152,1,6,2:1:0:0:
316,372,10323,2,0,P|287:361|248:368,1,50
392,344,10494,1,0,0:0:0:0:
392,344,10666,2,0,P|363:355|324:348,1,50,2|0,0:0|0:0,0:0:0:0:
448,296,10837,5,0,0:0:0:0:
464,329,10922,1,0,0:0:0:0:
462,366,11009,1,0,0:0:0:0:
296,248,11180,2,0,L|420:244,1,100,6|0,2:1|0:0,0:0:0:0:
459,213,11437,1,0,0:0:0:0:
447,201,11523,1,0,0:0:0:0:
440,120,11694,1,2,0:0:0:0:
344,24,11866,6,0,L|340:168,1,112.500004291535
236,184,12209,1,6,2:1:0:0:
236,184,12380,2,0,P|272:176|304:184,1,50
160,156,12552,1,0,0:0:0:0:
160,156,12723,2,0,P|196:164|228:156,1,50,2|0,0:0|0:0,0:0:0:0:
136,32,12894,5,0,0:0:0:0:
101,33,12979,1,0,0:0:0:0:
66,34,13065,1,0,0:0:0:0:
81,234,13237,2,0,P|85:178|49:134,1,100,6|0,2:1|0:0,0:0:0:0:
12,96,13494,1,0,0:0:0:0:
2,105,13580,1,0,0:0:0:0:
12,280,13752,1,2,0:0:0:0:
144,364,13923,6,0,L|148:232,1,112.500004291535
249,212,14266,1,6,2:1:0:0:
249,212,14437,2,0,P|209:208|178:223,1,50
326,240,14609,1,0,0:0:0:0:
326,240,14780,2,0,P|286:244|259:229,1,50,2|0,0:0|0:0,0:0:0:0:
161,148,14952,5,0,0:0:0:0:
245,124,15123,1,0,0:0:0:0:
245,124,15209,1,0,0:0:0:0:
245,124,15294,1,6,2:1:0:0:
253,328,15466,2,0,L|321:324,1,50
317,316,15637,1,0,0:0:0:0:
401,340,15809,1,2,0:0:0:0:
509,200,15980,6,0,L|389:196,1,112.500004291535
349,108,16323,1,6,2:1:0:0:
349,108,16494,2,0,P|341:140|349:176,1,50
369,36,16666,1,0,0:0:0:0:
369,36,16837,2,0,P|377:68|369:104,1,50,2|0,0:0|0:0,0:0:0:0:
301,4,17009,5,0,0:0:0:0:
289,13,17180,1,0,0:0:0:0:
275,18,17352,1,6,2:1:0:0:
260,19,17523,1,0,0:0:0:0:
177,136,17694,1,2,0:0:0:0:
44,80,17866,1,2,0:0:0:0:
32,72,18037,6,0,P|36:136|24:176,1,100
104,140,18294,1,0,0:0:0:0:
104,140,18380,2,0,P|85:207|64:234,1,89.9999972534181,2|0,0:0|0:0,0:0:0:0:
156,216,18637,1,0,0:0:0:0:
156,216,18723,2,0,P|129:263|104:288,1,80,0|2,0:0|0:0,0:0:0:0:
224,360,18980,5,0,0:0:0:0:
224,360,19066,2,0,P|220:328|205:292,1,69.9999978637696
280,292,19323,1,0,0:0:0:0:
280,292,19409,2,0,P|260:250|219:204,1,80,2|0,0:0|0:0,0:0:0:0:
322,216,19666,1,0,0:0:0:0:
322,216,19752,2,0,P|289:172|243:140,1,89.9999972534181,0|2,0:0|0:0,0:0:0:0:
300,12,20009,5,0,0:0:0:0:
300,12,20094,2,0,P|304:68|323:113,1,100
376,64,20352,1,0,0:0:0:0:
376,64,20437,2,0,P|400:108|428:144,1,89.9999972534181,2|0,0:0|0:0,0:0:0:0:
472,92,20694,1,0,0:0:0:0:
472,92,20780,2,0,P|504:116|544:136,1,80,0|2,0:0|0:0,0:0:0:0:
488,256,21037,5,0,0:0:0:0:
488,256,21123,2,0,P|480:204|486:162,1,69.9999978637696
391,303,21380,1,0,0:0:0:0:
391,303,21466,2,0,P|403:251|423:207,1,80,2|0,0:0|0:0,0:0:0:0:
272,312,21723,1,0,0:0:0:0:
272,312,21809,2,0,P|300:276|364:224,1,89.9999972534181,0|2,0:0|0:0,0:0:0:0:
164,364,22066,5,0,0:0:0:0:
164,364,22152,2,0,P|160:296|140:232,1,100
220,260,22409,1,0,0:0:0:0:
220,260,22494,2,0,P|206:200|190:159,1,89.9999972534181,2|0,0:0|0:0,0:0:0:0:
265,168,22752,1,0,0:0:0:0:
265,168,22837,2,0,P|249:120|232:84,1,80,0|2,0:0|0:0,0:0:0:0:
96,20,23094,5,0,0:0:0:0:
96,20,23180,2,0,P|52:52|20:64,1,69.9999978637696
110,97,23437,1,0,0:0:0:0:
110,97,23523,2,0,P|82:137|30:181,1,80,2|0,0:0|0:0,0:0:0:0:
144,170,23780,1,0,0:0:0:0:
144,170,23866,2,0,P|130:209|92:264,1,89.9999972534181,0|2,0:0|0:0,0:0:0:0:
224,364,24123,5,0,0:0:0:0:
224,364,24209,2,0,P|220:312|206:251,1,100
281,281,24466,1,0,0:0:0:0:
281,281,24552,2,0,P|267:223|241:177,1,89.9999972534181,2|0,0:0|0:0,0:0:0:0:
328,196,24809,1,0,0:0:0:0:
328,196,24894,2,0,P|304:152|272:116,1,80,0|2,0:0|0:0,0:0:0:0:
280,16,25152,5,0,0:0:0:0:
280,16,25237,1,0,0:0:0:0:
280,16,25409,2,0,P|304:58|316:68,1,34.9999989318848,8|0,0:0|0:0,0:0:0:0:
352,96,25580,2,0,P|364:56|380:24,1,40,10|0,0:0|0:0,0:0:0:0:
195,30,25752,2,0,P|220:56|236:76,1,44.999998626709,8|0,0:0|0:0,0:0:0:0:
427,88,25923,2,0,P|449:56|469:36,1,50,8|0,0:0|0:0,0:0:0:0:
160,160,26094,1,10,0:0:0:0:
148,152,26266,6,0,P|144:100|112:64,1,100,4|0,0:0|0:0,0:0:0:0:
52,36,26523,1,0,0:0:0:0:
40,44,26609,1,2,0:0:0:0:
4,224,26780,2,0,L|80:228,1,50
64,236,26952,2,0,L|180:232,1,100,0|2,0:0|0:0,0:0:0:0:
216,280,27209,1,0,0:0:0:0:
204,288,27294,6,0,P|180:320|184:388,1,100
296,328,27552,1,0,0:0:0:0:
284,320,27637,2,0,L|288:200,1,100,2|0,0:0|0:0,0:0:0:0:
368,368,27980,5,0,0:0:0:0:
380,360,28152,1,2,0:0:0:0:
512,196,28323,6,0,L|372:200,1,100
352,168,28580,1,0,0:0:0:0:
340,176,28666,1,2,0:0:0:0:
300,28,28837,2,0,L|296:92,1,50
284,84,29009,2,0,L|172:80,1,100,0|2,0:0|0:0,0:0:0:0:
126,124,29266,1,0,0:0:0:0:
138,133,29352,6,0,P|158:185|134:233,1,100
20,284,29609,1,0,0:0:0:0:
32,296,29694,2,0,L|160:292,1,100,2|0,0:0|0:0,0:0:0:0:
216,348,30037,5,0,0:0:0:0:
204,360,30209,1,2,0:0:0:0:
288,160,30380,6,0,L|292:284,1,100
352,296,30637,1,0,0:0:0:0:
340,308,30723,1,2,0:0:0:0:
507,133,30894,2,0,L|431:131,1,50
447,121,31066,2,0,L|342:118,1,100,0|2,0:0|0:0,0:0:0:0:
300,56,31323,1,0,0:0:0:0:
295,70,31409,6,0,P|235:95|203:75,1,100
127,25,31666,1,0,0:0:0:0:
142,34,31752,2,0,L|134:162,1,100,2|0,0:0|0:0,0:0:0:0:
51,209,32094,5,0,0:0:0:0:
36,200,32266,1,2,0:0:0:0:
44,340,32437,6,0,B|93:320|93:320|108:272|108:272|122:292|144:304|144:304|140:348|165:382|205:377|205:377|228:344|228:344|221:308|221:308|252:327|295:319,1,400,4|0,0:0|0:0,0:0:0:0:
368,368,33294,1,0,0:0:0:0:
380,356,33380,1,0,0:0:0:0:
344,296,33466,6,0,L|341:249,3,37.5000014305115
472,248,33809,2,0,L|475:201,3,37.5000014305115
428,163,34152,1,0,0:0:0:0:
416,151,34238,1,0,0:0:0:0:
404,139,34323,1,0,0:0:0:0:
392,127,34409,1,0,0:0:0:0:
402,62,34494,6,0,L|342:58,3,37.5000014305115,4|0|0|0,0:0|0:0|0:0|0:0,0:0:0:0:
304,24,34837,1,0,0:0:0:0:
292,36,34923,1,0,0:0:0:0:
280,48,35008,1,0,0:0:0:0:
268,60,35094,1,0,0:0:0:0:
291,123,35180,2,0,L|295:179,1,37.5000014305115
196,32,35352,2,0,L|200:88,1,37.5000014305115
160,124,35523,6,0,L|104:122,3,37.5000014305115,4|0|0|0,0:0|0:0|0:0|0:0,0:0:0:0:
70,165,35866,1,0,0:0:0:0:
82,177,35952,1,0,0:0:0:0:
94,189,36037,1,0,0:0:0:0:
106,201,36123,1,0,0:0:0:0:
63,255,36209,2,0,L|11:257,1,37.5000014305115
152,360,36380,2,0,L|148:304,1,37.5000014305115
206,289,36552,6,0,L|243:290,3,37.5000014305115,4|0|0|0,0:0|0:0|0:0|0:0,0:0:0:0:
300,328,36894,1,0,0:0:0:0:
312,316,36980,1,0,0:0:0:0:
324,304,37065,1,0,0:0:0:0:
336,292,37151,1,0,0:0:0:0:
396,324,37237,2,0,L|392:376,1,37.5000014305115
492,264,37409,2,0,L|488:216,1,37.5000014305115
432,188,37580,6,0,L|395:189,3,37.5000014305115,4|0|0|0,0:0|0:0|0:0|0:0,0:0:0:0:
344,144,37923,1,0,0:0:0:0:
332,132,38009,1,0,0:0:0:0:
320,120,38094,1,0,0:0:0:0:
308,108,38180,1,0,0:0:0:0:
340,50,38266,2,0,L|342:7,1,37.5000014305115
212,92,38437,2,0,L|214:135,1,37.5000014305115
269,169,38609,6,0,L|265:221,3,37.5000014305115,4|0|0|0,0:0|0:0|0:0|0:0,0:0:0:0:
312,256,38952,1,0,0:0:0:0:
300,268,39038,1,0,0:0:0:0:
288,280,39123,1,0,0:0:0:0:
276,292,39209,1,0,0:0:0:0:
322,341,39294,2,0,L|326:385,1,37.5000014305115
216,328,39466,2,0,L|168:324,1,37.5000014305115
120,296,39637,6,0,L|124:248,3,37.5000014305115,4|0|0|0,0:0|0:0|0:0|0:0,0:0:0:0:
73,213,39980,1,0,0:0:0:0:
61,201,40066,1,0,0:0:0:0:
49,189,40151,1,0,0:0:0:0:
37,177,40237,1,0,0:0:0:0:
85,129,40323,2,0,L|136:126,1,37.5000014305115
168,24,40494,2,0,L|228:27,1,37.5000014305115
263,64,40666,6,0,L|258:128,3,37.5000014305115,4|0|0|0,0:0|0:0|0:0|0:0,0:0:0:0:
318,136,41009,1,0,0:0:0:0:
330,124,41095,1,0,0:0:0:0:
342,112,41180,1,0,0:0:0:0:
354,100,41266,1,0,0:0:0:0:
415,129,41352,2,0,L|464:127,1,37.5000014305115
504,244,41523,1,0,0:0:0:0:
492,232,41609,1,0,0:0:0:0:
480,220,41694,6,0,L|431:222,1,37.5000014305115,12|0,0:0|0:0,0:0:0:0:
336,292,41866,2,0,L|340:236,1,37.5000014305115,8|0,0:0|0:0,0:0:0:0:
396,344,42037,2,0,L|433:345,1,37.5000014305115,8|0,0:0|0:0,0:0:0:0:
272,184,42209,1,8,0:0:0:0:
260,196,42295,1,0,0:0:0:0:
248,208,42380,2,0,L|252:267,1,37.5000014305115,8|0,0:0|0:0,0:0:0:0:
204,296,42552,2,0,L|200:344,1,37.5000014305115,8|0,0:0|0:0,0:0:0:0:
144,368,42723,5,4,0:0:0:0:
132,356,42809,1,0,0:0:0:0:
120,344,42894,1,0,0:0:0:0:
108,332,42980,1,0,0:0:0:0:
40,304,43066,1,0,0:0:0:0:
52,292,43152,1,0,0:0:0:0:
64,280,43237,1,0,0:0:0:0:
76,268,43323,1,0,0:0:0:0:
32,212,43409,2,0,L|36:164,1,37.5000014305115
108,108,43580,2,0,L|172:112,1,37.5000014305115
196,64,43752,5,4,0:0:0:0:
208,52,43838,1,0,0:0:0:0:
220,40,43923,1,0,0:0:0:0:
232,28,44009,1,0,0:0:0:0:
282,73,44094,1,0,0:0:0:0:
294,85,44180,1,0,0:0:0:0:
306,97,44265,1,0,0:0:0:0:
318,109,44351,1,0,0:0:0:0:
381,84,44437,2,0,L|383:41,1,37.5000014305115
492,156,44609,2,0,L|449:154,1,37.5000014305115
403,199,44780,5,4,0:0:0:0:
391,211,44866,1,0,0:0:0:0:
379,223,44951,1,0,0:0:0:0:
367,235,45037,1,0,0:0:0:0:
336,297,45123,1,0,0:0:0:0:
324,285,45209,1,0,0:0:0:0:
312,273,45294,1,0,0:0:0:0:
300,261,45380,1,0,0:0:0:0:
243,298,45466,2,0,L|190:300,1,37.5000014305115
100,368,45637,2,0,L|98:315,1,37.5000014305115
44,288,45809,5,4,0:0:0:0:
56,276,45895,1,0,0:0:0:0:
68,264,45980,1,0,0:0:0:0:
80,252,46066,1,0,0:0:0:0:
146,222,46152,1,0,0:0:0:0:
134,210,46238,1,0,0:0:0:0:
122,198,46323,1,0,0:0:0:0:
110,186,46409,1,0,0:0:0:0:
160,140,46494,2,0,L|228:144,1,37.5000014305115
260,12,46666,2,0,L|256:80,1,37.5000014305115
307,96,46837,5,4,0:0:0:0:
319,108,46923,1,0,0:0:0:0:
331,120,47008,1,0,0:0:0:0:
343,132,47094,1,0,0:0:0:0:
298,183,47180,1,0,0:0:0:0:
286,195,47266,1,0,0:0:0:0:
274,207,47351,1,0,0:0:0:0:
262,219,47437,1,0,0:0:0:0:
311,266,47523,2,0,L|371:262,1,37.5000014305115
480,340,47694,2,0,L|420:336,1,37.5000014305115
384,372,47866,5,4,0:0:0:0:
372,360,47952,1,0,0:0:0:0:
360,348,48037,1,0,0:0:0:0:
348,336,48123,1,0,0:0:0:0:
281,326,48209,1,0,0:0:0:0:
269,338,48295,1,0,0:0:0:0:
257,350,48380,1,0,0:0:0:0:
245,362,48466,1,0,0:0:0:0:
186,329,48552,2,0,L|190:269,1,37.5000014305115
40,208,48723,2,0,L|77:210,1,37.5000014305115
127,164,48894,5,4,0:0:0:0:
115,152,48980,1,0,0:0:0:0:
103,140,49065,1,0,0:0:0:0:
91,128,49151,1,0,0:0:0:0:
28,92,49237,1,0,0:0:0:0:
40,80,49323,1,0,0:0:0:0:
52,68,49408,1,0,0:0:0:0:
64,56,49494,1,0,0:0:0:0:
112,8,49580,2,0,L|171:11,1,37.5000014305115
184,72,49752,1,0,0:0:0:0:
196,60,49838,1,0,0:0:0:0:
208,48,49923,6,0,L|243:46,2,18.7500007152558
308,8,50094,1,0,0:0:0:0:
320,20,50180,1,0,0:0:0:0:
286,79,50266,2,0,L|290:131,1,37.5000014305115
425,181,50437,2,0,L|428:144,1,37.5000014305115
475,229,50609,1,0,0:0:0:0:
463,241,50695,1,0,0:0:0:0:
451,253,50780,1,0,0:0:0:0:
439,265,50866,1,0,0:0:0:0:
376,232,50952,5,4,0:0:0:0:
296,360,51809,5,2,2:3:0:0:
284,348,51894,1,2,2:3:0:0:
272,336,51980,5,2,2:3:0:0:
196,368,52323,1,2,2:3:0:0:
204,268,52666,1,2,2:3:0:0:
212,168,53009,5,2,2:3:0:0:
196,368,54037,5,2,2:3:0:0:
212,168,54723,1,2,2:3:0:0:
200,156,54894,1,2,2:3:0:0:
188,144,55066,5,2,2:3:0:0:
104,148,55409,1,2,2:3:0:0:
20,152,55752,1,2,2:3:0:0:
188,144,56094,5,2,2:3:0:0:
272,140,56437,1,2,2:3:0:0:
356,136,56780,1,2,2:3:0:0:
188,144,57123,5,2,2:3:0:0:
188,144,57809,1,2,2:3:0:0:
200,132,57980,1,2,2:3:0:0:
212,120,58152,6,0,P|220:96|224:64,1,50,2|2,2:3|2:3,2:3:0:0:
291,85,58494,2,0,P|288:59|280:28,1,50,2|2,2:3|2:3,2:3:0:0:
341,0,58837,1,2,2:3:0:0:
369,136,59009,1,2,2:3:0:0:
380,126,59180,5,2,2:3:0:0:
504,236,60037,5,2,2:3:0:0:
492,248,60123,1,2,2:3:0:0:
480,260,60208,5,2,2:3:0:0:
472,376,60552,1,2,2:3:0:0:
388,368,60894,1,2,2:3:0:0:
304,360,61237,5,2,2:3:0:0:
472,376,61923,1,2,2:3:0:0:
388,368,62094,1,2,2:3:0:0:
304,360,62266,5,2,2:3:0:0:
293,350,62437,1,2,2:3:0:0:
352,303,62609,1,2,2:3:0:0:
363,293,62780,1,2,2:3:0:0:
296,248,62952,1,2,2:3:0:0:
285,238,63123,1,2,2:3:0:0:
304,360,63294,5,2,2:3:0:0:
296,248,63637,1,2,2:3:0:0:
288,136,63980,1,2,2:3:0:0:
304,360,64323,5,2,2:3:0:0:
296,248,64666,1,2,2:3:0:0:
288,136,65009,1,2,2:3:0:0:
304,360,65352,5,2,2:3:0:0:
288,136,66037,1,2,2:3:0:0:
276,124,66208,1,2,2:3:0:0:
264,112,66380,6,0,P|220:108|192:100,1,50,2|2,2:3|2:3,2:3:0:0:
158,145,66723,2,0,P|119:124|96:105,1,50,2|2,2:3|2:3,2:3:0:0:
90,52,67066,1,2,2:3:0:0:
61,75,67151,1,2,2:3:0:0:
46,109,67237,1,2,2:3:0:0:
49,146,67323,1,2,2:3:0:0:
70,177,67409,6,0,L|64:304,1,112.500004291535
103,362,67752,2,0,P|55:358|19:378,1,75.0000028610231,6|0,2:1|0:0,0:0:0:0:
184,256,68094,1,0,0:0:0:0:
192,380,68266,1,2,0:0:0:0:
204,368,68352,1,0,0:0:0:0:
216,356,68437,6,0,L|352:352,1,112.500004291535
380,308,68780,2,0,P|428:316|461:302,1,75.0000028610231,6|0,2:1|0:0,0:0:0:0:
500,256,69123,1,0,0:0:0:0:
336,252,69294,1,2,0:0:0:0:
324,240,69466,6,0,L|326:107,1,112.500004291535
360,52,69809,2,0,P|322:63|280:47,1,75.0000028610231,6|0,2:1|0:0,0:0:0:0:
224,16,70152,1,0,0:0:0:0:
228,136,70323,1,2,0:0:0:0:
216,148,70409,1,0,0:0:0:0:
204,160,70494,6,0,L|68:164,1,112.500004291535
14,130,70837,2,0,P|26:166|6:218,1,75.0000028610231,6|0,2:1|0:0,0:0:0:0:
76,248,71180,1,0,0:0:0:0:
72,360,71352,1,2,0:0:0:0:
84,352,71523,6,0,L|212:348,1,112.500004291535
274,376,71866,2,0,P|263:326|277:299,1,75.0000028610231,6|0,2:1|0:0,0:0:0:0:
320,248,72209,1,0,0:0:0:0:
450,255,72380,1,2,0:0:0:0:
462,243,72466,1,0,0:0:0:0:
474,231,72551,6,0,L|478:95,1,112.500004291535
512,36,72894,2,0,P|468:52|428:32,1,75.0000028610231,6|0,2:1|0:0,0:0:0:0:
384,88,73237,1,0,0:0:0:0:
256,80,73409,1,2,0:0:0:0:
268,92,73580,6,0,L|264:208,1,112.500004291535
295,286,73923,2,0,P|259:270|215:286,1,75.0000028610231,6|0,2:1|0:0,0:0:0:0:
160,316,74266,1,0,0:0:0:0:
32,308,74437,1,2,0:0:0:0:
42,298,74609,6,0,L|38:182,1,112.500004291535
0,109,74952,2,0,P|40:120|80:104,1,75.0000028610231,6|0,2:1|0:0,0:0:0:0:
128,64,75294,1,0,0:0:0:0:
136,208,75466,1,2,0:0:0:0:
148,200,75637,6,0,L|280:196,1,112.500004291535
338,225,75980,2,0,P|326:177|342:141,1,75.0000028610231,6|0,2:1|0:0,0:0:0:0:
376,88,76323,1,0,0:0:0:0:
504,92,76494,1,2,0:0:0:0:
494,101,76580,1,0,0:0:0:0:
484,110,76666,6,0,L|490:219,1,75.0000028610231
432,304,77009,1,6,2:1:0:0:
424,224,77180,1,0,0:0:0:0:
507,349,77352,1,0,0:0:0:0:
359,358,77523,1,2,0:0:0:0:
346,348,77694,6,0,L|214:344,1,112.500004291535
154,377,78037,2,0,P|168:333|156:297,1,75.0000028610231,6|0,2:1|0:0,0:0:0:0:
124,244,78380,1,0,0:0:0:0:
128,104,78552,1,2,0:0:0:0:
138,113,78638,1,0,0:0:0:0:
148,122,78724,6,0,L|255:117,1,75.0000028610231
275,76,78980,1,0,0:0:0:0:
285,85,79066,2,0,L|343:82,3,37.5000014305115,6|0|0|0,2:1|0:0|0:0|0:0,0:0:0:0:
384,120,79409,1,0,0:0:0:0:
374,129,79494,1,0,0:0:0:0:
364,138,79580,1,2,0:0:0:0:
354,147,79666,1,0,0:0:0:0:
406,193,79752,6,0,L|402:309,1,112.500004291535
435,384,80094,2,0,P|379:372|343:392,1,75.0000028610231,6|0,2:1|0:0,0:0:0:0:
304,336,80437,1,0,0:0:0:0:
172,340,80609,1,2,0:0:0:0:
162,331,80695,1,0,0:0:0:0:
152,322,80780,6,0,L|157:218,1,75.0000028610231
114,98,81123,1,6,2:1:0:0:
110,182,81294,1,0,0:0:0:0:
48,45,81466,1,0,0:0:0:0:
197,57,81637,1,2,0:0:0:0:
207,48,81723,1,0,0:0:0:0:
217,39,81808,6,0,L|317:37,1,75.0000028610231
425,100,82152,1,6,2:1:0:0:
346,103,82323,1,0,0:0:0:0:
478,31,82494,1,0,0:0:0:0:
483,182,82666,1,2,0:0:0:0:
473,191,82752,1,0,0:0:0:0:
463,200,82837,6,0,L|466:256,3,37.5000014305115
414,282,83180,1,6,2:1:0:0:
404,273,83266,1,0,0:0:0:0:
394,264,83352,1,0,0:0:0:0:
384,255,83437,1,0,0:0:0:0:
334,301,83523,1,0,0:0:0:0:
324,310,83609,1,0,0:0:0:0:
314,319,83695,1,2,0:0:0:0:
304,328,83780,1,0,0:0:0:0:
259,277,83866,5,0,0:0:0:0:
259,277,86952,6,0,P|211:261|179:257,1,75.0000028610231
396,216,87294,2,0,P|444:200|476:196,1,75.0000028610231
512,144,87552,1,0,0:0:0:0:
500,132,87637,2,0,L|448:128,3,37.5000014305115
389,18,87980,6,0,P|404:80|376:120,1,110.000003356934
336,63,88237,1,0,0:0:0:0:
324,54,88323,2,0,L|256:50,1,55.0000016784668,6|0,2:1|0:0,0:0:0:0:
176,156,88494,2,0,L|268:152,1,55.0000016784668
136,20,88666,2,0,L|138:98,1,55.0000016784668
144,221,88837,1,2,0:0:0:0:
144,221,88923,1,0,0:0:0:0:
144,221,89009,6,0,P|92:202|38:231,1,110.000003356934
95,273,89266,1,0,0:0:0:0:
83,282,89352,2,0,L|79:346,1,55.0000016784668,6|0,2:1|0:0,0:0:0:0:
192,384,89523,2,0,L|188:312,1,55.0000016784668
212,204,89694,2,0,L|292:208,1,55.0000016784668
328,320,89866,2,0,L|248:324,1,55.0000016784668,2|0,0:0|0:0,0:0:0:0:
386,367,90037,6,0,P|364:316|386:259,1,110.000003356934
434,315,90294,1,0,0:0:0:0:
444,304,90380,2,0,L|511:307,1,55.0000016784668,6|0,2:1|0:0,0:0:0:0:
331,215,90552,2,0,L|276:217,1,55.0000016784668
476,236,90723,2,0,L|478:167,1,55.0000016784668
328,0,90894,2,0,L|332:68,1,55.0000016784668,2|0,0:0|0:0,0:0:0:0:
383,94,91066,6,0,P|331:78|282:100,1,110.000003356934
336,149,91323,1,0,0:0:0:0:
328,161,91409,2,0,L|332:217,1,55.0000016784668,6|0,2:1|0:0,0:0:0:0:
280,256,91580,1,0,0:0:0:0:
268,246,91666,1,0,0:0:0:0:
215,289,91752,2,0,L|211:353,3,55.0000016784668,0|0|2|0,0:0|0:0|0:0|0:0,0:0:0:0:
148,368,92094,6,0,P|103:387|44:354,1,110.000003356934
102,318,92352,1,0,0:0:0:0:
113,309,92437,2,0,L|111:249,1,55.0000016784668,6|0,2:1|0:0,0:0:0:0:
36,84,92609,2,0,L|32:156,1,55.0000016784668
0,212,92780,2,0,L|68:208,1,55.0000016784668
192,200,92952,1,2,0:0:0:0:
192,200,93037,1,0,0:0:0:0:
192,200,93123,6,0,P|176:144|215:95,1,110.000003356934
242,158,93380,1,0,0:0:0:0:
252,148,93466,2,0,L|332:144,1,55.0000016784668,6|0,2:1|0:0,0:0:0:0:
439,73,93637,2,0,L|359:69,1,55.0000016784668
256,8,93809,2,0,L|260:84,1,55.0000016784668
376,196,93980,2,0,L|380:120,1,55.0000016784668,2|0,0:0|0:0,0:0:0:0:
422,243,94152,6,0,P|362:215|304:261,1,110.000003356934
368,283,94409,1,0,0:0:0:0:
355,292,94494,2,0,L|351:356,1,55.0000016784668,6|0,2:1|0:0,0:0:0:0:
256,234,94666,2,0,L|252:174,1,55.0000016784668
100,316,94837,2,0,L|188:312,1,55.0000016784668
263,327,95009,1,2,0:0:0:0:
273,317,95094,1,0,0:0:0:0:
283,307,95180,6,0,L|203:311,1,55.0000016784668,8|0,0:0|0:0,0:0:0:0:
3,215,95352,2,0,L|95:223,1,55.0000016784668,8|0,0:0|0:0,0:0:0:0:
185,228,95523,2,0,L|105:222,1,55.0000016784668,14|0,2:1|0:0,0:0:0:0:
25,70,95694,1,8,0:0:0:0:
37,79,95780,1,0,0:0:0:0:
48,88,95866,2,0,L|44:164,1,55.0000016784668,8|0,0:0|0:0,0:0:0:0:
170,76,96037,2,0,L|166:16,1,55.0000016784668,10|0,0:0|0:0,0:0:0:0:
123,122,96209,6,0,P|170:96|243:149,1,110.000003356934
177,164,96466,1,0,0:0:0:0:
188,173,96552,2,0,L|184:241,1,55.0000016784668,6|0,2:1|0:0,0:0:0:0:
304,92,96723,2,0,L|300:26,1,55.0000016784668
478,155,96894,2,0,L|414:159,1,55.0000016784668
308,166,97066,1,2,0:0:0:0:
308,166,97152,1,0,0:0:0:0:
308,166,97237,6,0,P|337:223|301:281,1,110.000003356934
268,221,97494,1,0,0:0:0:0:
256,231,97580,2,0,L|250:308,1,55.0000016784668,6|0,2:1|0:0,0:0:0:0:
372,372,97752,2,0,L|368:308,1,55.0000016784668
460,248,97923,2,0,L|388:244,1,55.0000016784668
227,353,98094,2,0,L|299:349,1,55.0000016784668,2|0,0:0|0:0,0:0:0:0:
172,309,98266,6,0,P|125:333|71:309,1,110.000003356934
120,263,98523,1,0,0:0:0:0:
108,255,98609,2,0,L|112:199,1,55.0000016784668,6|0,2:1|0:0,0:0:0:0:
8,292,98780,2,0,L|12:348,1,55.0000016784668
56,148,98952,2,0,L|-16:152,1,55.0000016784668
164,142,99123,2,0,L|218:138,1,55.0000016784668,2|0,0:0|0:0,0:0:0:0:
266,184,99294,6,0,P|241:133|262:85,1,110.000003356934
309,134,99552,1,0,0:0:0:0:
320,144,99637,2,0,L|380:140,1,55.0000016784668,6|0,2:1|0:0,0:0:0:0:
427,182,99809,1,0,0:0:0:0:
439,173,99894,1,0,0:0:0:0:
488,218,99980,2,0,L|484:282,3,55.0000016784668,0|0|2|0,0:0|0:0|0:0|0:0,0:0:0:0:
420,298,100323,6,0,P|367:269|306:306,1,110.000003356934
364,338,100580,1,0,0:0:0:0:
353,350,100666,2,0,L|279:356,1,55.0000016784668,6|0,2:1|0:0,0:0:0:0:
152,251,100837,2,0,L|240:255,1,55.0000016784668
216,380,101009,2,0,L|212:300,1,55.0000016784668
204,176,101180,1,2,0:0:0:0:
204,176,101266,1,0,0:0:0:0:
204,176,101352,6,0,P|272:192|313:155,1,110.000003356934
251,126,101609,1,0,0:0:0:0:
263,118,101694,2,0,L|267:46,1,55.0000016784668,6|0,2:1|0:0,0:0:0:0:
368,192,101866,2,0,L|364:246,1,55.0000016784668
431,91,102037,2,0,L|351:95,1,55.0000016784668
204,28,102209,2,0,L|149:25,1,55.0000016784668,2|0,0:0|0:0,0:0:0:0:
20,96,102380,6,0,P|72:72|144:128,1,110.000003356934
73,139,102637,1,0,0:0:0:0:
85,149,102723,2,0,L|81:217,1,55.0000016784668,6|0,2:1|0:0,0:0:0:0:
156,340,102894,2,0,L|152:256,1,55.0000016784668
20,272,103066,2,0,L|112:276,1,55.0000016784668
156,184,103237,1,2,0:0:0:0:
168,194,103323,1,0,0:0:0:0:
180,204,103409,6,0,L|244:206,1,55.0000016784668
284,254,103580,1,0,0:0:0:0:
297,247,103666,1,0,0:0:0:0:
348,292,103752,2,0,L|344:360,1,55.0000016784668,6|0,2:1|0:0,0:0:0:0:
249,370,103923,2,0,L|252:315,1,55.0000016784668
410,371,104094,1,0,0:0:0:0:
422,361,104180,1,0,0:0:0:0:
434,351,104266,1,2,0:0:0:0:
446,341,104352,1,0,0:0:0:0:
420,280,104437,6,0,P|404:235|438:176,1,100,4|0,0:0|0:0,0:0:0:0:
480,152,104694,1,0,0:0:0:0:
470,143,104780,1,2,0:0:0:0:
352,24,104952,2,0,L|348:84,1,50
336,80,105123,2,0,L|216:76,1,100,0|2,0:0|0:0,0:0:0:0:
188,28,105380,1,0,0:0:0:0:
178,38,105466,6,0,P|126:66|62:30,1,100
24,112,105723,1,0,0:0:0:0:
35,103,105809,2,0,L|39:228,1,100,2|0,0:0|0:0,0:0:0:0:
101,242,106066,1,0,0:0:0:0:
89,250,106152,2,0,L|91:310,1,50
140,352,106323,1,2,0:0:0:0:
152,344,106409,1,0,0:0:0:0:
164,336,106494,6,0,P|224:364|276:328,1,100
302,305,106752,1,0,0:0:0:0:
290,297,106837,1,2,0:0:0:0:
452,368,107009,2,0,L|448:300,1,50
436,308,107180,2,0,L|430:183,1,100,0|2,0:0|0:0,0:0:0:0:
378,162,107437,1,0,0:0:0:0:
368,172,107523,6,0,P|316:192|260:160,1,100
217,138,107780,1,0,0:0:0:0:
228,128,107866,2,0,L|232:16,1,100,2|0,0:0|0:0,0:0:0:0:
169,0,108123,1,0,0:0:0:0:
158,10,108209,2,0,L|86:14,1,50
4,140,108380,2,0,L|76:144,1,50,2|0,0:0|0:0,0:0:0:0:
104,188,108552,6,0,P|72:224|76:292,1,100
108,328,108809,1,0,0:0:0:0:
120,320,108894,1,2,0:0:0:0:
284,364,109066,2,0,L|224:366,1,50
224,356,109237,2,0,L|228:232,1,100,0|2,0:0|0:0,0:0:0:0:
280,214,109494,1,0,0:0:0:0:
291,223,109580,6,0,P|343:247|407:211,1,100
448,200,109837,1,0,0:0:0:0:
436,192,109923,2,0,L|432:68,1,100,2|0,0:0|0:0,0:0:0:0:
492,20,110180,1,0,0:0:0:0:
481,28,110266,2,0,L|407:24,1,50
344,46,110437,1,2,0:0:0:0:
356,54,110523,1,0,0:0:0:0:
368,62,110609,6,0,L|256:58,1,100
217,18,110866,1,0,0:0:0:0:
205,26,110952,1,2,0:0:0:0:
292,168,111123,2,0,L|226:171,1,50
228,163,111294,2,0,L|116:167,1,100,0|2,0:0|0:0,0:0:0:0:
28,316,111637,6,0,P|96:304|131:344,1,100
163,368,111894,1,0,0:0:0:0:
175,358,111980,2,0,L|313:351,1,100,2|0,0:0|0:0,0:0:0:0:
352,312,112237,1,0,0:0:0:0:
340,320,112323,2,0,L|344:392,1,50
447,232,112494,2,0,L|443:304,1,50,2|0,0:0|0:0,0:0:0:0:
393,196,112666,6,0,P|441:208|493:172,1,100,4|0,0:0|0:0,0:0:0:0:
512,124,112923,1,0,0:0:0:0:
499,116,113009,1,2,0:0:0:0:
364,24,113180,2,0,L|360:92,1,50
346,80,113352,2,0,L|234:76,1,100,0|2,0:0|0:0,0:0:0:0:
192,32,113609,1,0,0:0:0:0:
183,44,113694,6,0,P|139:76|87:60,1,100
28,100,113952,1,0,0:0:0:0:
40,109,114037,2,0,L|36:229,1,100,2|0,0:0|0:0,0:0:0:0:
84,360,114294,1,0,0:0:0:0:
96,352,114380,2,0,L|94:292,1,50
104,228,114552,1,2,0:0:0:0:
116,236,114637,1,0,0:0:0:0:
128,244,114723,6,0,L|236:248,1,100
276,296,114980,1,0,0:0:0:0:
264,305,115066,1,2,0:0:0:0:
392,372,115237,2,0,L|394:310,1,50
407,315,115409,2,0,L|411:208,1,100,0|2,0:0|0:0,0:0:0:0:
484,184,115666,1,0,0:0:0:0:
472,176,115752,6,0,P|436:120|448:60,1,100
392,32,116009,1,0,0:0:0:0:
380,40,116094,2,0,L|244:36,1,100,2|0,0:0|0:0,0:0:0:0:
316,164,116352,1,0,0:0:0:0:
328,172,116437,2,0,L|412:168,1,50
232,92,116609,2,0,L|148:88,1,50,2|0,0:0|0:0,0:0:0:0:
100,32,116780,6,0,L|96:96,1,50,4|0,0:0|0:0,0:0:0:0:
24,120,116952,1,0,0:0:0:0:
36,128,117037,1,0,0:0:0:0:
48,136,117123,2,0,L|50:216,1,50,2|0,0:0|0:0,0:0:0:0:
0,272,117294,1,0,0:0:0:0:
12,264,117380,1,0,0:0:0:0:
24,256,117466,2,0,L|96:252,1,50
200,360,117637,2,0,L|128:356,1,50,2|0,0:0|0:0,0:0:0:0:
136,216,117809,6,0,L|232:212,1,50,4|0,0:0|0:0,0:0:0:0:
260,324,117980,1,0,0:0:0:0:
272,317,118066,1,0,0:0:0:0:
285,311,118152,2,0,L|356:315,1,50,2|0,0:0|0:0,0:0:0:0:
260,236,118323,2,0,L|264:179,1,50
404,322,118494,2,0,L|400:371,1,50
485,262,118666,1,2,0:0:0:0:
473,255,118752,1,0,0:0:0:0:
460,249,118838,6,0,L|388:253,1,50,4|0,0:0|0:0,0:0:0:0:
320,144,119009,2,0,L|391:148,1,50
416,96,119180,1,2,0:0:0:0:
404,89,119266,1,0,0:0:0:0:
392,82,119352,1,0,0:0:0:0:
380,75,119437,1,0,0:0:0:0:
325,32,119523,2,0,L|253:36,1,50
192,103,119694,1,2,0:0:0:0:
204,95,119780,1,0,0:0:0:0:
216,86,119866,6,0,L|212:38,2,25,4|0|0,0:0|0:0|0:0,0:0:0:0:
148,16,120037,1,0,0:0:0:0:
136,24,120123,1,0,0:0:0:0:
77,55,120209,2,0,L|13:51,1,50,2|0,0:0|0:0,0:0:0:0:
168,172,120380,2,0,L|232:168,1,50
109,219,120552,5,0,0:0:0:0:
121,227,120638,1,0,0:0:0:0:
133,235,120723,1,2,0:0:0:0:
145,243,120809,1,0,0:0:0:0:
96,298,120894,2,0,L|28:294,1,50
160,318,121066,2,0,L|92:314,1,50
256,240,121237,5,4,0:0:0:0:
256,192,121409,12,0,125009,0:0:0:0:
