osu file format v14

[General]
AudioFilename: audio.mp3
AudioLeadIn: 0
PreviewTime: 87980
Countdown: 0
SampleSet: Soft
StackLeniency: 0.7
Mode: 0
LetterboxInBreaks: 0
WidescreenStoryboard: 0

[Editor]
Bookmarks: 37,1580,9809,18037,26094,26266,34494,50952,67409,75637,83866,104437,120894
DistanceSpacing: 0.8
BeatDivisor: 4
GridSize: 16
TimelineZoom: 3.000005

[Metadata]
Title:Crystal Illusion
TitleUnicode:Crystal Illusion
Artist:P4koo
ArtistUnicode:P4koo
Creator:Beomsan
Version:Ultra
Source:
Tags:Osu fan cafe mapping contest #3 OMC#3 Down milr_ [White_Music] Cellina Mandu- Reana Beom Nasmoeb Rieri ProEzreal
BeatmapID:1674629
BeatmapSetID:797393

[Difficulty]
HPDrainRate:6
CircleSize:5
OverallDifficulty:8.5
ApproachRate:9.3
SliderMultiplier:1.7
SliderTickRate:1

[Events]
//Background and Video events
0,0,"omcbackground.png",0,0
//Break Periods
//Storyboard Layer 0 (Background)
//Storyboard Layer 1 (Fail)
//Storyboard Layer 2 (Pass)
//Storyboard Layer 3 (Foreground)
//Storyboard Sound Samples

[TimingPoints]
552,342.857142857143,3,2,1,40,1,0
1237,-120.481927710843,3,2,1,40,0,0
1580,-120.481927710843,3,2,1,40,0,0
1666,-120.481927710843,3,2,1,40,0,0
2609,-120.481927710843,3,2,1,40,0,0
2694,-120.481927710843,3,2,1,40,0,0
3637,-120.481927710843,3,2,1,40,0,0
3723,-120.481927710843,3,2,1,40,0,0
4666,-120.481927710843,3,2,1,40,0,0
4752,-120.481927710843,3,2,1,40,0,0
5694,-120.481927710843,3,2,1,40,0,0
5780,-120.481927710843,3,2,1,40,0,0
6723,-156.25,3,2,1,40,0,0
7066,-156.25,3,2,1,45,0,0
7409,-156.25,3,2,1,50,0,0
7752,-156.25,3,2,1,40,0,0
8780,-156.25,3,2,1,50,0,0
8952,-156.25,3,2,1,40,0,0
9466,-98.0392156862745,3,2,1,40,0,0
9809,-98.0392156862745,3,2,4,80,0,0
9980,-98.0392156862745,3,2,2,80,0,0
10666,-98.0392156862745,3,2,2,80,0,0
11009,-98.0392156862745,3,2,2,80,0,0
11180,-98.0392156862745,3,2,2,80,0,0
11523,-98.0392156862745,3,2,2,80,0,0
11866,-98.0392156862745,3,2,1,80,0,0
12037,-98.0392156862745,3,2,2,80,0,0
12552,-98.0392156862745,3,2,1,80,0,0
13066,-98.0392156862745,3,2,2,80,0,0
14780,-98.0392156862745,3,2,1,80,0,0
14952,-98.0392156862745,3,2,4,80,0,0
15294,-98.0392156862745,3,2,2,80,0,0
16666,-98.0392156862745,3,2,2,80,0,0
17180,-98.0392156862745,3,2,2,80,0,0
17352,-98.0392156862745,3,2,2,80,0,0
17694,-98.0392156862745,3,2,2,80,0,0
18037,-158.730158730159,3,2,2,80,0,0
18209,-158.730158730159,3,2,5,60,0,0
19409,-117.647058823529,3,2,5,60,0,0
20266,-158.730158730159,3,2,5,60,0,0
21294,-117.647058823529,3,2,5,60,0,0
21466,-158.730158730159,3,2,5,60,0,0
21980,-117.647058823529,3,2,5,60,0,0
22152,-192.307692307692,3,2,5,45,0,0
22494,-192.307692307692,3,2,5,45,0,0
22837,-192.307692307692,3,2,5,47,0,0
23180,-192.307692307692,3,2,5,50,0,0
23523,-192.307692307692,3,2,5,52,0,0
23866,-192.307692307692,3,2,5,56,0,0
24037,-117.647058823529,3,2,5,57,0,0
24209,-117.647058823529,3,2,5,59,0,0
24552,-117.647058823529,3,2,5,63,0,0
24894,-117.647058823529,3,2,1,69,0,0
25237,-117.647058823529,3,2,1,74,0,0
25409,-117.647058823529,3,2,2,65,0,0
26266,-83.3333333333333,3,2,4,70,0,0
26609,-83.3333333333333,3,2,2,70,0,0
31923,-166.666666666667,3,2,2,70,0,0
34494,-100,3,2,4,70,0,0
35180,-100,3,2,1,70,0,0
35523,-100,3,2,4,70,0,0
36209,-71.4285714285714,3,2,1,70,0,0
36552,-100,3,2,4,70,0,0
37237,-100,3,2,1,70,0,0
37580,-100,3,2,4,70,0,0
38094,-100,3,2,1,70,0,0
38266,-71.4285714285714,3,2,1,70,0,0
38609,-71.4285714285714,3,2,4,70,0,0
38952,-100,3,2,4,70,0,0
39294,-100,3,2,1,70,0,0
39637,-100,3,2,4,70,0,0
40323,-71.4285714285714,3,2,1,70,0,0
40666,-100,3,2,4,70,0,0
41352,-100,3,2,1,70,0,0
41523,-100,3,2,1,70,0,0
41694,-71.4285714285714,3,2,1,70,0,0
41866,-71.4285714285714,3,2,1,70,0,0
42723,-100,3,2,4,70,0,0
43409,-100,3,2,1,70,0,0
43752,-100,3,2,4,70,0,0
44437,-71.4285714285714,3,2,1,70,0,0
44780,-100,3,2,4,70,0,0
45466,-100,3,2,1,70,0,0
45809,-100,3,2,4,70,0,0
46495,-71.4285714285714,3,2,1,70,0,0
46837,-100,3,2,4,70,0,0
47523,-100,3,2,1,70,0,0
47866,-100,3,2,4,70,0,0
48552,-71.4285714285714,3,2,1,70,0,0
48894,-100,3,2,4,70,0,0
49580,-71.4285714285714,3,2,1,70,0,0
49923,-71.4285714285714,3,2,1,70,0,0
50266,-100,3,2,1,70,0,0
50780,-100,3,2,1,60,0,0
50866,-100,3,2,1,50,0,0
50952,-100,3,2,1,47,0,0
51809,-125,3,2,1,47,0,0
51980,-125,3,2,1,47,0,0
54037,-140.845070422535,3,2,1,47,0,0
54723,-156.25,3,2,1,47,0,0
55066,-125,3,2,1,47,0,0
56094,-156.25,3,2,1,47,0,0
61237,-119.047619047619,3,2,1,47,0,0
67066,-119.047619047619,3,2,1,56,0,0
67408,-119.047619047619,3,2,4,75,0,0
67752,-125,3,2,1,47,0,0
68094,-125,3,2,5,47,0,0
68266,-125,3,2,1,47,0,0
68952,-125,3,2,1,47,0,0
69809,-125,3,2,1,47,0,0
70152,-125,3,2,5,47,0,0
70323,-125,3,2,1,47,0,0
70837,-125,3,2,1,47,0,0
71180,-125,3,2,1,47,0,0
71866,-125,3,2,1,47,0,0
72209,-125,3,2,5,47,0,0
72380,-125,3,2,1,47,0,0
73067,-125,3,2,1,47,0,0
73237,-125,3,2,5,47,0,0
73409,-125,3,2,1,47,0,0
73580,-125,3,2,1,47,0,0
74266,-125,3,2,5,47,0,0
74352,-125,3,2,1,47,0,0
75637,-108.695652173913,3,2,1,70,0,0
75980,-108.695652173913,3,2,5,55,0,0
76323,-108.695652173913,3,2,1,55,0,0
76837,-108.695652173913,3,2,5,55,0,0
77009,-108.695652173913,3,2,1,55,0,0
77352,-100,3,2,5,55,0,0
77694,-100,3,2,1,55,0,0
78037,-100,3,2,5,58,0,0
78380,-100,3,2,1,57,0,0
78552,-100,3,2,1,65,0,0
78894,-100,3,2,5,65,0,0
78980,-100,3,2,1,68,0,0
79409,-100,3,2,5,72,0,0
79580,-100,3,2,1,72,0,0
79752,-100,3,2,2,80,0,0
79837,-100,3,2,5,69,0,0
80437,-100,3,2,1,69,0,0
80780,-100,3,2,2,69,0,0
80952,-100,3,2,5,69,0,0
81294,-90.9090909090909,3,2,1,74,0,0
81637,-90.9090909090909,3,2,5,74,0,0
81809,-90.9090909090909,3,2,2,80,0,0
81980,-90.9090909090909,3,2,1,62,0,0
82152,-90.9090909090909,3,2,1,64,0,0
82323,-90.9090909090909,3,2,1,66,0,0
82494,-90.9090909090909,3,2,1,68,0,0
82666,-90.9090909090909,3,2,1,70,0,0
82837,-90.9090909090909,3,2,1,72,0,0
83009,-90.9090909090909,3,2,1,74,0,0
83180,-90.9090909090909,3,2,1,76,0,0
83352,-90.9090909090909,3,2,1,78,0,0
83523,-90.9090909090909,3,2,1,80,0,0
83694,-90.9090909090909,3,2,1,40,0,0
83866,-90.9090909090909,3,2,1,73,0,0
85752,-500,3,2,1,25,0,0
86437,-333.333333333333,3,2,1,33,0,0
86780,-153.846153846154,3,2,1,42,0,0
86952,-153.846153846154,3,2,1,57,0,0
87123,-153.846153846154,3,2,1,45,0,0
87294,-153.846153846154,3,2,1,66,0,0
87466,-153.846153846154,3,2,1,70,0,0
87637,-153.846153846154,3,2,1,74,0,0
87809,-153.846153846154,3,2,1,76,0,0
88152,-62.5,3,2,6,80,0,0
89694,-74.0740740740741,3,2,6,80,0,0
90037,-68.9655172413793,3,2,6,80,0,0
90294,-83.3333333333333,3,2,6,80,0,0
90723,-91.743119266055,3,2,6,80,0,0
91237,-100,3,2,2,80,0,0
92094,-62.5,3,2,6,80,0,0
92352,-80,3,2,6,80,0,0
92609,-60.6060606060606,3,2,6,80,0,0
92780,-76.9230769230769,3,2,6,80,0,0
92952,-62.5,3,2,6,80,0,0
95352,-62.5,3,2,6,55,0,0
95523,-62.5,3,2,6,68,0,0
95866,-62.5,3,2,6,78,0,0
96037,-62.5,3,2,6,84,0,0
96209,-62.5,3,2,4,80,0,0
98266,-68.9655172413793,3,2,6,80,0,0
98609,-83.3333333333333,3,2,6,80,0,0
98952,-91.743119266055,3,2,6,80,0,0
99466,-100,3,2,2,80,0,0
100323,-100,3,2,4,80,0,0
100494,-100,3,2,6,80,0,0
101180,-62.5,3,2,6,80,0,0
101352,-62.5,3,2,4,80,0,0
101523,-62.5,3,2,6,80,0,0
101866,-117.647058823529,3,2,6,80,0,0
102037,-100,3,2,6,80,0,0
102209,-80,3,2,6,80,0,0
102380,-80,3,2,4,80,0,0
102552,-80,3,2,6,80,0,0
103066,-62.5,3,2,6,80,0,0
103409,-62.5,3,2,4,80,0,0
104094,-62.5,3,2,1,80,0,0
104437,-76.9230769230769,3,2,4,80,0,0
104780,-76.9230769230769,3,2,1,80,0,0
116780,-94.3396226415094,3,2,4,80,0,0
116952,-94.3396226415094,3,2,2,80,0,0
117809,-94.3396226415094,3,2,4,80,0,0
117894,-94.3396226415094,3,2,2,80,0,0
118837,-94.3396226415094,3,2,4,80,0,0
118923,-94.3396226415094,3,2,2,80,0,0
119694,-62.5,3,2,1,80,0,0
119866,-62.5,3,2,4,80,0,0
119952,-62.5,3,2,1,80,0,0
120037,-62.5,3,2,1,77,0,0
120123,-62.5,3,2,1,73,0,0
120209,-62.5,3,2,1,69,0,0
120294,-62.5,3,2,1,65,0,0
120380,-62.5,3,2,1,61,0,0
120466,-62.5,3,2,1,57,0,0
120552,-62.5,3,2,1,54,0,0
120637,-62.5,3,2,1,51,0,0
120723,-62.5,3,2,1,47,0,0
120809,-62.5,3,2,1,43,0,0
120894,-500,3,2,1,40,0,0
121237,-500,3,2,99,70,0,0

[Colours]
Combo1 : 188,188,188
Combo2 : 186,117,255
Combo3 : 128,191,255
Combo4 : 128,128,255

[HitObjects]
51,350,1237,5,0,0:0:0:0:
48,342,1323,1,0,0:0:0:0:
46,334,1409,1,0,0:0:0:0:
45,326,1494,1,0,0:0:0:0:
45,319,1580,6,0,B|41:223|82:90|246:141|233:251|197:268|140:272|134:224,1,352.750005113411,2|2,0:0|0:0,0:0:0:0:
140,235,2523,1,2,0:0:0:0:
141,227,2609,6,0,P|204:211|259:260,2,141.100002045364,2|0|2,0:0|0:0|0:0,0:0:0:0:
229,330,3466,1,2,0:0:0:0:
423,277,3637,6,0,B|307:254|343:351|224:329,1,211.650003068047,2|0,0:0|0:0,0:0:0:0:
190,276,4323,1,0,0:0:0:0:
227,222,4494,1,0,0:0:0:0:
289,245,4666,1,2,0:0:0:0:
282,243,5352,1,2,0:0:0:0:
275,242,5523,1,2,0:0:0:0:
268,241,5694,6,0,L|411:225,2,141.100002045364,2|0|0,0:0|0:0|0:0,0:0:0:0:
192,132,6552,1,0,0:0:0:0:
259,128,6723,6,0,P|254:158|239:182,1,54.4,2|0,0:0|0:0,0:0:0:0:
148,244,7066,2,0,P|176:233|204:234,1,54.4,2|0,0:0|0:0,0:0:0:0:
303,280,7409,2,0,P|279:260|266:235,1,54.4,2|0,0:0|0:0,0:0:0:0:
377,285,7752,5,2,0:0:0:0:
385,283,7923,2,0,L|443:284,2,54.4
332,217,8437,1,0,0:0:0:0:
413,357,8609,1,0,0:0:0:0:
454,141,8780,5,2,0:0:0:0:
338,342,8952,1,0,0:0:0:0:
451,277,9123,5,0,0:0:0:0:
329,204,9294,1,0,0:0:0:0:
161,301,9466,5,2,0:0:0:0:
193,302,9551,1,2,0:0:0:0:
225,298,9637,1,2,0:0:0:0:
256,287,9723,1,2,0:0:0:0:
284,271,9809,1,4,0:1:0:0:
287,76,9980,5,0,0:0:0:0:
281,108,10066,1,0,0:0:0:0:
280,140,10151,1,8,0:0:0:0:
451,277,10323,5,0,0:0:0:0:
427,255,10410,1,0,0:0:0:0:
400,239,10495,1,0,0:0:0:0:
220,212,10666,6,0,L|282:205,1,43.3500002645874,2|2,0:0|0:0,0:0:0:0:
434,174,10837,2,0,L|372:167,1,43.3500002645874,2|0,0:0|0:0,0:0:0:0:
331,204,11009,1,8,0:0:0:0:
341,318,11180,6,0,L|334:256,1,43.3500002645874,2|0,0:0|0:0,0:0:0:0:
327,133,11352,1,0,0:0:0:0:
328,126,11437,1,0,0:0:0:0:
329,119,11523,6,0,L|322:57,1,43.3500002645874,2|0,0:0|0:0,0:0:0:0:
392,236,11694,2,0,L|449:260,1,43.3500002645874,8|0,0:0|0:0,0:0:0:0:
263,207,11866,5,2,0:0:0:0:
191,319,12037,5,0,0:0:0:0:
220,305,12123,1,0,0:0:0:0:
239,280,12209,1,8,0:0:0:0:
213,91,12380,5,0,0:0:0:0:
209,99,12466,1,0,0:0:0:0:
207,108,12552,6,0,P|205:126|222:151,1,43.3500002645874,2|0,0:0|0:0,0:0:0:0:
374,211,12723,2,0,P|359:200|329:202,1,43.3500002645874,2|0,0:0|0:0,0:0:0:0:
176,248,12894,5,2,0:0:0:0:
337,270,13066,1,10,0:0:0:0:
281,115,13237,5,2,0:0:0:0:
218,320,13409,2,0,P|234:312|247:285,1,43.3500002645874,2|0,0:0|0:0,0:0:0:0:
150,177,13580,6,0,L|87:188,1,43.3500002645874,10|0,0:0|0:0,0:0:0:0:
339,181,13752,2,0,L|402:170,1,43.3500002645874,10|0,0:0|0:0,0:0:0:0:
244,201,13923,5,4,0:1:0:0:
221,74,14094,5,0,0:0:0:0:
209,103,14180,1,0,0:0:0:0:
213,137,14266,1,8,0:0:0:0:
337,270,14437,6,0,P|318:252|293:248,1,43.3500002645874
158,258,14609,1,0,0:0:0:0:
150,256,14694,1,0,0:0:0:0:
142,253,14780,6,0,L|205:242,1,43.3500002645874,2|2,0:0|0:0,0:0:0:0:
305,158,14952,2,0,B|364:149|364:149|414:171|414:171|476:161,1,173.40000105835,4|10,0:1|0:0,0:0:0:0:
475,151,15466,6,0,L|432:158,1,43.3500002645874
315,225,15637,2,0,L|358:218,1,43.3500002645874,2|0,0:0|0:0,0:0:0:0:
186,161,15809,2,0,L|143:168,1,43.3500002645874,8|0,0:0|0:0,0:0:0:0:
76,136,15980,5,4,0:1:0:0:
233,227,16152,1,0,0:0:0:0:
31,277,16323,5,8,0:0:0:0:
162,242,16495,1,0,0:0:0:0:
153,244,16580,1,0,0:0:0:0:
144,246,16666,1,0,0:0:0:0:
165,380,16837,5,0,0:0:0:0:
212,297,17009,1,0,0:0:0:0:
318,358,17180,5,8,0:0:0:0:
327,356,17265,1,0,0:0:0:0:
336,354,17352,2,0,L|386:356,1,43.3500002645874
451,329,17523,1,0,0:0:0:0:
421,296,17609,1,0,0:0:0:0:
421,253,17694,1,8,0:0:0:0:
449,219,17780,1,0,0:0:0:0:
486,196,17866,1,8,0:0:0:0:
501,155,17952,1,0,0:0:0:0:
493,123,18037,5,0,0:0:0:0:
243,217,18209,1,0,0:0:0:0:
234,220,18294,1,0,0:0:0:0:
225,223,18380,6,0,L|338:211,1,107.099996731567,8|0,0:0|0:0,0:0:0:0:
433,154,18894,2,0,L|389:158,2,26.7749991828919
432,293,19237,5,0,0:0:0:0:
439,291,19323,1,0,0:0:0:0:
446,289,19409,6,0,L|303:306,1,144.500002756119,8|0,0:0|0:0,0:0:0:0:
192,308,19923,2,0,L|235:303,1,36.1250006890297,8|0,0:0|0:0,0:0:0:0:
270,242,20094,5,0,0:0:0:0:
276,83,20266,1,0,0:0:0:0:
271,72,20352,1,0,0:0:0:0:
266,61,20437,6,0,L|274:177,1,107.099996731567,8|0,0:0|0:0,0:0:0:0:
344,242,20952,1,0,0:0:0:0:
355,248,21037,1,0,0:0:0:0:
367,252,21123,1,0,0:0:0:0:
197,242,21294,6,0,P|182:236|157:232,1,36.1250006890297,8|0,0:0|0:0,0:0:0:0:
40,211,21466,6,0,B|76:211|113:181|113:181|95:201|94:219,1,107.099996731567
37,143,21980,6,0,P|54:138|70:130,1,36.1250006890297,8|0,0:0|0:0,0:0:0:0:
146,53,22152,6,0,L|138:157,2,88.3999994604492,0|8|0,0:0|0:0|0:0,0:0:0:0:
214,74,23009,1,0,0:0:0:0:
321,50,23180,5,0,0:0:0:0:
220,144,23352,1,0,0:0:0:0:
386,204,23523,1,8,0:0:0:0:
318,322,23694,5,0,0:0:0:0:
317,306,23780,1,0,0:0:0:0:
316,290,23866,1,0,0:0:0:0:
307,134,24037,2,0,L|309:177,1,36.1250006890297,8|0,0:0|0:0,0:0:0:0:
395,284,24209,5,0,0:0:0:0:
194,274,24380,5,0,0:0:0:0:
216,259,24466,1,0,0:0:0:0:
242,257,24552,1,2,0:0:0:0:
445,188,24723,5,0,0:0:0:0:
423,203,24809,1,0,0:0:0:0:
386,204,24895,1,2,0:0:0:0:
158,207,25066,5,0,0:0:0:0:
191,184,25152,1,0,0:0:0:0:
230,181,25238,1,2,0:0:0:0:
459,264,25409,6,0,P|438:272|415:275,1,36.1250006890297,2|0,0:0|0:0,0:0:0:0:
323,260,25580,6,0,P|340:263|357:270,1,36.1250006890297,2|0,0:0|0:0,0:0:0:0:
512,186,25752,2,0,P|494:189|477:196,1,36.1250006890297,2|0,0:0|0:0,0:0:0:0:
385,373,25923,6,0,L|389:327,1,36.1250006890297,8|0,0:0|0:0,0:0:0:0:
401,135,26094,2,0,L|405:89,1,36.1250006890297,8|0,0:0|0:0,0:0:0:0:
464,63,26266,6,0,B|421:73|386:51|386:51|347:69|347:69|311:45|267:57,2,203.999993774414,4|10|2,0:1|0:0|0:0,0:0:0:0:
260,205,27123,1,0,0:0:0:0:
269,205,27209,1,0,0:0:0:0:
278,202,27294,6,0,P|315:165|296:125,1,101.999996887207,2|0,0:0|0:0,0:0:0:0:
168,61,27637,2,0,P|181:111|225:115,1,101.999996887207,10|0,0:0|0:0,0:0:0:0:
270,56,27894,1,0,0:0:0:0:
277,49,27980,6,0,L|272:-1,1,50.9999984436036,2|0,0:0|0:0,0:0:0:0:
296,125,28152,2,0,L|301:175,1,50.9999984436036,8|0,0:0|0:0,0:0:0:0:
326,251,28323,6,0,B|283:261|248:239|248:239|209:257|209:257|173:233|129:244,2,203.999993774414,2|8|0,0:0|0:0|0:0,0:0:0:0:
456,320,29180,1,2,0:0:0:0:
488,301,29266,1,2,0:0:0:0:
485,264,29352,6,0,P|454:246|421:276,1,50.9999984436036,2|0,0:0|0:0,0:0:0:0:
384,300,29523,1,8,0:0:0:0:
510,374,29694,1,2,0:0:0:0:
362,192,29866,1,0,0:0:0:0:
360,184,29952,1,0,0:0:0:0:
359,176,30037,6,0,L|368:226,1,50.9999984436036,2|0,0:0|0:0,0:0:0:0:
303,381,30209,2,0,L|312:330,1,50.9999984436036,10|0,0:0|0:0,0:0:0:0:
278,152,30380,6,0,L|301:283,2,101.999996887207,2|0|8,0:0|0:0|0:0,0:0:0:0:
207,194,30894,1,0,0:0:0:0:
164,181,30980,1,0,0:0:0:0:
123,193,31066,5,2,0:0:0:0:
207,123,31237,1,0,0:0:0:0:
232,88,31323,1,0,0:0:0:0:
272,74,31409,5,2,0:0:0:0:
319,191,31580,1,8,0:0:0:0:
292,177,31666,1,0,0:0:0:0:
278,152,31752,5,2,0:0:0:0:
342,127,31923,1,0,0:0:0:0:
341,111,32009,1,0,0:0:0:0:
348,99,32095,5,2,0:0:0:0:
408,125,32266,2,0,P|423:122|438:127,2,25.4999992218018,8|0|4,0:0|0:0|0:1,0:0:0:0:
256,192,32523,12,0,34152,0:0:0:0:
268,184,34494,5,4,0:1:0:0:
268,190,34580,1,0,0:0:0:0:
268,196,34666,1,0,0:0:0:0:
268,202,34752,1,0,0:0:0:0:
268,208,34837,6,0,P|251:198|218:197,1,42.5,8|0,0:0|0:0,0:0:0:0:
229,268,35009,2,0,P|211:277|194:305,1,42.5
262,328,35180,1,2,0:0:0:0:
293,295,35266,1,0,0:0:0:0:
338,289,35352,1,2,0:0:0:0:
378,309,35437,1,0,0:0:0:0:
378,302,35523,5,0,0:0:0:0:
379,296,35609,1,0,0:0:0:0:
379,290,35695,1,0,0:0:0:0:
379,284,35781,1,0,0:0:0:0:
379,278,35866,6,0,P|397:288|420:288,1,42.5,8|0,0:0|0:0,0:0:0:0:
409,221,36037,2,0,P|427:209|437:189,1,42.5
326,161,36209,6,0,L|345:233,1,59.4999981842042,2|0,0:0|0:0,0:0:0:0:
433,346,36380,2,0,L|414:274,1,59.4999981842042,10|0,0:0|0:0,0:0:0:0:
392,138,36552,5,2,0:0:0:0:
392,131,36637,1,0,0:0:0:0:
392,124,36723,1,0,0:0:0:0:
394,117,36809,1,0,0:0:0:0:
396,110,36894,6,0,L|450:92,1,42.5,8|0,0:0|0:0,0:0:0:0:
345,53,37066,2,0,L|356:-2,1,42.5
258,58,37237,1,2,0:0:0:0:
264,63,37323,1,0,0:0:0:0:
270,68,37409,2,0,L|227:30,1,42.5,2|0,0:0|0:0,0:0:0:0:
245,140,37580,5,0,0:0:0:0:
238,142,37666,1,0,0:0:0:0:
231,144,37752,1,8,0:0:0:0:
224,146,37837,1,0,0:0:0:0:
217,148,37923,6,0,L|257:161,1,42.5,2|0,0:0|0:0,0:0:0:0:
356,101,38094,2,0,P|330:110|315:134,1,42.5
319,255,38266,6,0,P|330:227|324:192,1,59.4999981842042,2|0,0:0|0:0,0:0:0:0:
270,68,38437,2,0,P|251:44|217:32,1,59.4999981842042,10|0,0:0|0:0,0:0:0:0:
162,74,38609,5,2,0:0:0:0:
162,80,38695,1,0,0:0:0:0:
162,86,38781,1,0,0:0:0:0:
162,92,38867,1,0,0:0:0:0:
162,98,38952,6,0,P|145:88|112:87,1,42.5,8|0,0:0|0:0,0:0:0:0:
126,157,39124,2,0,P|108:166|91:194,1,42.5
156,220,39294,1,2,0:0:0:0:
173,262,39380,1,0,0:0:0:0:
216,276,39466,1,2,0:0:0:0:
257,257,39552,1,0,0:0:0:0:
264,254,39637,5,2,0:0:0:0:
272,252,39723,1,0,0:0:0:0:
280,251,39809,1,0,0:0:0:0:
288,251,39894,1,0,0:0:0:0:
296,252,39980,6,0,P|317:260|334:274,1,42.5,8|0,0:0|0:0,0:0:0:0:
282,319,40152,2,0,P|285:341|281:362,1,42.5
157,332,40323,6,0,L|220:337,1,59.4999981842042,2|0,0:0|0:0,0:0:0:0:
354,337,40494,2,0,L|417:342,1,59.4999981842042,10|0,0:0|0:0,0:0:0:0:
399,272,40666,5,2,0:0:0:0:
401,264,40752,1,0,0:0:0:0:
404,256,40837,1,0,0:0:0:0:
405,248,40923,1,0,0:0:0:0:
405,240,41009,6,0,P|403:218|392:194,1,42.5,10|0,0:0|0:0,0:0:0:0:
297,143,41180,2,0,P|317:152|343:154,1,42.5
435,97,41352,2,0,P|416:109|401:131,1,42.5,2|0,0:0|0:0,0:0:0:0:
378,162,41523,5,2,0:0:0:0:
378,162,41609,1,2,0:0:0:0:
378,162,41694,1,2,0:0:0:0:
341,31,41866,6,0,B|335:56|335:56|346:88,1,59.4999981842042,2|0,0:0|0:0,0:0:0:0:
284,255,42037,2,0,B|308:247|308:247|330:221,1,59.4999981842042,2|0,0:0|0:0,0:0:0:0:
508,193,42209,1,2,0:0:0:0:
508,193,42294,1,2,0:0:0:0:
508,193,42380,6,0,B|489:175|489:175|456:169,1,59.4999981842042,2|0,0:0|0:0,0:0:0:0:
300,150,42552,2,0,B|274:157|274:157|253:183,1,59.4999981842042,2|0,0:0|0:0,0:0:0:0:
192,220,42723,5,4,0:1:0:0:
184,220,42809,1,0,0:0:0:0:
176,220,42894,1,0,0:0:0:0:
168,220,42980,1,0,0:0:0:0:
160,220,43066,6,0,P|160:200|144:171,1,42.5,8|0,0:0|0:0,0:0:0:0:
90,218,43238,2,0,P|73:206|40:206,1,42.5
49,276,43409,1,2,0:0:0:0:
57,319,43494,1,0,0:0:0:0:
92,347,43580,1,2,0:0:0:0:
137,348,43666,1,0,0:0:0:0:
145,349,43752,5,0,0:0:0:0:
153,349,43838,1,0,0:0:0:0:
161,349,43923,1,0,0:0:0:0:
169,349,44009,1,0,0:0:0:0:
177,349,44094,6,0,P|167:331|166:298,1,42.5,8|0,0:0|0:0,0:0:0:0:
235,307,44266,2,0,P|244:289|273:272,1,42.5
358,344,44437,6,0,L|298:338,1,59.4999981842042,2|0,0:0|0:0,0:0:0:0:
135,234,44609,2,0,L|195:240,1,59.4999981842042,10|0,0:0|0:0,0:0:0:0:
257,204,44780,5,0,0:0:0:0:
259,196,44866,1,0,0:0:0:0:
261,188,44952,1,0,0:0:0:0:
263,180,45037,1,0,0:0:0:0:
264,172,45123,6,0,P|256:153|245:133,1,42.5,8|0,0:0|0:0,0:0:0:0:
335,147,45294,2,0,P|347:130|359:111,1,42.5
408,190,45466,1,2,0:0:0:0:
400,192,45552,1,0,0:0:0:0:
392,195,45637,2,0,P|412:197|435:198,1,42.5,2|0,0:0|0:0,0:0:0:0:
378,268,45809,5,0,0:0:0:0:
381,276,45894,1,0,0:0:0:0:
384,284,45980,1,8,0:0:0:0:
387,292,46066,1,0,0:0:0:0:
390,300,46152,6,0,L|347:302,1,42.5,2|0,0:0|0:0,0:0:0:0:
267,218,46323,2,0,P|289:233|298:260,1,42.5
263,376,46495,6,0,P|259:346|274:313,1,59.4999981842042,2|0,0:0|0:0,0:0:0:0:
359,209,46666,2,0,P|383:190|419:187,1,59.4999981842042,10|0,0:0|0:0,0:0:0:0:
388,118,46837,5,4,0:1:0:0:
388,110,46923,1,0,0:0:0:0:
388,102,47009,1,0,0:0:0:0:
388,94,47094,1,0,0:0:0:0:
388,86,47180,6,0,P|382:61|372:44,1,42.5,8|0,0:0|0:0,0:0:0:0:
317,91,47352,2,0,P|292:83|272:83,1,42.5
287,154,47523,1,2,0:0:0:0:
254,185,47609,1,0,0:0:0:0:
247,229,47694,1,2,0:0:0:0:
263,271,47780,1,0,0:0:0:0:
268,278,47866,5,2,0:0:0:0:
272,286,47952,1,0,0:0:0:0:
274,294,48037,1,0,0:0:0:0:
275,302,48123,1,0,0:0:0:0:
275,311,48209,6,0,P|273:338|264:355,1,42.5,8|0,0:0|0:0,0:0:0:0:
206,313,48380,2,0,P|181:324|162:325,1,42.5
108,252,48552,6,0,L|167:255,1,59.4999981842042,2|0,0:0|0:0,0:0:0:0:
377,223,48723,2,0,L|318:220,1,59.4999981842042,10|0,0:0|0:0,0:0:0:0:
188,150,48894,5,6,0:0:0:0:
188,141,48980,1,0,0:0:0:0:
188,132,49066,1,0,0:0:0:0:
188,123,49152,1,0,0:0:0:0:
188,114,49237,6,0,P|183:94|171:71,1,42.5,8|0,0:0|0:0,0:0:0:0:
265,106,49409,2,0,P|279:91|293:69,1,42.5
115,142,49580,6,0,P|90:135|53:139,1,59.4999981842042,2|0,0:0|0:0,0:0:0:0:
377,223,49752,2,0,P|401:229|438:225,1,59.4999981842042,10|0,0:0|0:0,0:0:0:0:
281,213,49923,5,2,0:0:0:0:
233,199,50009,1,2,0:0:0:0:
188,211,50094,1,2,0:0:0:0:
159,250,50180,1,2,0:0:0:0:
223,333,50266,21,2,0:0:0:0:
225,325,50352,1,2,0:0:0:0:
227,317,50437,2,0,P|230:295|231:267,1,42.5,2|2,0:0|0:0,0:0:0:0:
191,90,50609,6,0,P|191:112|195:139,1,42.5
303,282,50780,1,2,0:0:0:0:
325,297,50866,1,2,0:0:0:0:
351,298,50952,21,2,0:0:0:0:
482,206,51809,2,0,L|433:215,1,34,2|2,0:0|0:0,0:0:0:0:
393,246,51980,6,0,B|399:192|399:192|395:165|395:165|400:106,2,136,2|2|2,0:0|0:0|0:0,0:0:0:0:
470,134,52837,1,2,0:0:0:0:
242,250,53009,6,0,P|245:210|331:196,1,136,2|0,0:0|0:0,0:0:0:0:
440,285,53523,1,0,0:0:0:0:
440,285,53694,2,0,P|422:254|370:254,1,68,2|0,0:0|0:0,0:0:0:0:
336,384,54037,6,0,B|293:331|322:266|322:266|336:305|371:313,1,181.049990883408,2|0,0:0|0:0,0:0:0:0:
398,195,54723,2,0,P|402:228|385:251,1,54.4,2|2,0:0|0:0,0:0:0:0:
325,191,55066,6,0,L|311:56,2,136,2|2|2,0:0|0:0|0:0,0:0:0:0:
267,235,55923,1,0,0:0:0:0:
250,164,56094,6,0,P|222:176|203:197,1,54.4,2|0,0:0|0:0,0:0:0:0:
164,305,56437,2,0,P|167:275|159:248,1,54.4,2|0,0:0|0:0,0:0:0:0:
85,161,56780,2,0,P|109:178|137:185,1,54.4,2|0,0:0|0:0,0:0:0:0:
176,75,57123,5,2,0:0:0:0:
171,68,57294,2,0,L|175:138,2,54.4
227,29,57809,1,2,0:0:0:0:
160,251,57980,1,2,0:0:0:0:
100,88,58152,5,2,0:0:0:0:
208,189,58323,1,0,0:0:0:0:
84,246,58494,5,0,0:0:0:0:
132,184,58666,1,0,0:0:0:0:
160,251,58837,5,2,0:0:0:0:
119,310,59009,1,2,0:0:0:0:
313,283,59180,5,2,0:0:0:0:
374,313,59352,1,0,0:0:0:0:
431,212,59523,5,0,0:0:0:0:
370,242,59695,1,0,0:0:0:0:
479,259,59866,1,0,0:0:0:0:
371,129,60037,1,2,0:0:0:0:
368,123,60123,1,2,0:0:0:0:
365,117,60209,6,0,L|378:193,1,54.4,2|0,0:0|0:0,0:0:0:0:
439,142,60552,2,0,L|426:66,1,54.4,2|0,0:0|0:0,0:0:0:0:
448,324,60894,2,0,L|461:400,1,54.4,2|0,0:0|0:0,0:0:0:0:
479,259,61237,6,0,B|426:262|381:240|381:240|396:264|399:285,1,142.79999564209,2|0,0:0|0:0,0:0:0:0:
395,288,61752,1,0,0:0:0:0:
354,337,61923,5,2,0:0:0:0:
291,325,62094,1,2,0:0:0:0:
231,195,62266,21,2,0:0:0:0:
294,203,62437,1,2,0:0:0:0:
315,263,62608,1,2,0:0:0:0:
231,355,62780,5,2,0:0:0:0:
220,358,62952,1,2,0:0:0:0:
209,360,63123,1,2,0:0:0:0:
97,308,63294,6,0,L|244:286,1,142.79999564209,2|2,0:0|0:0,0:0:0:0:
291,325,63809,1,0,0:0:0:0:
361,336,63980,2,0,L|290:324,1,71.399997821045,2|0,0:0|0:0,0:0:0:0:
440,279,64323,6,0,L|293:257,1,142.79999564209,2|2,0:0|0:0,0:0:0:0:
243,216,64837,1,0,0:0:0:0:
104,242,65009,2,0,L|174:230,1,71.399997821045,2|0,0:0|0:0,0:0:0:0:
292,68,65352,5,2,0:0:0:0:
284,69,65695,5,0,0:0:0:0:
276,70,65866,1,0,0:0:0:0:
216,51,66037,5,2,0:0:0:0:
284,133,66209,1,2,0:0:0:0:
328,30,66380,1,2,0:0:0:0:
218,119,66552,37,0,0:0:0:0:
341,97,66723,1,2,0:0:0:0:
265,0,66894,1,2,0:0:0:0:
292,203,67066,21,2,0:0:0:0:
289,185,67151,1,2,0:0:0:0:
287,167,67237,1,2,0:0:0:0:
285,149,67323,1,2,0:0:0:0:
283,132,67408,37,4,0:1:0:0:
256,260,67752,21,0,0:0:0:0:
292,322,67923,2,0,P|316:296|324:255,1,68,2|8,0:0|0:0,0:0:0:0:
201,327,68266,5,0,0:0:0:0:
210,326,68352,1,0,0:0:0:0:
219,325,68437,2,0,B|194:312|167:325|167:325|146:346|146:346|120:360|89:348,1,136,2|0,0:0|0:0,0:0:0:0:
149,222,68952,5,2,0:0:0:0:
79,226,69123,2,0,P|88:258|111:282,1,68,2|2,0:0|0:0,0:0:0:0:
292,322,69466,5,2,0:0:0:0:
256,260,69809,5,0,0:0:0:0:
221,322,69980,1,2,0:0:0:0:
292,322,70152,1,8,0:0:0:0:
327,259,70323,5,2,0:0:0:0:
328,249,70409,1,2,0:0:0:0:
329,239,70494,2,0,B|328:197|337:142|337:142|327:170|303:183,2,136,2|2|2,0:0|0:0|0:0,0:0:0:0:
395,256,71352,1,0,0:0:0:0:
271,122,71523,5,2,0:0:0:0:
406,105,71866,5,0,0:0:0:0:
379,165,72037,1,2,0:0:0:0:
313,174,72209,1,8,0:0:0:0:
291,43,72380,5,2,0:0:0:0:
291,50,72466,1,2,0:0:0:0:
291,57,72552,5,2,0:0:0:0:
271,122,72723,1,0,0:0:0:0:
205,138,72895,5,2,0:0:0:0:
159,88,73067,1,0,0:0:0:0:
226,5,73237,38,0,P|226:39|224:73,1,68,2|0,0:0|0:0,0:0:0:0:
131,241,73580,38,0,P|131:207|133:173,1,68,2|0,0:0|0:0,0:0:0:0:
136,163,73837,1,0,0:0:0:0:
139,153,73923,2,0,P|140:137|140:113,2,34,2|0|0,0:0|0:0|0:0,0:0:0:0:
162,302,74266,37,8,0:0:0:0:
162,310,74352,1,0,0:0:0:0:
163,318,74437,1,0,0:0:0:0:
164,326,74523,1,0,0:0:0:0:
165,334,74609,37,0,0:0:0:0:
225,306,74780,1,0,0:0:0:0:
289,327,74952,1,0,0:0:0:0:
335,259,75123,5,2,0:0:0:0:
223,223,75295,1,2,0:0:0:0:
89,287,75466,1,2,0:0:0:0:
310,144,75637,5,4,0:1:0:0:
225,306,75980,1,8,0:0:0:0:
113,162,76323,1,0,0:0:0:0:
182,134,76494,5,0,0:0:0:0:
183,146,76580,1,0,0:0:0:0:
185,158,76666,1,0,0:0:0:0:
89,287,76837,5,8,0:0:0:0:
223,223,77009,1,2,0:0:0:0:
157,366,77180,6,0,L|149:320,1,39.099998687439,2|0,0:0|0:0,0:0:0:0:
106,119,77352,6,0,L|113:162,1,42.5,8|0,0:0|0:0,0:0:0:0:
220,298,77523,2,0,P|241:295|262:286,1,42.5,8|0,0:0|0:0,0:0:0:0:
456,171,77694,5,2,0:0:0:0:
259,153,78037,1,8,0:0:0:0:
344,315,78380,1,0,0:0:0:0:
351,313,78466,1,0,0:0:0:0:
358,311,78552,2,0,P|380:313|400:324,1,42.5,2|2,0:0|0:0,0:0:0:0:
436,378,78723,37,2,0:0:0:0:
332,244,78894,38,0,P|322:223|322:201,1,42.5,8|2,0:0|0:0,0:0:0:0:
279,291,79066,2,0,P|266:309|246:320,1,42.5,2|2,0:0|0:0,0:0:0:0:
401,255,79237,2,0,P|422:251|444:256,1,42.5,2|2,0:0|0:0,0:0:0:0:
257,227,79409,38,0,P|238:214|227:194,1,42.5,8|0,0:0|0:0,0:0:0:0:
388,187,79580,2,0,P|397:166|397:144,1,42.5,2|2,0:0|0:0,0:0:0:0:
276,44,79752,38,0,B|261:79|283:109|283:109|309:127|309:127|330:162|315:197,2,170,4|8|0,0:1|0:0|0:0,0:0:0:0:
141,154,80609,2,0,P|121:155|93:141,1,42.5,2|2,0:0|0:0,0:0:0:0:
62,84,80780,5,4,0:1:0:0:
252,170,80952,1,8,0:0:0:0:
81,251,81123,1,0,0:0:0:0:
129,43,81294,5,2,0:0:0:0:
129,38,81380,1,2,0:0:0:0:
129,32,81466,2,0,P|128:56|131:79,1,46.7500014266968,2|2,0:0|0:0,0:0:0:0:
150,272,81637,2,0,P|150:249|148:226,1,46.7500014266968,8|2,0:0|0:0,0:0:0:0:
141,154,81809,5,4,0:1:0:0:
239,92,81980,22,0,P|216:95|198:110,1,46.7500014266968,2|0,0:0|0:0,0:0:0:0:
30,119,82152,2,0,P|53:115|75:125,1,46.7500014266968,2|0,0:0|0:0,0:0:0:0:
209,183,82323,6,0,P|236:191|265:197,1,46.7500014266968,2|0,0:0|0:0,0:0:0:0:
131,79,82494,2,0,P|124:51|115:23,1,46.7500014266968,2|0,0:0|0:0,0:0:0:0:
61,219,82666,5,2,0:0:0:0:
55,226,82752,1,2,0:0:0:0:
47,231,82837,22,0,P|63:214|80:198,1,46.7500014266968,2|2,0:0|0:0,0:0:0:0:
209,183,83009,2,0,P|232:189|255:194,1,46.7500014266968,2|2,0:0|0:0,0:0:0:0:
161,267,83180,22,0,P|154:245|148:223,1,46.7500014266968,2|2,0:0|0:0,0:0:0:0:
131,79,83352,2,0,P|125:57|117:35,1,46.7500014266968,2|2,0:0|0:0,0:0:0:0:
197,112,83523,38,0,P|214:95|230:77,1,46.7500014266968,2|2,0:0|0:0,0:0:0:0:
73,124,83694,2,0,P|50:117|27:113,1,46.7500014266968,2|2,0:0|0:0,0:0:0:0:
141,154,83866,21,4,0:1:0:0:
141,154,86094,2,0,P|146:146|150:134,1,17
119,50,86437,1,0,0:0:0:0:
119,55,86523,2,0,P|124:66|133:75,1,25.4999992218018
252,84,86780,2,0,L|185:93,1,55.2499974708558
82,122,87123,5,0,0:0:0:0:
216,158,87294,1,0,0:0:0:0:
163,356,87466,5,0,0:0:0:0:
153,356,87552,1,0,0:0:0:0:
102,311,87637,5,0,0:0:0:0:
106,242,87723,1,0,0:0:0:0:
167,209,87809,5,0,0:0:0:0:
234,225,87894,1,0,0:0:0:0:
257,330,87980,5,4,1:1:0:0:
285,177,88152,1,0,0:0:0:0:
285,177,88237,2,0,B|259:133|203:126|203:126|216:145|217:169,1,136,0|0,1:0|0:0,0:0:0:0:
301,249,88494,6,0,P|331:234|352:201,1,68,0|0,1:0|0:0,0:0:0:0:
330,69,88666,2,0,P|334:103|341:137,1,68,0|0,1:0|0:0,0:0:0:0:
434,335,88837,5,0,1:0:0:0:
433,327,88923,1,0,0:0:0:0:
432,318,89009,22,0,B|429:279|418:222|418:222|410:251|394:262,1,136,0|0,1:0|0:0,0:0:0:0:
278,367,89266,2,0,P|279:333|369:328,1,136,0|0,1:0|0:0,0:0:0:0:
385,384,89523,1,0,1:0:0:0:
350,206,89694,37,0,1:0:0:0:
385,384,89866,1,0,1:0:0:0:
475,216,90037,22,0,P|474:182|387:173,1,123.250003761292,0|0,1:0|0:0,0:0:0:0:
328,95,90294,1,0,1:0:0:0:
320,92,90380,6,0,P|325:121|336:140,1,50.9999984436036,0|0,0:0|0:0,0:0:0:0:
412,224,90552,1,0,1:0:0:0:
394,90,90723,21,0,1:0:0:0:
239,188,90894,6,0,P|265:187|291:184,1,46.3250004948044,0|0,1:0|0:0,0:0:0:0:
446,155,91066,2,0,P|423:156|400:159,1,46.3250004948044,0|0,1:0|0:0,0:0:0:0:
335,247,91237,21,0,0:0:0:0:
333,257,91323,1,0,0:0:0:0:
332,267,91409,1,0,0:0:0:0:
331,277,91494,1,0,0:0:0:0:
330,287,91580,1,0,0:0:0:0:
329,297,91666,1,0,0:0:0:0:
328,307,91752,37,0,0:0:0:0:
279,355,91837,1,0,0:0:0:0:
210,346,91923,1,0,0:0:0:0:
188,280,92009,1,0,0:0:0:0:
226,222,92094,21,0,1:0:0:0:
150,119,92266,1,0,0:0:0:0:
141,112,92352,2,0,L|158:220,1,106.25,0|0,1:0|0:0,0:0:0:0:
259,286,92609,6,0,P|292:284|329:306,1,70.1250006687641,0|0,1:0|0:0,0:0:0:0:
138,335,92780,2,0,P|117:355|84:363,1,55.2499974708558,0|0,1:0|0:0,0:0:0:0:
226,222,92952,5,0,1:0:0:0:
230,214,93037,1,0,0:0:0:0:
234,207,93123,22,0,B|255:173|299:135|299:135|291:160|297:181,1,136,0|0,1:0|0:0,0:0:0:0:
113,270,93380,2,0,B|73:268|18:248|18:248|43:243|58:227,1,136,0|0,1:0|0:0,0:0:0:0:
210,346,93637,1,0,1:0:0:0:
153,206,93809,37,0,1:0:0:0:
210,346,93980,1,0,1:0:0:0:
324,300,94152,22,0,P|288:286|257:287,1,68,0|0,1:0|0:0,0:0:0:0:
103,379,94323,5,0,0:0:0:0:
113,357,94408,1,0,1:0:0:0:
133,343,94494,1,0,0:0:0:0:
141,175,94666,5,0,1:0:0:0:
151,189,94751,1,0,0:0:0:0:
153,206,94837,1,0,1:0:0:0:
324,300,95009,5,2,0:0:0:0:
275,298,95094,1,2,0:0:0:0:
259,286,95180,1,2,0:0:0:0:
399,302,95352,21,0,0:0:0:0:
410,301,95437,1,0,0:0:0:0:
468,338,95523,37,0,0:0:0:0:
506,290,95609,1,0,0:0:0:0:
488,231,95694,1,2,0:0:0:0:
413,207,95780,1,2,0:0:0:0:
374,160,95866,21,2,0:0:0:0:
375,121,95952,1,2,0:0:0:0:
391,103,96037,1,2,0:0:0:0:
403,98,96123,1,2,0:0:0:0:
488,133,96209,5,4,1:1:0:0:
347,222,96380,1,0,0:0:0:0:
347,222,96466,2,0,B|318:211|293:229|293:229|278:251|278:251|249:268|220:256,1,136,0|0,1:0|0:0,0:0:0:0:
204,139,96723,6,0,P|230:164|234:204,1,68,0|0,1:0|0:0,0:0:0:0:
133,337,96894,2,0,P|141:301|174:278,1,68,0|0,1:0|0:0,0:0:0:0:
334,289,97066,5,0,1:0:0:0:
342,292,97152,1,0,0:0:0:0:
350,295,97237,22,0,B|444:269|444:269|419:267|403:248,1,136,0|0,1:0|0:0,0:0:0:0:
170,195,97494,2,0,B|76:221|76:221|101:223|117:242,1,136,0|0,1:0|0:0,0:0:0:0:
227,258,97752,1,0,1:0:0:0:
450,200,97923,37,0,1:0:0:0:
227,258,98094,1,0,1:0:0:0:
403,150,98266,22,0,P|385:94|328:93,1,123.250003761292,0|0,1:0|0:0,0:0:0:0:
293,171,98523,1,0,1:0:0:0:
284,172,98609,6,0,L|334:164,1,50.9999984436036,0|0,0:0|0:0,0:0:0:0:
473,136,98780,1,0,1:0:0:0:
383,215,98952,21,0,1:0:0:0:
422,311,99123,6,0,P|426:285|429:241,1,46.3250004948044,0|0,1:0|0:0,0:0:0:0:
409,104,99294,2,0,P|404:129|402:174,1,46.3250004948044,0|0,1:0|0:0,0:0:0:0:
318,240,99466,21,0,0:0:0:0:
307,241,99552,1,0,0:0:0:0:
296,242,99637,1,0,0:0:0:0:
285,243,99723,1,0,0:0:0:0:
274,244,99809,1,0,0:0:0:0:
263,245,99894,1,0,0:0:0:0:
252,246,99980,37,0,0:0:0:0:
185,227,100065,1,0,0:0:0:0:
159,163,100151,1,0,0:0:0:0:
204,109,100237,1,0,0:0:0:0:
273,112,100323,21,4,0:1:0:0:
202,296,100494,1,0,0:0:0:0:
203,308,100580,1,0,1:0:0:0:
204,320,100666,1,0,0:0:0:0:
134,95,100837,5,0,1:0:0:0:
307,186,101009,1,0,1:0:0:0:
133,279,101180,2,0,P|99:287|72:306,1,68,0|0,1:2|1:0,0:0:0:0:
275,297,101352,22,0,P|334:327|412:320,1,136,4|0,0:1|0:0,0:0:0:0:
412,319,101609,1,0,1:0:0:0:
421,313,101694,1,0,0:0:0:0:
404,144,101866,6,0,P|382:147|365:153,1,36.1250006890297,0|0,1:0|0:0,0:0:0:0:
234,99,102037,2,0,P|254:115|265:130,1,42.5,0|0,1:0|0:0,0:0:0:0:
341,44,102209,2,0,L|324:109,1,53.125,0|0,1:0|0:0,0:0:0:0:
307,186,102380,5,4,0:1:0:0:
163,343,102552,5,0,0:0:0:0:
148,348,102637,1,0,1:0:0:0:
132,350,102723,1,0,0:0:0:0:
86,122,102894,5,0,1:0:0:0:
85,113,102980,1,0,0:0:0:0:
84,104,103066,6,0,L|164:113,1,68,0|0,1:0|0:0,0:0:0:0:
300,313,103237,2,0,L|232:320,1,68,0|0,1:0|1:0,0:0:0:0:
186,249,103409,5,4,0:1:0:0:
180,202,103494,1,0,0:0:0:0:
214,169,103580,1,0,0:0:0:0:
261,172,103666,1,0,0:0:0:0:
290,209,103752,1,0,0:0:0:0:
337,212,103837,1,0,0:0:0:0:
376,184,103923,1,0,0:0:0:0:
379,136,104009,1,0,0:0:0:0:
313,47,104094,5,2,0:0:0:0:
309,55,104180,1,2,0:0:0:0:
306,63,104266,1,2,0:0:0:0:
304,71,104352,1,2,0:0:0:0:
304,78,104437,6,0,B|308:208|371:155|373:284,2,220.999989883423,4|0|0,0:1|0:0|0:0,0:0:0:0:
317,324,105294,1,2,0:0:0:0:
310,330,105380,1,2,0:0:0:0:
302,336,105466,6,0,P|248:340|201:311,1,110.499994941712,2|0,0:0|0:0,0:0:0:0:
140,142,105809,2,0,P|170:186|168:241,1,110.499994941712,2|0,0:0|0:0,0:0:0:0:
53,380,106152,2,0,P|76:331|125:305,1,110.499994941712,2|0,0:0|0:0,0:0:0:0:
245,244,106494,6,0,B|321:270|407:257|407:257|368:271|356:292,2,220.999989883423,2|0|0,0:0|0:0|0:0,0:0:0:0:
192,164,107352,1,2,0:0:0:0:
190,155,107437,1,2,0:0:0:0:
189,145,107523,6,0,P|196:94|235:49,1,110.499994941712,2|0,0:0|0:0,0:0:0:0:
154,247,107866,2,0,P|106:266|47:255,1,110.499994941712,2|0,0:0|0:0,0:0:0:0:
246,244,108209,1,2,0:0:0:0:
123,182,108380,1,0,0:0:0:0:
201,328,108552,6,0,P|259:338|335:217,2,220.999989883423,2|0|2,0:0|0:0|0:0,0:0:0:0:
154,247,109409,1,0,0:0:0:0:
282,178,109580,6,0,L|396:187,1,110.499994941712,2|0,0:0|0:0,0:0:0:0:
500,267,109923,2,0,L|386:258,1,110.499994941712,2|0,0:0|0:0,0:0:0:0:
174,97,110266,2,0,L|288:106,1,110.499994941712,2|0,0:0|0:0,0:0:0:0:
340,60,110609,1,2,0:0:0:0:
246,244,110952,5,0,0:0:0:0:
184,279,111123,1,0,0:0:0:0:
124,171,111294,5,2,0:0:0:0:
185,207,111465,1,2,0:0:0:0:
79,227,111637,1,0,0:0:0:0:
186,135,111809,21,0,0:0:0:0:
115,289,111980,1,0,0:0:0:0:
113,299,112066,1,0,0:0:0:0:
112,309,112152,1,0,0:0:0:0:
54,161,112323,5,2,0:0:0:0:
53,151,112409,1,2,0:0:0:0:
52,141,112494,1,2,0:0:0:0:
51,131,112580,1,2,0:0:0:0:
50,121,112666,22,0,B|176:124|123:187|253:191,2,220.999989883423,6|0|0,0:0|0:0|0:0,0:0:0:0:
326,155,113523,1,2,0:0:0:0:
329,146,113609,1,2,0:0:0:0:
332,137,113694,6,0,P|338:88|317:24,1,110.499994941712,2|0,0:0|0:0,0:0:0:0:
339,232,114037,2,0,P|378:261|444:275,1,110.499994941712,2|0,0:0|0:0,0:0:0:0:
253,191,114380,2,0,P|207:210|162:260,1,110.499994941712,2|0,0:0|0:0,0:0:0:0:
58,249,114723,6,0,P|174:258|245:329,2,220.999989883423,2|0|0,0:0|0:0|0:0,0:0:0:0:
285,159,115580,1,2,0:0:0:0:
282,150,115666,1,2,0:0:0:0:
279,141,115752,6,0,P|239:111|173:97,1,110.499994941712,2|0,0:0|0:0,0:0:0:0:
351,128,116094,1,2,0:0:0:0:
378,264,116266,1,0,0:0:0:0:
370,258,116352,1,0,0:0:0:0:
364,251,116437,6,0,P|352:230|346:188,1,55.2499974708558,2|0,0:0|0:0,0:0:0:0:
338,2,116609,2,0,P|351:26|356:53,1,55.2499974708558
279,226,116780,5,4,0:1:0:0:
227,275,116952,1,0,0:0:0:0:
159,299,117123,1,0,0:0:0:0:
88,293,117294,1,0,0:0:0:0:
25,259,117466,1,0,0:0:0:0:
0,193,117637,1,0,0:0:0:0:
75,131,117809,5,4,0:1:0:0:
86,132,117894,1,0,0:0:0:0:
97,133,117980,1,0,0:0:0:0:
108,134,118066,1,0,0:0:0:0:
119,135,118152,1,0,0:0:0:0:
130,136,118237,1,0,0:0:0:0:
141,137,118323,1,0,0:0:0:0:
152,138,118409,1,0,0:0:0:0:
163,139,118494,1,0,0:0:0:0:
174,140,118580,1,0,0:0:0:0:
185,141,118666,1,0,0:0:0:0:
196,142,118752,1,0,0:0:0:0:
239,212,118837,5,4,0:1:0:0:
274,197,118922,1,0,0:0:0:0:
312,191,119008,1,0,0:0:0:0:
349,203,119094,1,0,0:0:0:0:
381,224,119179,1,0,0:0:0:0:
418,235,119265,1,0,0:0:0:0:
455,229,119351,1,0,0:0:0:0:
491,213,119437,1,0,0:0:0:0:
474,141,119523,5,0,0:0:0:0:
474,141,119609,1,0,0:0:0:0:
474,141,119694,2,0,L|403:154,1,68,2|2,0:0|0:0,0:0:0:0:
286,269,119866,5,4,0:1:0:0:
225,292,119952,1,2,0:0:0:0:
170,257,120037,1,2,0:0:0:0:
164,192,120123,1,2,0:0:0:0:
183,147,120209,1,2,0:0:0:0:
200,103,120294,1,2,0:0:0:0:
188,64,120380,1,2,0:0:0:0:
158,48,120466,1,2,0:0:0:0:
131,47,120552,1,0,0:0:0:0:
114,57,120637,1,0,0:0:0:0:
108,69,120723,1,0,0:0:0:0:
108,76,120809,1,0,0:0:0:0:
108,83,120894,6,0,L|109:98,2,8.5
127,331,121237,5,6,0:0:0:0:
