osu file format v14

[General]
AudioFilename: audio.mp3
AudioLeadIn: 0
PreviewTime: 87980
Countdown: 0
SampleSet: Soft
StackLeniency: 0.7
Mode: 0
LetterboxInBreaks: 0
WidescreenStoryboard: 1

[Editor]
Bookmarks: 1580,9809,18037,26266,34494,50952,67409,75637,83866,104437,120894
DistanceSpacing: 1.1
BeatDivisor: 4
GridSize: 4
TimelineZoom: 3.000005

[Metadata]
Title:Crystal Illusion
TitleUnicode:Crystal Illusion
Artist:P4koo
ArtistUnicode:P4koo
Creator:Beomsan
Version:Rieri's Easy
Source:
Tags:Osu fan cafe mapping contest #3 OMC#3 Down milr_ [White_Music] Cellina Mandu- Reana Beom Nasmoeb Rieri ProEzreal
BeatmapID:1694090
BeatmapSetID:797393

[Difficulty]
HPDrainRate:3
CircleSize:3
OverallDifficulty:3
ApproachRate:3
SliderMultiplier:0.799999999999999
SliderTickRate:1

[Events]
//Background and Video events
0,0,"omcbackground.png",0,0
//Break Periods
2,18237,24826
2,84066,86540
//Storyboard Layer 0 (Background)
//Storyboard Layer 1 (Fail)
//Storyboard Layer 2 (Pass)
//Storyboard Layer 3 (Foreground)
//Storyboard Sound Samples

[TimingPoints]
552,342.857142857143,3,2,1,40,1,0
1237,-100,3,2,1,40,0,0
1580,-100,3,2,1,40,0,0
1666,-100,3,2,1,40,0,0
2609,-100,3,2,1,40,0,0
2694,-100,3,2,1,40,0,0
3637,-100,3,2,1,40,0,0
3723,-100,3,2,1,40,0,0
4666,-100,3,2,1,40,0,0
4752,-100,3,2,1,40,0,0
5694,-100,3,2,1,40,0,0
5780,-100,3,2,1,40,0,0
6723,-100,3,2,1,40,0,0
7066,-100,3,2,1,45,0,0
7409,-100,3,2,1,50,0,0
7752,-100,3,2,1,40,0,0
8780,-100,3,2,1,50,0,0
8952,-100,3,2,1,40,0,0
9466,-100,3,2,1,40,0,0
9809,-100,3,2,4,80,0,0
9980,-100,3,2,2,80,0,0
10666,-100,3,2,2,80,0,0
11009,-100,3,2,2,80,0,0
11180,-100,3,2,2,80,0,0
11523,-100,3,2,2,80,0,0
11866,-100,3,2,1,80,0,0
12037,-100,3,2,2,80,0,0
12552,-100,3,2,5,80,0,0
13066,-100,3,2,2,80,0,0
14780,-100,3,2,1,80,0,0
14952,-100,3,2,4,80,0,0
15294,-100,3,2,2,80,0,0
16666,-100,3,2,2,80,0,0
17180,-100,3,2,2,80,0,0
17352,-100,3,2,2,80,0,0
17694,-100,3,2,2,80,0,0
18037,-100,3,2,2,80,0,0
18209,-100,3,2,5,60,0,0
19409,-100,3,2,5,60,0,0
20266,-100,3,2,5,60,0,0
21294,-100,3,2,5,60,0,0
21466,-100,3,2,5,60,0,0
21980,-100,3,2,5,60,0,0
22152,-100,3,2,5,45,0,0
22494,-100,3,2,5,45,0,0
22837,-100,3,2,5,47,0,0
23180,-100,3,2,5,50,0,0
23523,-100,3,2,5,52,0,0
23866,-100,3,2,5,56,0,0
24037,-100,3,2,5,57,0,0
24209,-100,3,2,5,59,0,0
24552,-100,3,2,5,63,0,0
24894,-100,3,2,1,69,0,0
25237,-100,3,2,1,74,0,0
25409,-100,3,2,2,65,0,0
26266,-100,3,2,4,70,0,0
26609,-100,3,2,2,70,0,0
31923,-100,3,2,2,70,0,0
34494,-100,3,2,4,70,0,0
35180,-100,3,2,1,70,0,0
35523,-100,3,2,4,70,0,0
36209,-100,3,2,1,70,0,0
36552,-100,3,2,4,70,0,0
37237,-100,3,2,1,70,0,0
37580,-100,3,2,4,70,0,0
38094,-100,3,2,1,70,0,0
38266,-100,3,2,1,70,0,0
38609,-100,3,2,4,70,0,0
38952,-100,3,2,4,70,0,0
39294,-100,3,2,1,70,0,0
39637,-100,3,2,4,70,0,0
40323,-100,3,2,1,70,0,0
40666,-100,3,2,4,70,0,0
41352,-100,3,2,1,70,0,0
41523,-100,3,2,1,70,0,0
41694,-100,3,2,1,70,0,0
41866,-100,3,2,1,70,0,0
42723,-100,3,2,4,70,0,0
43409,-100,3,2,1,70,0,0
43752,-100,3,2,4,70,0,0
44437,-100,3,2,1,70,0,0
44780,-100,3,2,4,70,0,0
45466,-100,3,2,1,70,0,0
45809,-100,3,2,4,70,0,0
46495,-100,3,2,1,70,0,0
46837,-100,3,2,4,70,0,0
47523,-100,3,2,1,70,0,0
47866,-100,3,2,4,70,0,0
48552,-100,3,2,1,70,0,0
48894,-100,3,2,4,70,0,0
49580,-100,3,2,1,70,0,0
49923,-100,3,2,1,70,0,0
50266,-100,3,2,1,70,0,0
50780,-100,3,2,1,60,0,0
50866,-100,3,2,1,50,0,0
50952,-100,3,2,1,47,0,0
51809,-100,3,2,1,47,0,0
51980,-100,3,2,1,47,0,0
54037,-100,3,2,1,47,0,0
54380,-100,3,2,1,47,0,0
54723,-100,3,2,1,47,0,0
55066,-100,3,2,1,47,0,0
56094,-100,3,2,1,47,0,0
61237,-100,3,2,1,47,0,0
67066,-100,3,2,1,56,0,0
67408,-100,3,2,4,75,0,0
67752,-100,3,2,1,47,0,0
68094,-100,3,2,5,47,0,0
68266,-100,3,2,1,47,0,0
68952,-100,3,2,1,47,0,0
69809,-100,3,2,1,47,0,0
70152,-100,3,2,5,47,0,0
70323,-100,3,2,1,47,0,0
70837,-100,3,2,1,47,0,0
71180,-100,3,2,1,47,0,0
71866,-100,3,2,1,47,0,0
72209,-100,3,2,5,47,0,0
72380,-100,3,2,1,47,0,0
73067,-100,3,2,1,47,0,0
73237,-100,3,2,5,47,0,0
73409,-100,3,2,1,47,0,0
73580,-100,3,2,1,47,0,0
74266,-100,3,2,5,47,0,0
74352,-100,3,2,1,47,0,0
75637,-100,3,2,1,70,0,0
75980,-100,3,2,5,55,0,0
76323,-100,3,2,1,55,0,0
76837,-100,3,2,5,55,0,0
77009,-100,3,2,1,55,0,0
77352,-100,3,2,5,55,0,0
77694,-100,3,2,1,55,0,0
78037,-100,3,2,5,58,0,0
78380,-100,3,2,1,57,0,0
78552,-100,3,2,1,65,0,0
78894,-100,3,2,5,65,0,0
78980,-100,3,2,1,68,0,0
79409,-100,3,2,5,72,0,0
79580,-100,3,2,1,72,0,0
79752,-100,3,2,2,80,0,0
79837,-100,3,2,5,69,0,0
80437,-100,3,2,1,69,0,0
80780,-100,3,2,2,69,0,0
80952,-100,3,2,5,69,0,0
81294,-100,3,2,1,74,0,0
81637,-100,3,2,5,74,0,0
81809,-100,3,2,2,80,0,0
81980,-100,3,2,1,62,0,0
82152,-100,3,2,1,64,0,0
82323,-100,3,2,1,66,0,0
82494,-100,3,2,1,68,0,0
82666,-100,3,2,1,70,0,0
82837,-100,3,2,1,72,0,0
83009,-100,3,2,1,74,0,0
83180,-100,3,2,1,76,0,0
83352,-100,3,2,1,78,0,0
83523,-100,3,2,1,80,0,0
83694,-100,3,2,1,40,0,0
83866,-100,3,2,1,73,0,0
85752,-100,3,2,1,25,0,0
86437,-100,3,2,1,33,0,0
86780,-100,3,2,1,42,0,0
86952,-100,3,2,1,57,0,0
87123,-100,3,2,1,45,0,0
87294,-100,3,2,1,66,0,0
87466,-100,3,2,1,70,0,0
87637,-100,3,2,1,74,0,0
87809,-100,3,2,1,76,0,0
87980,-100,3,2,1,76,0,0
88152,-100,3,2,6,80,0,0
89694,-100,3,2,6,80,0,0
90037,-100,3,2,6,80,0,0
90294,-100,3,2,6,80,0,0
90723,-100,3,2,6,80,0,0
91237,-100,3,2,2,80,0,0
92094,-100,3,2,6,80,0,0
92352,-100,3,2,6,80,0,0
92609,-100,3,2,6,80,0,0
92780,-100,3,2,6,80,0,0
92952,-100,3,2,6,80,0,0
95352,-100,3,2,6,55,0,0
95523,-100,3,2,6,68,0,0
95866,-100,3,2,6,78,0,0
96037,-100,3,2,6,84,0,0
96209,-100,3,2,4,80,0,0
98266,-100,3,2,6,80,0,0
98609,-100,3,2,6,80,0,0
98952,-100,3,2,6,80,0,0
99466,-100,3,2,2,80,0,0
100323,-100,3,2,4,80,0,0
100494,-100,3,2,6,80,0,0
101180,-100,3,2,6,80,0,0
101352,-100,3,2,4,80,0,0
101523,-100,3,2,6,80,0,0
101866,-100,3,2,6,80,0,0
102037,-100,3,2,6,80,0,0
102209,-100,3,2,6,80,0,0
102380,-100,3,2,4,80,0,0
102552,-100,3,2,6,80,0,0
103066,-100,3,2,6,80,0,0
103409,-100,3,2,4,80,0,0
104094,-100,3,2,1,80,0,0
104437,-100,3,2,4,80,0,0
104780,-100,3,2,1,80,0,0
116780,-100,3,2,4,80,0,0
116952,-100,3,2,2,80,0,0
117809,-100,3,2,4,80,0,0
117894,-100,3,2,2,80,0,0
118837,-100,3,2,4,80,0,0
118923,-100,3,2,2,80,0,0
119694,-100,3,2,1,80,0,0
119866,-100,3,2,4,80,0,0
119952,-100,3,2,1,80,0,0
120037,-100,3,2,1,77,0,0
120123,-100,3,2,1,73,0,0
120209,-100,3,2,1,69,0,0
120294,-100,3,2,1,65,0,0
120380,-100,3,2,1,61,0,0
120466,-100,3,2,1,57,0,0
120552,-100,3,2,1,54,0,0
120637,-100,3,2,1,51,0,0
120723,-100,3,2,1,47,0,0
120809,-100,3,2,1,43,0,0
120894,-100,3,2,1,40,0,0
121237,-100,3,2,99,70,0,0
126037,-100,3,2,99,5,0,0

[Colours]
Combo1 : 188,188,188
Combo2 : 186,117,255
Combo3 : 128,191,255
Combo4 : 128,128,255

[HitObjects]
32,60,1237,5,0,0:0:0:0:
120,40,1580,2,0,B|260:-4|220:92|360:44,2,240,2|2|2,0:0|0:0|0:0,0:0:0:0:
20,284,4666,1,2,0:0:0:0:
176,368,5352,1,2,0:0:0:0:
260,344,5694,6,0,B|400:300|356:396|504:352,2,240,2|2|2,0:0|0:0|0:0,0:0:0:0:
176,368,8094,2,0,P|132:380|56:300,1,160,0|2,0:0|0:0,0:0:0:0:
88,224,9123,1,0,0:0:0:0:
172,204,9466,1,2,0:0:0:0:
252,236,9809,6,0,P|312:264|408:224,1,160,4|8,0:1|0:0,0:0:0:0:
432,156,10837,2,0,L|520:148,2,79.9999999999999,2|2|10,0:0|0:0|0:0,0:0:0:0:
388,80,11866,2,0,P|315:51|242:79,1,160,2|10,0:0|0:0,0:0:0:0:
172,132,12894,2,0,P|128:144|92:132,1,79.9999999999999,2|2,0:0|0:0,0:0:0:0:
28,80,13580,1,10,0:0:0:0:
16,168,13923,6,0,L|28:336,1,160,4|8,0:1|0:0,0:0:0:0:
112,308,14952,2,0,P|112:352|92:388,2,79.9999999999999,4|2|10,0:1|0:0|0:0,0:0:0:0:
156,232,15980,1,4,0:1:0:0:
256,192,16152,12,0,18037,0:0:0:0:
312,60,26266,6,0,P|380:28|468:68,1,160,4|10,0:1|0:0,0:0:0:0:
492,136,27294,1,2,0:0:0:0:
456,216,27637,1,2,0:0:0:0:
368,204,27980,1,10,0:0:0:0:
308,268,28323,6,0,P|256:320|176:300,1,160,2|8,0:0|0:0,0:0:0:0:
112,244,29352,1,2,0:0:0:0:
140,160,29694,1,2,0:0:0:0:
60,124,30037,1,10,0:0:0:0:
24,44,30380,6,0,B|104:28|104:28|184:40,1,160,2|10,0:0|0:0,0:0:0:0:
268,60,31409,2,0,L|364:48,2,79.9999999999999,2|2|10,0:0|0:0|0:0,0:0:0:0:
208,124,32437,5,4,0:1:0:0:
208,124,33466,2,0,B|200:192|200:192|216:216|216:216|208:292,1,160,0|0,0:0|0:0,0:0:0:0:
152,344,34494,6,0,P|212:296|296:320,1,160,4|2,0:1|0:0,0:0:0:0:
368,352,35523,2,0,L|380:184,1,160,0|2,0:0|0:0,0:0:0:0:
440,132,36552,2,0,P|384:160|300:116,1,160,2|2,0:0|0:0,0:0:0:0:
248,52,37580,2,0,P|192:32|100:80,1,160,0|2,0:0|0:0,0:0:0:0:
40,132,38609,6,0,B|24:212|24:212|48:292,1,160,2|2,0:0|0:0,0:0:0:0:
72,372,39637,2,0,L|236:360,1,160,2|2,0:0|0:0,0:0:0:0:
320,356,40666,2,0,B|336:276|336:276|312:196,1,160,2|2,0:0|0:0,0:0:0:0:
240,152,41694,1,2,0:0:0:0:
268,68,42037,1,2,0:0:0:0:
352,48,42380,1,2,0:0:0:0:
424,100,42723,6,0,B|460:184|404:168|436:264,1,160,4|2,0:1|0:0,0:0:0:0:
492,324,43752,2,0,B|456:296|456:296|340:312,1,160,2|2,0:0|0:0,0:0:0:0:
256,316,44780,2,0,B|172:352|188:296|92:328,1,160,0|2,0:0|0:0,0:0:0:0:
32,384,45809,2,0,B|60:348|60:348|44:232,1,160,2|2,0:0|0:0,0:0:0:0:
14,152,46837,6,0,B|82:155|82:155|98:138|98:138|180:143,1,160,4|2,0:1|0:0,0:0:0:0:
232,84,47866,2,0,P|222:138|316:157,1,160,2|2,0:0|0:0,0:0:0:0:
379,116,48894,2,0,B|390:181|390:181|377:207|377:207|387:279,1,160,6|2,0:0|0:0,0:0:0:0:
347,351,49923,2,0,P|399:357|440:340,2,79.9999999999999,2|2|2,0:0|0:0|0:0,0:0:0:0:
292,281,50952,5,2,0:0:0:0:
292,281,51980,2,0,P|330:270|386:269,2,79.9999999999999,2|2|2,0:0|0:0|0:0,0:0:0:0:
215,324,53009,1,2,0:0:0:0:
54,114,54037,1,2,0:0:0:0:
218,51,54723,1,2,0:0:0:0:
302,75,55066,6,0,P|359:78|388:70,2,79.9999999999999,2|2|2,0:0|0:0|0:0,0:0:0:0:
218,51,56094,2,0,P|178:48|132:69,2,79.9999999999999,2|2|2,0:0|0:0|0:0,0:0:0:0:
192,135,57123,1,2,0:0:0:0:
315,368,58152,1,2,0:0:0:0:
466,279,58837,1,2,0:0:0:0:
480,192,59180,5,2,0:0:0:0:
255,52,60209,2,0,P|213:54|168:46,1,79.9999999999999,2|2,0:0|0:0,0:0:0:0:
95,12,60894,1,2,0:0:0:0:
18,54,61237,5,2,0:0:0:0:
56,225,61923,1,2,0:0:0:0:
101,300,62266,2,0,P|62:311|20:305,2,79.9999999999999,2|2|2,0:0|0:0|0:0,0:0:0:0:
147,225,63294,5,2,0:0:0:0:
373,360,64323,1,2,0:0:0:0:
381,96,65352,1,2,0:0:0:0:
147,225,66380,2,0,L|152:313,2,79.9999999999999,2|2|2,0:0|0:0|0:0,0:0:0:0:
73,176,67409,6,0,B|104:140|80:60|80:60|130:103|206:83,1,240,4|2,0:1|0:0,0:0:0:0:
312,33,68952,1,2,0:0:0:0:
408,122,69466,2,0,B|377:158|401:238|401:238|351:195|275:215,1,240,2|2,0:0|0:0,0:0:0:0:
118,253,71180,1,2,0:0:0:0:
96,338,71523,6,0,B|152:369|213:337|213:337|271:308|341:341,1,240,2|2,0:0|0:0,0:0:0:0:
412,357,72894,1,2,0:0:0:0:
488,313,73237,1,2,0:0:0:0:
467,227,73580,2,0,B|411:196|350:228|350:228|292:257|222:224,1,240,2|0,0:0|0:0,0:0:0:0:
121,164,75123,1,2,0:0:0:0:
39,60,75637,6,0,P|99:29|194:55,1,160,4|0,0:1|0:0,0:0:0:0:
239,118,76666,2,0,P|299:149|394:123,1,160,0|8,0:0|0:0,0:0:0:0:
437,58,77694,2,0,L|431:227,1,160,2|0,0:0|0:0,0:0:0:0:
388,294,78723,2,0,P|428:305|467:299,2,79.9999999999999,2|2|8,0:0|0:0|0:0,0:0:0:0:
304,264,79752,6,0,B|226:238|226:238|147:265,1,160,4|0,0:1|0:0,0:0:0:0:
77,309,80780,2,0,B|103:231|103:231|76:152,1,160,4|2,0:1|0:0,0:0:0:0:
142,97,81809,1,4,0:1:0:0:
256,192,81980,12,4,83866,0:1:0:0:
256,128,87980,6,0,B|296:116|296:116|332:128|332:128|376:116|376:116|416:128,1,160,4|0,1:1|1:0,0:0:0:0:
428,212,89009,2,0,B|468:200|468:200|512:212,2,79.9999999999999,0|0|0,1:0|0:0|1:0,0:0:0:0:
408,296,90037,2,0,B|368:308|368:308|332:296|332:296|288:308|288:308|248:296,1,160,0|0,1:0|1:0,0:0:0:0:
168,284,91066,2,0,B|180:324|180:324|168:368,2,79.9999999999999,0|0|0,1:0|0:0|0:0,0:0:0:0:
104,224,92094,6,0,B|60:204|40:176|40:176|64:136|120:128,1,160,0|0,1:0|1:0,0:0:0:0:
188,104,93123,2,0,P|232:104|280:92,1,79.9999999999999,0|0,1:0|0:0,0:0:0:0:
336,44,93809,1,0,1:0:0:0:
408,96,94152,2,0,B|446:100|470:140|470:140|450:168|406:188,1,160,0|0,1:0|1:0,0:0:0:0:
340,244,95180,2,0,P|280:224|196:280,1,160,2|2,0:0|0:0,0:0:0:0:
188,356,96209,6,0,B|108:364|108:364|28:328,1,160,4|0,1:1|1:0,0:0:0:0:
16,244,97237,1,0,1:0:0:0:
48,160,97580,2,0,L|144:152,1,79.9999999999999,0|0,0:0|1:0,0:0:0:0:
204,112,98266,2,0,B|280:140|280:140|360:108,1,160,0|0,1:0|1:0,0:0:0:0:
440,88,99294,2,0,L|444:4,2,79.9999999999999,0|0|0,1:0|0:0|0:0,0:0:0:0:
416,172,100323,6,0,B|380:204|380:204|396:324,1,160,4|0,0:1|1:0,0:0:0:0:
464,372,101352,2,0,B|432:336|432:336|312:352,1,160,4|0,0:1|1:0,0:0:0:0:
252,296,102380,5,4,0:1:0:0:
176,340,102723,1,0,0:0:0:0:
92,308,103066,1,0,1:0:0:0:
76,220,103409,2,0,P|32:224|0:248,2,79.9999999999999,4|0|2,0:1|0:0|0:0,0:0:0:0:
156,188,104437,6,0,P|232:212|300:168,1,160,4|0,0:1|0:0,0:0:0:0:
344,100,105466,2,0,P|400:80|480:136,1,160,2|2,0:0|0:0,0:0:0:0:
480,220,106494,2,0,L|312:240,1,160,2|0,0:0|0:0,0:0:0:0:
256,300,107523,2,0,L|172:292,2,79.9999999999999,2|2|2,0:0|0:0|0:0,0:0:0:0:
300,376,108552,6,0,P|340:328|308:228,1,160,2|2,0:0|0:0,0:0:0:0:
240,208,109580,2,0,L|156:200,2,79.9999999999999,2|2|2,0:0|0:0|0:0,0:0:0:0:
308,152,110609,2,0,P|352:108|448:124,1,160,2|2,0:0|0:0,0:0:0:0:
488,196,111637,2,0,L|496:284,1,79.9999999999999,0|0,0:0|0:0,0:0:0:0:
436,344,112323,1,2,0:0:0:0:
348,344,112666,6,0,B|256:332|284:384|188:360,1,160,6|0,0:0|0:0,0:0:0:0:
124,308,113694,2,0,P|108:356|112:392,2,79.9999999999999,2|2|2,0:0|0:0|0:0,0:0:0:0:
204,276,114723,2,0,B|228:176|172:216|200:104,1,160,2|0,0:0|0:0,0:0:0:0:
236,40,115752,2,0,P|188:32|144:44,1,79.9999999999999,2|2,0:0|0:0,0:0:0:0:
80,80,116437,1,2,0:0:0:0:
24,148,116780,6,0,L|32:316,1,160,4|0,0:1|0:0,0:0:0:0:
100,364,117809,2,0,L|272:352,1,160,4|0,0:1|0:0,0:0:0:0:
324,292,118837,2,0,L|320:204,1,79.9999999999999,4|0,0:1|0:0,0:0:0:0:
312,124,119523,1,0,0:0:0:0:
264,48,119866,2,0,P|308:36|356:44,2,79.9999999999999,4|2|0,0:1|0:0|0:0,0:0:0:0:
144,176,121237,5,6,0:0:0:0:
256,192,121409,12,0,126037,0:0:0:0:
