osu file format v14

[General]
AudioFilename: audio.mp3
AudioLeadIn: 0
PreviewTime: 87980
Countdown: 0
SampleSet: Soft
StackLeniency: 0.7
Mode: 0
LetterboxInBreaks: 0
WidescreenStoryboard: 1

[Editor]
Bookmarks: 1580,9809,18037,26266,34494,50952,67409,75637,83866,104437,120894
DistanceSpacing: 1
BeatDivisor: 4
GridSize: 16
TimelineZoom: 3.000005

[Metadata]
Title:Crystal Illusion
TitleUnicode:Crystal Illusion
Artist:P4koo
ArtistUnicode:P4koo
Creator:Beomsan
Version:Normal
Source:
Tags:Osu fan cafe mapping contest #3 OMC#3 Down milr_ [White_Music] Cellina Mandu- Reana Beom Nasmoeb Rieri ProEzreal
BeatmapID:1674898
BeatmapSetID:797393

[Difficulty]
HPDrainRate:4
CircleSize:3.7
OverallDifficulty:4
ApproachRate:4
SliderMultiplier:0.999999999999999
SliderTickRate:1

[Events]
//Background and Video events
0,0,"omcbackground.png",0,0
//Break Periods
2,84066,86660
//Storyboard Layer 0 (Background)
//Storyboard Layer 1 (Fail)
//Storyboard Layer 2 (Pass)
//Storyboard Layer 3 (Foreground)
//Storyboard Sound Samples

[TimingPoints]
552,342.857142857143,3,2,1,40,1,0
1237,-100,3,2,1,40,0,0
1580,-100,3,2,1,40,0,0
1666,-100,3,2,1,40,0,0
2609,-100,3,2,1,40,0,0
2694,-100,3,2,1,40,0,0
3637,-100,3,2,1,40,0,0
3723,-100,3,2,1,40,0,0
4666,-100,3,2,1,40,0,0
4752,-100,3,2,1,40,0,0
5694,-100,3,2,1,40,0,0
5780,-100,3,2,1,40,0,0
6723,-100,3,2,1,40,0,0
7066,-100,3,2,1,45,0,0
7409,-100,3,2,1,50,0,0
7752,-100,3,2,1,40,0,0
8780,-100,3,2,1,50,0,0
8952,-100,3,2,1,40,0,0
9466,-100,3,2,1,40,0,0
9809,-100,3,2,4,80,0,0
9980,-100,3,2,2,80,0,0
10666,-100,3,2,2,80,0,0
11009,-100,3,2,2,80,0,0
11180,-100,3,2,2,80,0,0
11523,-100,3,2,2,80,0,0
11866,-100,3,2,1,80,0,0
12037,-100,3,2,2,80,0,0
12552,-100,3,2,1,80,0,0
13066,-100,3,2,2,80,0,0
14780,-100,3,2,1,80,0,0
14952,-100,3,2,4,80,0,0
15294,-100,3,2,2,80,0,0
16666,-100,3,2,2,80,0,0
17180,-100,3,2,2,80,0,0
17352,-100,3,2,2,80,0,0
17694,-100,3,2,2,80,0,0
18037,-100,3,2,2,80,0,0
18209,-100,3,2,5,60,0,0
19409,-100,3,2,5,60,0,0
20266,-100,3,2,5,60,0,0
21294,-100,3,2,5,60,0,0
21466,-100,3,2,5,60,0,0
21980,-100,3,2,5,60,0,0
22152,-100,3,2,5,45,0,0
22494,-100,3,2,5,45,0,0
22837,-100,3,2,5,47,0,0
23180,-100,3,2,5,50,0,0
23523,-100,3,2,5,52,0,0
23866,-100,3,2,5,56,0,0
24037,-100,3,2,5,57,0,0
24209,-100,3,2,5,59,0,0
24552,-100,3,2,5,63,0,0
24894,-100,3,2,1,69,0,0
25237,-100,3,2,1,74,0,0
25409,-100,3,2,2,65,0,0
26266,-100,3,2,4,70,0,0
26609,-100,3,2,2,70,0,0
31923,-100,3,2,2,70,0,0
34494,-100,3,2,4,70,0,0
35180,-100,3,2,1,70,0,0
35523,-100,3,2,4,70,0,0
36209,-100,3,2,1,70,0,0
36552,-100,3,2,4,70,0,0
37237,-100,3,2,1,70,0,0
37580,-100,3,2,4,70,0,0
38094,-100,3,2,1,70,0,0
38266,-100,3,2,1,70,0,0
38609,-100,3,2,4,70,0,0
38952,-100,3,2,4,70,0,0
39294,-100,3,2,1,70,0,0
39637,-100,3,2,4,70,0,0
40323,-100,3,2,1,70,0,0
40666,-100,3,2,4,70,0,0
41352,-100,3,2,1,70,0,0
41523,-100,3,2,1,70,0,0
41694,-100,3,2,1,70,0,0
41866,-100,3,2,1,70,0,0
42723,-100,3,2,4,70,0,0
43409,-100,3,2,1,70,0,0
43752,-100,3,2,4,70,0,0
44437,-100,3,2,1,70,0,0
44780,-100,3,2,4,70,0,0
45466,-100,3,2,1,70,0,0
45809,-100,3,2,4,70,0,0
46495,-100,3,2,1,70,0,0
46837,-100,3,2,4,70,0,0
47523,-100,3,2,1,70,0,0
47866,-100,3,2,4,70,0,0
48552,-100,3,2,1,70,0,0
48894,-100,3,2,4,70,0,0
49580,-100,3,2,1,70,0,0
49923,-100,3,2,1,70,0,0
50266,-100,3,2,1,70,0,0
50780,-100,3,2,1,60,0,0
50866,-100,3,2,1,50,0,0
50952,-100,3,2,1,47,0,0
51809,-100,3,2,1,47,0,0
51980,-100,3,2,1,47,0,0
54037,-100,3,2,1,47,0,0
54380,-100,3,2,1,5,0,0
54723,-100,3,2,1,47,0,0
55066,-100,3,2,1,47,0,0
56094,-100,3,2,1,47,0,0
61237,-100,3,2,1,47,0,0
67066,-100,3,2,1,56,0,0
67408,-100,3,2,4,75,0,0
67752,-100,3,2,1,47,0,0
68094,-100,3,2,5,47,0,0
68266,-100,3,2,1,47,0,0
68952,-100,3,2,1,47,0,0
69809,-100,3,2,1,47,0,0
70152,-100,3,2,5,47,0,0
70323,-100,3,2,1,47,0,0
70837,-100,3,2,1,47,0,0
71180,-100,3,2,1,47,0,0
71866,-100,3,2,1,47,0,0
72209,-100,3,2,5,47,0,0
72380,-100,3,2,1,47,0,0
73067,-100,3,2,1,47,0,0
73237,-100,3,2,5,47,0,0
73409,-100,3,2,1,47,0,0
73580,-100,3,2,1,47,0,0
75637,-100,3,2,1,70,0,0
75980,-100,3,2,5,55,0,0
76323,-100,3,2,1,55,0,0
76837,-100,3,2,5,55,0,0
77009,-100,3,2,1,55,0,0
77352,-100,3,2,5,55,0,0
77694,-100,3,2,1,55,0,0
78037,-100,3,2,5,58,0,0
78380,-100,3,2,1,57,0,0
78552,-100,3,2,1,65,0,0
78894,-100,3,2,5,65,0,0
78980,-100,3,2,1,68,0,0
79409,-100,3,2,5,72,0,0
79580,-100,3,2,1,72,0,0
79752,-100,3,2,2,80,0,0
79837,-100,3,2,5,69,0,0
80437,-100,3,2,1,69,0,0
80780,-100,3,2,2,69,0,0
80952,-100,3,2,5,69,0,0
81294,-100,3,2,1,74,0,0
81809,-100,3,2,2,80,0,0
81980,-100,3,2,1,62,0,0
82152,-100,3,2,1,64,0,0
82323,-100,3,2,1,66,0,0
82494,-100,3,2,1,68,0,0
82666,-100,3,2,1,70,0,0
82837,-100,3,2,1,72,0,0
83009,-100,3,2,1,74,0,0
83180,-100,3,2,1,76,0,0
83352,-100,3,2,1,78,0,0
83523,-100,3,2,1,80,0,0
83694,-100,3,2,1,40,0,0
83866,-100,3,2,1,73,0,0
85752,-100,3,2,1,25,0,0
86437,-100,3,2,1,33,0,0
86780,-100,3,2,1,42,0,0
86952,-100,3,2,1,57,0,0
87123,-100,3,2,1,45,0,0
87294,-100,3,2,1,66,0,0
87466,-100,3,2,1,70,0,0
87637,-100,3,2,1,74,0,0
87809,-100,3,2,1,76,0,0
87980,-100,3,2,4,80,0,0
88152,-100,3,2,6,80,0,0
89694,-100,3,2,6,80,0,0
90037,-100,3,2,6,80,0,0
90294,-100,3,2,6,80,0,0
90723,-100,3,2,6,80,0,0
91237,-100,3,2,2,80,0,0
92094,-100,3,2,6,80,0,0
92352,-100,3,2,6,80,0,0
92609,-100,3,2,6,80,0,0
92780,-100,3,2,6,80,0,0
92952,-100,3,2,6,80,0,0
95352,-100,3,2,6,55,0,0
95523,-100,3,2,6,68,0,0
95866,-100,3,2,6,78,0,0
96037,-100,3,2,6,84,0,0
96209,-100,3,2,4,80,0,0
98266,-100,3,2,6,80,0,0
98609,-100,3,2,6,80,0,0
98952,-100,3,2,6,80,0,0
99466,-100,3,2,2,80,0,0
100323,-100,3,2,4,80,0,0
100494,-100,3,2,6,80,0,0
101180,-100,3,2,6,80,0,0
101352,-100,3,2,4,80,0,0
101523,-100,3,2,6,80,0,0
101866,-100,3,2,6,80,0,0
102037,-100,3,2,6,80,0,0
102209,-100,3,2,6,80,0,0
102380,-100,3,2,4,80,0,0
102552,-100,3,2,6,80,0,0
103066,-100,3,2,6,80,0,0
103409,-100,3,2,4,80,0,0
104094,-100,3,2,1,80,0,0
104437,-100,3,2,4,80,0,0
104780,-100,3,2,1,80,0,0
116780,-100,3,2,4,80,0,0
116952,-100,3,2,2,80,0,0
117809,-100,3,2,4,80,0,0
117894,-100,3,2,2,80,0,0
118837,-100,3,2,4,80,0,0
118923,-100,3,2,2,80,0,0
119694,-100,3,2,1,80,0,0
119866,-100,3,2,4,80,0,0
119952,-100,3,2,1,80,0,0
120037,-100,3,2,1,77,0,0
120123,-100,3,2,1,73,0,0
120209,-100,3,2,1,69,0,0
120294,-100,3,2,1,65,0,0
120380,-100,3,2,1,61,0,0
120466,-100,3,2,1,57,0,0
120552,-100,3,2,1,54,0,0
120637,-100,3,2,1,51,0,0
120723,-100,3,2,1,47,0,0
120809,-100,3,2,1,43,0,0
120894,-100,3,2,1,40,0,0
121237,-100,3,2,99,70,0,0

[Colours]
Combo1 : 188,188,188
Combo2 : 186,117,255
Combo3 : 128,191,255
Combo4 : 128,128,255

[HitObjects]
418,246,1580,6,0,B|311:233|338:316|230:306,1,200,2|0,0:0|0:0,0:0:0:0:
195,336,2437,1,2,0:0:0:0:
149,315,2609,2,0,P|99:308|53:331,2,99.9999999999999,2|0|2,0:0|0:0|0:0,0:0:0:0:
182,220,3637,6,0,B|176:160|202:147|198:81|198:81|184:123|158:133,1,200,2|0,0:0|0:0,0:0:0:0:
87,192,4666,1,2,0:0:0:0:
87,192,5352,6,0,P|86:228|88:247,1,50,2|2,0:0|0:0,0:0:0:0:
69,288,5694,2,0,B|137:283|137:283|195:316|195:316|262:313,1,200,2|0,0:0|0:0,0:0:0:0:
356,340,6723,2,0,P|389:377|438:384,2,99.9999999999999,2|2|2,0:0|0:0|0:0,0:0:0:0:
332,242,7752,6,0,P|361:150|447:101,1,200,2|0,0:0|0:0,0:0:0:0:
505,20,8780,2,0,P|458:1|400:14,2,99.9999999999999,2|0|2,0:0|0:0|0:0,0:0:0:0:
446,101,9809,6,0,B|353:134|348:45|255:76,1,200,4|0,0:1|0:0,0:0:0:0:
209,94,10666,1,2,0:0:0:0:
160,80,10837,2,0,P|110:84|71:56,2,99.9999999999999,2|2|2,0:0|0:0|0:0,0:0:0:0:
160,180,11866,6,0,P|101:253|150:340,1,200,2|2,0:0|0:0,0:0:0:0:
194,329,12723,1,2,0:0:0:0:
239,348,12894,2,0,P|262:340|294:337,2,50,2|10|2,0:0|0:0|0:0,0:0:0:0:
303,260,13580,2,0,P|324:270|349:291,1,50,10|10,0:0|0:0,0:0:0:0:
366,331,13923,6,0,B|335:235|406:237|374:134,1,200,4|0,0:1|0:0,0:0:0:0:
333,107,14780,1,2,0:0:0:0:
348,59,14952,2,0,P|391:85|444:86,2,99.9999999999999,4|10|2,0:1|0:0|0:0,0:0:0:0:
247,56,15980,6,0,P|149:43|71:100,1,200,4|0,0:1|0:0,0:0:0:0:
55,198,17009,2,0,P|79:199|111:188,2,50,0|8|0,0:0|0:0|0:0,0:0:0:0:
144,257,17694,2,0,P|161:240|176:210,1,50,8|8,0:0|0:0,0:0:0:0:
177,168,18037,6,0,B|244:178|244:178|307:162|307:162|375:172,1,200
462,125,19066,2,0,B|479:87|479:87|456:22,2,99.9999999999999,0|8|0,0:0|0:0|0:0,0:0:0:0:
473,173,19923,1,8,0:0:0:0:
459,221,20094,6,0,B|442:259|442:259|465:324,1,99.9999999999999,0|8,0:0|0:0,0:0:0:0:
377,369,20780,1,0,0:0:0:0:
283,333,21123,2,0,L|224:339,1,50,0|8,0:0|0:0,0:0:0:0:
190,365,21466,2,0,P|167:320|76:322,1,150,0|8,0:0|0:0,0:0:0:0:
39,354,22152,6,0,P|41:312|35:234,1,99.9999999999999,0|8,0:0|0:0,0:0:0:0:
108,182,22837,1,0,0:0:0:0:
31,117,23180,2,0,P|29:75|35:-3,2,99.9999999999999,0|8|0,0:0|0:0|0:0,0:0:0:0:
108,182,24209,37,0,0:0:0:0:
198,138,24552,1,8,0:0:0:0:
275,203,24894,2,0,P|325:195|383:191,1,99.9999999999999,2|2,0:0|0:0,0:0:0:0:
417,216,25409,21,2,0:0:0:0:
428,264,25580,1,2,0:0:0:0:
403,307,25752,1,2,0:0:0:0:
354,318,25923,2,0,P|326:314|299:312,1,50,10|10,0:0|0:0,0:0:0:0:
261,285,26266,6,0,P|184:344|91:317,1,200,4|2,0:1|0:0,0:0:0:0:
72,271,27123,1,2,0:0:0:0:
68,221,27294,2,0,P|75:172|93:113,2,99.9999999999999,2|10|2,0:0|0:0|0:0,0:0:0:0:
168,213,28323,6,0,B|265:170|264:246|362:204,1,200,2|0,0:0|0:0,0:0:0:0:
398,170,29180,1,2,0:0:0:0:
445,186,29352,2,0,P|496:180|550:212,2,99.9999999999999,2|2|2,0:0|0:0|0:0,0:0:0:0:
446,85,30380,6,0,B|472:37|472:37|321:67,1,200,2|2,0:0|0:0,0:0:0:0:
245,121,31409,2,0,L|143:107,2,99.9999999999999,2|2|2,0:0|0:0|0:0,0:0:0:0:
334,164,32437,6,0,P|409:277|223:206,1,499.999999999999,4|0,0:1|0:0,0:0:0:0:
308,263,34494,5,4,0:1:0:0:
334,164,34837,1,8,0:0:0:0:
252,106,35180,2,0,L|247:49,1,50,2|2,0:0|0:0,0:0:0:0:
272,12,35523,2,0,L|165:27,1,99.9999999999999,2|8,0:0|0:0,0:0:0:0:
72,18,36209,2,0,L|77:75,1,50,2|10,0:0|0:0,0:0:0:0:
106,107,36552,6,0,B|90:152|90:152|102:211,1,99.9999999999999,2|8,0:0|0:0,0:0:0:0:
82,301,37237,2,0,L|137:294,1,50,2|2,0:0|0:0,0:0:0:0:
168,260,37580,2,0,P|222:254|269:285,1,99.9999999999999,2|8,0:0|0:0,0:0:0:0:
274,323,38094,1,0,0:0:0:0:
316,349,38266,2,0,L|377:342,1,50,2|10,0:0|0:0,0:0:0:0:
410,365,38609,5,2,0:0:0:0:
436,266,38952,1,8,0:0:0:0:
354,208,39295,2,0,L|349:151,1,50,2|2,0:0|0:0,0:0:0:0:
374,114,39638,2,0,L|267:129,1,99.9999999999999,2|8,0:0|0:0,0:0:0:0:
178,169,40323,2,0,L|174:120,1,50,2|10,0:0|0:0,0:0:0:0:
185,71,40666,6,0,B|137:86|137:86|88:75,1,99.9999999999999,2|10,0:0|0:0,0:0:0:0:
36,161,41352,1,2,0:0:0:0:
40,210,41523,2,0,L|44:259,1,50,2|2,0:0|0:0,0:0:0:0:
6,352,42037,2,0,L|113:336,1,99.9999999999999,2|2,0:0|0:0,0:0:0:0:
141,302,42552,1,2,0:0:0:0:
183,328,42723,6,0,P|230:338|275:315,1,99.9999999999999,4|8,0:1|0:0,0:0:0:0:
370,343,43409,2,0,P|400:342|430:353,1,50,2|2,0:0|0:0,0:0:0:0:
463,370,43752,2,0,L|449:267,1,99.9999999999999,2|8,0:0|0:0,0:0:0:0:
379,199,44437,2,0,L|385:141,1,50,2|10,0:0|0:0,0:0:0:0:
417,111,44780,6,0,L|312:105,1,99.9999999999999,2|8,0:0|0:0,0:0:0:0:
217,98,45466,2,0,L|222:147,1,50,2|2,0:0|0:0,0:0:0:0:
230,197,45809,2,0,P|190:175|137:182,1,99.9999999999999,2|8,0:0|0:0,0:0:0:0:
105,219,46323,1,0,0:0:0:0:
96,268,46494,2,0,L|101:317,1,50,2|10,0:0|0:0,0:0:0:0:
74,360,46837,6,0,L|179:354,1,99.9999999999999,4|8,0:1|0:0,0:0:0:0:
215,325,47352,1,0,0:0:0:0:
256,353,47523,2,0,L|312:355,2,50,2|2|2,0:0|0:0|0:0,0:0:0:0:
283,256,48209,2,0,P|274:228|272:194,1,50,8|0,0:0|0:0,0:0:0:0:
303,168,48552,2,0,P|316:141|339:116,1,50,2|10,0:0|0:0,0:0:0:0:
378,120,48894,5,6,0:0:0:0:
477,108,49237,2,0,L|472:171,1,50,8|0,0:0|0:0,0:0:0:0:
468,207,49580,2,0,L|463:270,1,50,2|10,0:0|0:0,0:0:0:0:
256,192,49923,12,2,50952,0:0:0:0:
376,333,51980,6,0,B|411:205|411:205|384:130,1,200,2|2,0:0|0:0,0:0:0:0:
302,89,53009,2,0,P|256:160|211:89,1,200,2|2,0:0|0:0,0:0:0:0:
123,141,54037,1,2,0:0:0:0:
130,340,54723,6,0,P|154:331|186:326,1,50,2|2,0:0|0:0,0:0:0:0:
212,292,55066,2,0,L|412:321,1,200,2|2,0:0|0:0,0:0:0:0:
483,253,56094,1,2,0:0:0:0:
462,155,56437,1,2,0:0:0:0:
441,57,56780,1,2,0:0:0:0:
367,124,57123,5,2,0:0:0:0:
182,47,57809,2,0,L|180:109,1,50,2|2,0:0|0:0,0:0:0:0:
212,136,58152,1,2,0:0:0:0:
178,174,58323,2,0,L|176:236,1,50,0|0,0:0|0:0,0:0:0:0:
115,303,58837,6,0,P|91:320|66:325,1,50,2|2,0:0|0:0,0:0:0:0:
21,329,59180,2,0,P|121:328|225:368,1,200,2|0,0:0|0:0,0:0:0:0:
297,306,60209,2,0,P|344:306|385:272,2,99.9999999999999,2|2|2,0:0|0:0|0:0,0:0:0:0:
209,256,61237,6,0,B|165:211|181:137|181:137|213:113|219:65,1,200,2|2,0:0|0:0,0:0:0:0:
117,54,62266,2,0,P|70:50|33:88,1,99.9999999999999,2|2,0:0|0:0,0:0:0:0:
29,134,62780,1,2,0:0:0:0:
49,179,62952,2,0,P|78:181|109:189,1,50,2|2,0:0|0:0,0:0:0:0:
141,209,63294,6,0,P|189:220|236:203,2,99.9999999999999,2|2|2,0:0|0:0|0:0,0:0:0:0:
185,119,64323,2,0,P|231:102|279:113,2,99.9999999999999,2|2|2,0:0|0:0|0:0,0:0:0:0:
235,203,65352,6,0,B|336:237|328:151|428:191,1,200,2|2,0:0|0:0,0:0:0:0:
458,229,66209,1,2,0:0:0:0:
446,277,66380,2,0,P|448:305|443:339,2,50,2|0|2,0:0|0:0|0:0,0:0:0:0:
498,162,67066,2,0,P|495:137|498:112,1,50,2|2,0:0|0:0,0:0:0:0:
510,63,67409,6,0,L|304:86,1,200,4|8,0:1|0:0,0:0:0:0:
274,119,68266,1,0,0:0:0:0:
235,86,68437,2,0,L|68:67,1,150,2|2,0:0|0:0,0:0:0:0:
37,54,69123,2,0,L|46:121,1,50,2|2,0:0|0:0,0:0:0:0:
30,152,69466,6,0,P|-14:240|28:325,1,200,2|8,0:0|0:0,0:0:0:0:
76,337,70323,1,2,0:0:0:0:
125,344,70494,2,0,L|229:334,2,99.9999999999999,2|2|2,0:0|0:0|0:0,0:0:0:0:
131,243,71523,6,0,B|256:232|256:232|298:250|312:291,1,200,2|8,0:0|0:0,0:0:0:0:
356,296,72380,1,2,0:0:0:0:
405,289,72552,2,0,P|454:297|497:267,2,99.9999999999999,2|2|8,0:0|0:0|0:0,0:0:0:0:
363,197,73580,2,0,B|416:168|424:111|400:57|341:47|341:47|141:65,1,400,2|0,0:0|0:0,0:0:0:0:
104,96,75123,1,2,0:0:0:0:
57,78,75294,2,0,L|54:128,1,50,2|2,0:0|0:0,0:0:0:0:
75,173,75637,6,0,L|69:284,2,99.9999999999999,4|8|0,0:1|0:0|0:0,0:0:0:0:
175,169,76666,1,0,0:0:0:0:
217,142,76837,2,0,P|243:133|275:135,1,50,8|2,0:0|0:0,0:0:0:0:
334,206,77352,2,0,P|357:214|382:216,1,50,8|8,0:0|0:0,0:0:0:0:
430,204,77694,6,0,L|436:315,2,99.9999999999999,2|8|0,0:0|0:0|0:0,0:0:0:0:
428,153,78552,2,0,L|425:99,1,50,2|2,0:0|0:0,0:0:0:0:
334,61,79066,2,0,P|304:62|280:72,1,50,2|2,0:0|0:0,0:0:0:0:
241,92,79409,2,0,P|217:99|192:99,1,50,8|2,0:0|0:0,0:0:0:0:
143,85,79752,6,0,P|186:172|99:281,1,250,4|2,0:1|0:0,0:0:0:0:
51,290,80780,2,0,B|154:257|144:316|247:284,1,200,4|2,0:1|0:0,0:0:0:0:
290,309,81637,1,2,0:0:0:0:
333,283,81809,6,0,P|379:269|424:289,2,99.9999999999999,4|0|0,0:1|0:0|0:0,0:0:0:0:
289,192,82837,2,0,P|254:158|248:109,2,99.9999999999999
247,283,83866,21,4,0:1:0:0:
111,34,87980,6,0,P|116:73|119:116,1,74.9999999999999,4|0,1:1|1:0,0:0:0:0:
100,181,88494,1,0,1:0:0:0:
100,231,88666,2,0,P|102:268|107:299,1,50,0|0,1:0|1:0,0:0:0:0:
96,330,89009,2,0,L|177:319,1,74.9999999999999,0|0,1:0|1:0,0:0:0:0:
239,347,89523,1,0,1:0:0:0:
288,351,89694,2,0,L|344:353,1,50,0|0,1:0|1:0,0:0:0:0:
386,364,90037,6,0,B|376:327|376:327|385:273,1,74.9999999999999,0|0,1:0|1:0,0:0:0:0:
426,229,90552,1,0,1:0:0:0:
439,181,90723,2,0,L|442:121,1,50,0|0,1:0|1:0,0:0:0:0:
461,84,91066,2,0,B|401:89|401:89|373:78|373:78|310:83,1,150,0|0,1:0|0:0,0:0:0:0:
264,70,91752,2,0,L|207:67,1,50,0|0,0:0|0:0,0:0:0:0:
168,46,92094,6,0,P|176:85|165:128,1,74.9999999999999,0|0,1:0|1:0,0:0:0:0:
116,172,92609,1,0,1:0:0:0:
96,217,92780,2,0,P|89:242|96:275,1,50,0|0,1:0|1:0,0:0:0:0:
86,315,93123,2,0,P|122:296|162:300,1,74.9999999999999,0|0,1:0|1:0,0:0:0:0:
222,330,93637,1,0,1:0:0:0:
265,355,93809,2,0,P|289:361|328:355,1,50,0|0,1:0|1:0,0:0:0:0:
363,370,94152,6,0,L|358:282,1,74.9999999999999,0|0,1:0|1:0,0:0:0:0:
386,225,94666,1,0,1:0:0:0:
376,176,94837,2,0,L|380:123,2,50,0|2|2,1:0|0:0|0:0,0:0:0:0:
288,224,95523,6,0,P|243:245|194:241,1,99.9999999999999,0|2,0:0|0:0,0:0:0:0:
154,210,96037,1,2,0:0:0:0:
144,160,96209,6,0,P|149:124|152:79,1,74.9999999999999,4|0,1:1|1:0,0:0:0:0:
208,36,96723,1,0,1:0:0:0:
254,53,96894,2,0,P|279:51|304:47,1,50,0|0,1:0|1:0,0:0:0:0:
344,76,97237,2,0,P|380:69|424:86,1,74.9999999999999,0|0,1:0|1:0,0:0:0:0:
457,143,97752,1,0,1:0:0:0:
448,192,97923,2,0,P|444:220|444:246,1,50,0|0,1:0|1:0,0:0:0:0:
458,289,98266,6,0,L|373:286,1,74.9999999999999,0|0,1:0|1:0,0:0:0:0:
315,318,98780,1,0,1:0:0:0:
265,324,98952,2,0,L|210:328,1,50,0|0,1:0|1:0,0:0:0:0:
176,358,99294,2,0,B|182:297|182:297|174:268|174:268|183:205,1,150,0|0,1:0|0:0,0:0:0:0:
207,166,99980,2,0,L|215:106,1,50,0|0,0:0|0:0,0:0:0:0:
189,72,100323,6,0,L|114:86,1,74.9999999999999,4|0,0:1|1:0,0:0:0:0:
56,132,100837,1,0,1:0:0:0:
9,112,101009,2,0,L|17:170,1,50,0|0,1:0|1:2,0:0:0:0:
19,211,101352,2,0,P|58:217|92:208,1,74.9999999999999,4|0,0:1|1:0,0:0:0:0:
148,257,101866,1,0,1:0:0:0:
194,276,102037,2,0,P|220:276|245:282,1,50,0|0,1:0|1:0,0:0:0:0:
272,322,102380,6,0,L|363:310,1,74.9999999999999,4|0,0:1|1:0,0:0:0:0:
413,344,102894,1,0,1:0:0:0:
418,294,103066,2,0,P|406:267|388:249,1,50,0|0,1:0|1:0,0:0:0:0:
344,236,103409,2,0,L|361:32,1,200,4|2,0:1|0:0,0:0:0:0:
314,56,104266,1,2,0:0:0:0:
270,80,104437,6,0,B|184:24|165:125|81:72,1,200,4|0,0:1|0:0,0:0:0:0:
34,90,105294,1,2,0:0:0:0:
13,135,105466,1,2,0:0:0:0:
61,222,105809,2,0,P|105:203|164:204,1,99.9999999999999,2|2,0:0|0:0,0:0:0:0:
234,265,106494,2,0,P|306:329|395:291,1,200,2|0,0:0|0:0,0:0:0:0:
415,249,107352,1,2,0:0:0:0:
412,199,107523,1,2,0:0:0:0:
343,126,107866,2,0,L|243:142,1,99.9999999999999,2|2,0:0|0:0,0:0:0:0:
166,205,108552,6,0,P|205:112|152:34,1,200,2|2,0:0|0:0,0:0:0:0:
106,124,109580,2,0,P|69:89|54:39,2,99.9999999999999,2|2|2,0:0|0:0|0:0,0:0:0:0:
166,205,110609,2,0,B|251:177|276:248|359:222,1,200,2|2,0:0|0:0,0:0:0:0:
391,184,111466,1,2,0:0:0:0:
372,137,111637,2,0,P|366:110|368:76,2,50,0|0|0,0:0|0:0|0:0,0:0:0:0:
434,248,112323,2,0,P|440:275|438:309,1,50,2|2,0:0|0:0,0:0:0:0:
462,341,112666,6,0,B|422:348|386:325|386:325|345:344|345:344|313:319|268:329,1,200,6|0,0:0|0:0,0:0:0:0:
228,349,113523,1,2,0:0:0:0:
182,329,113694,2,0,P|135:348|85:344,2,99.9999999999999,2|2|2,0:0|0:0|0:0,0:0:0:0:
233,243,114723,2,0,P|211:148|123:149,1,200,2|0,0:0|0:0,0:0:0:0:
77,168,115580,1,2,0:0:0:0:
28,154,115752,1,2,0:0:0:0:
25,253,116094,2,0,P|8:300|39:353,1,99.9999999999999,2|2,0:0|0:0,0:0:0:0:
125,365,116780,6,0,B|176:307|254:327|254:327|280:349|311:353,1,200,4|0,0:1|0:0,0:0:0:0:
396,311,117809,2,0,P|372:271|315:251,2,99.9999999999999,4|0|0,0:1|0:0|0:0,0:0:0:0:
305,352,118837,2,0,L|294:137,1,200,4|0,0:1|0:0,0:0:0:0:
258,117,119694,1,2,0:0:0:0:
209,131,119866,6,0,P|180:124|144:130,1,50,4|2,0:1|0:0,0:0:0:0:
128,163,120209,2,0,P|102:178|81:208,1,50,2|2,0:0|0:0,0:0:0:0:
94,243,120552,2,0,P|86:272|92:308,1,50,0|0,0:0|0:0,0:0:0:0:
66,337,120894,6,0,L|176:325,1,99.9999999999999,0|6,0:0|0:0,0:0:0:0:
