osu file format v14

[General]
AudioFilename: audio.mp3
AudioLeadIn: 0
PreviewTime: 87980
Countdown: 0
SampleSet: Soft
StackLeniency: 0.4
Mode: 0
LetterboxInBreaks: 0
WidescreenStoryboard: 0

[Editor]
Bookmarks: 1580,9809,18037,26266,34494,50952,67409,75637,83866,104437,120894
DistanceSpacing: 0.8
BeatDivisor: 4
GridSize: 16
TimelineZoom: 3.000005

[Metadata]
Title:Crystal Illusion
TitleUnicode:Crystal Illusion
Artist:P4koo
ArtistUnicode:P4koo
Creator:Beomsan
Version:Down's Insane
Source:
Tags:Osu fan cafe mapping contest #3 OMC#3 Down milr_ [White_Music] Cellina Mandu- Reana Beom Nasmoeb Rieri ProEzreal
BeatmapID:1674896
BeatmapSetID:797393

[Difficulty]
HPDrainRate:6
CircleSize:4.3
OverallDifficulty:7
ApproachRate:9
SliderMultiplier:1.6
SliderTickRate:1

[Events]
//Background and Video events
0,0,"omcbackground.png",0,0
//Break Periods
2,18237,23609
//Storyboard Layer 0 (Background)
//Storyboard Layer 1 (Fail)
//Storyboard Layer 2 (Pass)
//Storyboard Layer 3 (Foreground)
//Storyboard Sound Samples

[TimingPoints]
552,342.857142857143,3,2,1,40,1,0
1237,-125,3,2,1,40,0,0
7066,-125,3,2,1,45,0,0
7409,-125,3,2,1,50,0,0
7752,-125,3,2,1,40,0,0
8780,-125,3,2,1,50,0,0
8952,-125,3,2,1,40,0,0
9809,-100,3,2,4,80,0,0
9980,-100,3,2,2,80,0,0
11866,-100,3,2,1,80,0,0
12037,-100,3,2,2,80,0,0
12552,-100,3,2,1,80,0,0
13066,-100,3,2,2,80,0,0
14780,-100,3,2,1,80,0,0
14952,-100,3,2,4,80,0,0
15294,-100,3,2,2,80,0,0
18209,-100,3,2,5,60,0,0
22152,-100,3,2,5,45,0,0
22837,-100,3,2,5,47,0,0
23180,-100,3,2,5,50,0,0
23523,-100,3,2,5,52,0,0
23866,-100,3,2,5,56,0,0
24037,-100,3,2,5,57,0,0
24209,-100,3,2,5,59,0,0
24552,-100,3,2,5,63,0,0
24894,-100,3,2,1,69,0,0
25237,-100,3,2,1,74,0,0
25409,-100,3,2,2,65,0,0
26266,-100,3,2,4,70,0,0
26609,-100,3,2,2,70,0,0
34494,-100,3,2,4,70,0,0
35180,-100,3,2,1,70,0,0
35523,-100,3,2,4,70,0,0
36209,-100,3,2,1,70,0,0
36552,-100,3,2,4,70,0,0
37237,-100,3,2,1,70,0,0
37580,-100,3,2,4,70,0,0
38094,-100,3,2,1,70,0,0
38609,-100,3,2,4,70,0,0
39294,-100,3,2,1,70,0,0
39637,-100,3,2,4,70,0,0
40323,-100,3,2,1,70,0,0
40666,-100,3,2,4,70,0,0
41352,-100,3,2,1,70,0,0
42723,-100,3,2,4,70,0,0
43409,-100,3,2,1,70,0,0
43752,-100,3,2,4,70,0,0
44437,-100,3,2,1,70,0,0
44780,-100,3,2,4,70,0,0
45466,-100,3,2,1,70,0,0
45809,-100,3,2,4,70,0,0
46495,-100,3,2,1,70,0,0
46837,-100,3,2,4,70,0,0
47523,-100,3,2,1,70,0,0
47866,-100,3,2,4,70,0,0
48552,-100,3,2,1,70,0,0
48894,-100,3,2,4,70,0,0
49580,-100,3,2,1,70,0,0
50780,-100,3,2,1,60,0,0
50866,-100,3,2,1,50,0,0
50952,-125,3,2,1,47,0,0
54380,-125,3,2,1,5,0,0
54723,-125,3,2,1,47,0,0
67066,-125,3,2,1,56,0,0
67408,-125,3,2,4,75,0,0
67752,-125,3,2,1,47,0,0
68094,-125,3,2,5,47,0,0
68266,-125,3,2,1,47,0,0
70152,-125,3,2,5,47,0,0
70323,-125,3,2,1,47,0,0
72209,-125,3,2,5,47,0,0
72380,-125,3,2,1,47,0,0
73237,-125,3,2,5,47,0,0
73409,-125,3,2,1,47,0,0
75637,-125,3,2,1,70,0,0
75980,-125,3,2,5,55,0,0
76323,-125,3,2,1,55,0,0
76837,-125,3,2,5,55,0,0
77009,-125,3,2,1,55,0,0
77352,-125,3,2,5,55,0,0
77694,-125,3,2,1,55,0,0
78037,-125,3,2,5,58,0,0
78380,-125,3,2,1,57,0,0
78552,-125,3,2,1,65,0,0
78894,-125,3,2,5,65,0,0
78980,-125,3,2,1,68,0,0
79409,-125,3,2,5,72,0,0
79580,-125,3,2,1,72,0,0
79752,-100,3,2,2,80,0,0
79837,-100,3,2,5,69,0,0
80437,-100,3,2,1,69,0,0
80780,-100,3,2,2,69,0,0
80952,-100,3,2,5,69,0,0
81294,-100,3,2,1,74,0,0
81809,-100,3,2,2,80,0,0
81980,-100,3,2,1,62,0,0
82152,-100,3,2,1,64,0,0
82323,-100,3,2,1,66,0,0
82494,-100,3,2,1,68,0,0
82666,-100,3,2,1,70,0,0
82837,-100,3,2,1,72,0,0
83009,-100,3,2,1,74,0,0
83180,-100,3,2,1,76,0,0
83352,-100,3,2,1,78,0,0
83523,-100,3,2,1,80,0,0
83694,-100,3,2,1,40,0,0
83866,-100,3,2,1,73,0,0
85752,-100,3,2,1,25,0,0
86437,-100,3,2,1,33,0,0
86780,-100,3,2,1,42,0,0
86952,-100,3,2,1,57,0,0
87123,-100,3,2,1,45,0,0
87294,-100,3,2,1,66,0,0
87466,-100,3,2,1,70,0,0
87637,-100,3,2,1,74,0,0
87809,-100,3,2,1,76,0,0
87980,-83.3333333333333,3,2,4,80,0,0
88152,-83.3333333333333,3,2,6,80,0,0
91237,-83.3333333333333,3,2,2,80,0,0
92094,-83.3333333333333,3,2,6,80,0,0
95352,-83.3333333333333,3,2,6,55,0,0
95523,-83.3333333333333,3,2,6,68,0,0
95866,-83.3333333333333,3,2,6,78,0,0
96037,-83.3333333333333,3,2,6,84,0,0
96209,-83.3333333333333,3,2,4,80,0,0
98266,-83.3333333333333,3,2,6,80,0,0
99466,-83.3333333333333,3,2,2,80,0,0
100323,-83.3333333333333,3,2,4,80,0,0
100494,-83.3333333333333,3,2,6,80,0,0
101352,-83.3333333333333,3,2,4,80,0,0
101523,-83.3333333333333,3,2,6,80,0,0
102380,-83.3333333333333,3,2,4,80,0,0
102552,-83.3333333333333,3,2,6,80,0,0
103409,-83.3333333333333,3,2,4,80,0,0
104094,-83.3333333333333,3,2,1,80,0,0
104437,-100,3,2,4,80,0,0
104780,-100,3,2,1,80,0,0
116780,-100,3,2,4,80,0,0
116952,-100,3,2,2,80,0,0
117809,-100,3,2,4,80,0,0
117894,-100,3,2,2,80,0,0
118837,-100,3,2,4,80,0,0
118923,-100,3,2,2,80,0,0
119694,-100,3,2,1,80,0,0
119866,-100,3,2,4,80,0,0
119952,-100,3,2,1,80,0,0
120037,-100,3,2,1,77,0,0
120123,-100,3,2,1,73,0,0
120209,-100,3,2,1,69,0,0
120294,-100,3,2,1,65,0,0
120380,-100,3,2,1,61,0,0
120466,-100,3,2,1,57,0,0
120552,-100,3,2,1,54,0,0
120637,-100,3,2,1,51,0,0
120723,-100,3,2,1,47,0,0
120809,-100,3,2,1,43,0,0
120894,-100,3,2,1,40,0,0
121237,-100,3,2,99,70,0,0

[Colours]
Combo1 : 188,188,188
Combo2 : 186,117,255
Combo3 : 128,191,255
Combo4 : 128,128,255

[HitObjects]
105,101,1237,6,0,L|83:64,3,32,0|0|0|0,0:0|0:0|0:0|0:0,0:0:0:0:
94,125,1580,6,0,L|234:103,1,128,2|0,0:0|0:0,0:0:0:0:
220,105,2266,1,0,0:0:0:0:
284,46,2437,1,2,0:0:0:0:
284,46,2523,1,2,0:0:0:0:
284,46,2609,6,0,P|318:59|348:94,1,64,2|0,0:0|0:0,0:0:0:0:
468,90,2952,2,0,P|439:113|394:121,1,64,0|0,0:0|0:0,0:0:0:0:
338,222,3294,2,0,P|332:185|347:141,1,64,2|2,0:0|0:0,0:0:0:0:
421,244,3637,6,0,L|404:321,1,64,2|0,0:0|0:0,0:0:0:0:
274,281,3980,1,0,0:0:0:0:
338,222,4152,1,0,0:0:0:0:
256,199,4323,2,0,P|264:172|250:132,1,64,0|0,0:0|0:0,0:0:0:0:
208,2,4666,6,0,P|164:49|187:120,1,128,2|0,0:0|0:0,0:0:0:0:
174,107,5352,1,2,0:0:0:0:
254,138,5523,1,2,0:0:0:0:
324,88,5694,6,0,P|316:59|308:11,1,64,2|0,0:0|0:0,0:0:0:0:
407,113,6037,2,0,P|428:91|465:60,1,64,0|0,0:0|0:0,0:0:0:0:
422,195,6380,2,0,P|451:202|496:219,1,64,0|0,0:0|0:0,0:0:0:0:
254,138,6723,6,0,B|244:167|244:167|249:200,1,64,2|0,0:0|0:0,0:0:0:0:
129,210,7066,2,0,B|149:232|149:232|180:244,1,64,2|0,0:0|0:0,0:0:0:0:
159,346,7409,2,0,B|188:339|188:339|215:318,1,64,2|0,0:0|0:0,0:0:0:0:
356,284,7752,6,0,P|320:281|275:273,1,64,2|0,0:0|0:0,0:0:0:0:
417,346,8094,1,0,0:0:0:0:
367,204,8266,1,0,0:0:0:0:
486,295,8437,2,0,P|495:266|486:220,1,64,0|0,0:0|0:0,0:0:0:0:
415,89,8780,5,2,0:0:0:0:
442,166,8952,1,0,0:0:0:0:
458,20,9123,1,0,0:0:0:0:
328,86,9294,1,0,0:0:0:0:
426,180,9466,6,0,L|420:216,3,32,2|2|2|2,0:0|0:0|0:0|0:0,0:0:0:0:
442,166,9809,6,0,P|396:168|354:159,1,80,4|0,0:1|0:0,0:0:0:0:
287,197,10066,1,0,0:0:0:0:
287,197,10152,2,0,L|308:297,1,80,8|0,0:0|0:0,0:0:0:0:
216,149,10494,1,0,0:0:0:0:
84,204,10666,1,2,0:0:0:0:
78,210,10752,1,2,0:0:0:0:
73,217,10837,6,0,P|121:208|153:205,1,80,2|8,0:0|0:0,0:0:0:0:
354,98,11180,2,0,P|306:89|274:86,1,80,2|0,0:0|0:0,0:0:0:0:
169,2,11523,2,0,P|160:50|157:82,1,80,2|8,0:0|0:0,0:0:0:0:
265,290,11866,6,0,P|274:242|277:210,1,80,2|0,0:0|0:0,0:0:0:0:
216,149,12123,1,0,0:0:0:0:
216,149,12209,2,0,P|174:166|144:220,1,80,8|0,0:0|0:0,0:0:0:0:
188,331,12552,1,2,0:0:0:0:
276,211,12723,1,2,0:0:0:0:
102,258,12894,5,2,0:0:0:0:
265,290,13066,1,10,0:0:0:0:
152,192,13237,2,0,B|152:155|152:155|124:112,1,80,2|2,0:0|0:0,0:0:0:0:
63,75,13494,1,0,0:0:0:0:
63,75,13580,2,0,P|65:53|70:23,1,40,10|0,0:0|0:0,0:0:0:0:
31,198,13752,2,0,P|53:188|67:182,1,40,10|0,0:0|0:0,0:0:0:0:
235,137,13923,6,0,P|279:143|315:167,1,80,4|0,0:1|0:0,0:0:0:0:
382,119,14180,1,0,0:0:0:0:
382,119,14266,2,0,L|370:36,1,80,8|0,0:0|0:0,0:0:0:0:
453,167,14609,1,0,0:0:0:0:
380,295,14780,1,2,0:0:0:0:
374,289,14866,1,2,0:0:0:0:
368,283,14952,6,0,B|362:239|362:239|383:196,1,80,4|0,0:1|0:0,0:0:0:0:
500,26,15294,2,0,B|515:57|515:57|509:101,1,80,10|0,0:0|0:0,0:0:0:0:
311,148,15637,2,0,B|346:120|346:120|393:117,1,80,2|8,0:0|0:0,0:0:0:0:
511,229,15980,5,4,0:1:0:0:
377,207,16152,1,0,0:0:0:0:
290,312,16323,2,0,P|273:281|225:249,1,80,8|0,0:0|0:0,0:0:0:0:
170,208,16580,1,0,0:0:0:0:
170,208,16666,2,0,P|173:179|177:150,1,40,0|0,0:0|0:0,0:0:0:0:
232,111,16837,2,0,P|230:91|227:71,1,40,0|0,0:0|0:0,0:0:0:0:
94,13,17009,5,0,0:0:0:0:
79,39,17094,1,0,0:0:0:0:
76,68,17180,1,8,0:0:0:0:
83,97,17266,1,0,0:0:0:0:
101,121,17352,2,0,L|51:144,3,40,0|0|0|0,0:0|0:0|0:0|0:0,0:0:0:0:
174,168,17694,2,0,P|196:173|229:188,1,40,8|0,0:0|0:0,0:0:0:0:
53,216,17866,2,0,P|43:233|36:252,1,40,8|0,0:0|0:0,0:0:0:0:
158,299,18037,5,0,0:0:0:0:
256,192,24209,12,2,25237,0:0:0:0:
158,299,25409,5,2,0:0:0:0:
216,242,25580,1,2,0:0:0:0:
294,221,25752,1,2,0:0:0:0:
157,183,25923,1,10,0:0:0:0:
221,355,26094,1,10,0:0:0:0:
372,249,26266,6,0,B|381:218|381:218|355:150,1,80,4|0,0:1|0:0,0:0:0:0:
298,123,26523,1,0,0:0:0:0:
298,123,26609,2,0,L|310:40,1,80,10|0,0:0|0:0,0:0:0:0:
294,221,26952,1,2,0:0:0:0:
136,183,27123,1,2,0:0:0:0:
143,187,27209,1,2,0:0:0:0:
150,191,27294,6,0,P|198:168|237:170,1,80,2|0,0:0|0:0,0:0:0:0:
107,262,27637,1,10,0:0:0:0:
10,170,27809,1,0,0:0:0:0:
101,52,27980,2,0,L|83:151,1,80,2|8,0:0|0:0,0:0:0:0:
31,288,28323,6,0,L|125:254,1,80,2|0,0:0|0:0,0:0:0:0:
192,285,28580,1,0,0:0:0:0:
192,285,28666,2,0,P|236:290|266:322,1,80,8|0,0:0|0:0,0:0:0:0:
390,258,29009,1,0,0:0:0:0:
347,329,29180,6,0,P|341:350|339:371,2,40,2|2|2,0:0|0:0|0:0,0:0:0:0:
335,197,29523,1,8,0:0:0:0:
473,243,29694,2,0,P|475:207|459:151,1,80,2|0,0:0|0:0,0:0:0:0:
378,50,30037,2,0,P|376:86|392:142,1,80,2|10,0:0|0:0,0:0:0:0:
257,216,30380,6,0,L|369:188,1,80,2|0,0:0|0:0,0:0:0:0:
389,262,30637,1,0,0:0:0:0:
389,262,30723,2,0,P|385:308|359:352,1,80,8|0,0:0|0:0,0:0:0:0:
257,216,31066,2,0,P|261:170|287:126,1,80,2|0,0:0|0:0,0:0:0:0:
190,11,31409,6,0,B|216:42|216:42|213:101,1,80,2|8,0:0|0:0,0:0:0:0:
152,136,31666,1,0,0:0:0:0:
152,136,31752,2,0,L|66:120,1,80,2|0,0:0|0:0,0:0:0:0:
275,140,32094,2,0,L|361:124,1,80,2|8,0:0|0:0,0:0:0:0:
241,279,32437,6,0,B|225:295|218:316|218:316|222:256|209:177,2,160,4|0|0,0:1|0:0|0:0,0:0:0:0:
129,177,33294,1,0,0:0:0:0:
122,181,33380,1,0,0:0:0:0:
115,185,33466,6,0,L|97:230,3,40,0|0|0|0,0:0|0:0|0:0|0:0,0:0:0:0:
54,124,33809,2,0,L|39:86,3,40,0|0|0|0,0:0|0:0|0:0|0:0,0:0:0:0:
133,30,34152,1,0,0:0:0:0:
158,44,34237,1,0,0:0:0:0:
176,68,34323,1,0,0:0:0:0:
183,97,34409,1,0,0:0:0:0:
178,126,34494,6,0,L|315:107,1,120,4|0,0:1|0:0,0:0:0:0:
320,125,34837,2,0,P|332:168|309:221,1,80,8|0,0:0|0:0,0:0:0:0:
323,201,35094,1,0,0:0:0:0:
323,201,35180,1,2,0:0:0:0:
248,317,35352,1,2,0:0:0:0:
116,286,35523,6,0,B|91:251|91:251|108:162,1,120,2|0,0:0|0:0,0:0:0:0:
83,159,35866,2,0,L|56:54,1,80,8|0,0:0|0:0,0:0:0:0:
63,81,36123,1,0,0:0:0:0:
63,81,36209,1,2,0:0:0:0:
182,234,36380,1,10,0:0:0:0:
285,118,36552,6,0,P|341:76|413:88,1,120,2|0,0:0|0:0,0:0:0:0:
409,95,36894,2,0,L|394:201,1,80,8|0,0:0|0:0,0:0:0:0:
397,174,37152,1,0,0:0:0:0:
397,174,37237,1,2,0:0:0:0:
485,55,37409,1,2,0:0:0:0:
285,118,37580,6,0,B|220:98|220:98|162:113,1,120,2|0,0:0|0:0,0:0:0:0:
153,133,37923,2,0,P|170:171|175:239,1,80,8|0,0:0|0:0,0:0:0:0:
176,208,38180,1,0,0:0:0:0:
176,208,38266,1,2,0:0:0:0:
96,71,38437,1,10,0:0:0:0:
32,182,38609,6,0,P|11:204|48:292,1,120,2|0,0:0|0:0,0:0:0:0:
53,298,38952,2,0,L|148:278,1,80,8|0,0:0|0:0,0:0:0:0:
131,281,39209,1,0,0:0:0:0:
131,281,39294,1,2,0:0:0:0:
277,207,39466,1,2,0:0:0:0:
375,345,39637,6,0,B|394:269|394:269|371:223,1,120,2|0,0:0|0:0,0:0:0:0:
361,208,39980,2,0,P|357:170|379:114,1,80,8|0,0:0|0:0,0:0:0:0:
368,130,40237,1,0,0:0:0:0:
368,130,40323,1,2,0:0:0:0:
305,284,40494,1,10,0:0:0:0:
163,212,40666,6,0,L|249:226,2,80,2|0|10,0:0|0:0|0:0,0:0:0:0:
37,132,41180,2,0,L|17:85,2,40,0|0|2,0:0|0:0|0:0,0:0:0:0:
68,302,41523,1,2,0:0:0:0:
75,298,41609,1,2,0:0:0:0:
82,294,41694,6,0,L|93:246,1,40,2|0,0:0|0:0,0:0:0:0:
7,250,41866,2,0,L|18:202,1,40,2|0,0:0|0:0,0:0:0:0:
99,60,42037,2,0,L|133:152,1,80,2|2,0:0|0:0,0:0:0:0:
163,212,42294,1,2,0:0:0:0:
163,212,42380,2,0,P|186:200|213:192,1,40,2|0,0:0|0:0,0:0:0:0:
268,148,42552,2,0,P|286:155|304:164,1,40,2|0,0:0|0:0,0:0:0:0:
410,249,42723,6,0,P|436:198|397:131,1,120,4|0,0:1|0:0,0:0:0:0:
388,134,43066,2,0,L|404:39,1,80,8|0,0:0|0:0,0:0:0:0:
401,55,43323,1,0,0:0:0:0:
401,55,43409,1,2,0:0:0:0:
304,164,43580,1,2,0:0:0:0:
410,249,43752,6,0,L|269:273,1,120,2|0,0:0|0:0,0:0:0:0:
271,287,44094,2,0,P|256:243|218:205,1,80,8|0,0:0|0:0,0:0:0:0:
234,217,44352,1,0,0:0:0:0:
234,217,44437,1,2,0:0:0:0:
338,345,44609,1,10,0:0:0:0:
163,262,44780,6,0,B|146:226|146:226|174:135,1,120,2|0,0:0|0:0,0:0:0:0:
156,125,45123,2,0,L|56:149,1,80,8|0,0:0|0:0,0:0:0:0:
78,143,45380,1,0,0:0:0:0:
78,143,45466,1,2,0:0:0:0:
234,217,45637,1,2,0:0:0:0:
217,65,45809,6,0,P|249:24|329:23,1,120,2|0,0:0|0:0,0:0:0:0:
335,33,46152,2,0,L|323:137,1,80,8|0,0:0|0:0,0:0:0:0:
325,112,46409,1,0,0:0:0:0:
325,112,46494,1,2,0:0:0:0:
416,263,46666,1,10,0:0:0:0:
248,154,46837,6,0,P|225:206|241:272,1,120,4|0,0:1|0:0,0:0:0:0:
260,282,47180,1,8,0:0:0:0:
334,238,47352,1,0,0:0:0:0:
334,238,47437,1,0,0:0:0:0:
334,238,47523,1,2,0:0:0:0:
416,263,47694,1,2,0:0:0:0:
248,154,47866,6,0,L|106:133,1,120,2|0,0:0|0:0,0:0:0:0:
105,150,48209,1,8,0:0:0:0:
53,214,48380,1,0,0:0:0:0:
53,214,48466,1,0,0:0:0:0:
53,214,48552,1,2,0:0:0:0:
100,283,48723,1,10,0:0:0:0:
248,154,48894,6,0,B|262:121|262:121|249:70,2,80,6|0|8,0:0|0:0|0:0,0:0:0:0:
339,274,49409,2,0,L|355:326,2,40,0|0|2,0:0|0:0|0:0,0:0:0:0:
442,171,49752,1,10,0:0:0:0:
446,164,49837,1,0,0:0:0:0:
451,158,49923,6,0,L|467:106,3,40,2|2|2|2,0:0|0:0|0:0|0:0,0:0:0:0:
417,248,50266,2,0,L|433:300,3,40,2|2|2|2,0:0|0:0|0:0|0:0,0:0:0:0:
351,171,50609,1,0,0:0:0:0:
321,169,50694,1,0,0:0:0:0:
293,178,50780,1,2,0:0:0:0:
270,198,50866,1,2,0:0:0:0:
257,225,50951,5,2,0:0:0:0:
257,225,51809,6,0,L|244:266,2,32,2|2|2,0:0|0:0|0:0,0:0:0:0:
208,158,52323,1,2,0:0:0:0:
126,167,52666,1,2,0:0:0:0:
257,225,53009,5,2,0:0:0:0:
330,181,53352,2,0,L|342:107,1,64,0|0,0:0|0:0,0:0:0:0:
418,130,53694,2,0,L|407:193,1,64,2|0,0:0|0:0,0:0:0:0:
355,258,54037,5,2,0:0:0:0:
361,256,54723,1,2,0:0:0:0:
330,181,54894,1,2,0:0:0:0:
285,300,55066,6,0,P|297:335|292:365,1,64,2|0,0:0|0:0,0:0:0:0:
204,267,55409,2,0,P|179:294|151:305,1,64,2|0,0:0|0:0,0:0:0:0:
186,187,55752,2,0,P|149:179|126:160,1,64,2|0,0:0|0:0,0:0:0:0:
390,128,56094,6,0,L|407:62,1,64,2|0,0:0|0:0,0:0:0:0:
412,205,56437,2,0,L|460:252,1,64,2|0,0:0|0:0,0:0:0:0:
330,181,56780,2,0,L|264:199,1,64,2|0,0:0|0:0,0:0:0:0:
355,383,57123,6,0,B|331:318|331:318|353:253,1,128,2|0,0:0|0:0,0:0:0:0:
421,321,57637,1,0,0:0:0:0:
248,313,57809,2,0,P|216:306|179:301,1,64,2|2,0:0|0:0,0:0:0:0:
33,297,58152,6,0,P|63:243|146:257,1,128,2|0,0:0|0:0,0:0:0:0:
185,301,58666,1,0,0:0:0:0:
265,274,58837,2,0,P|271:246|285:202,1,64,2|2,0:0|0:0,0:0:0:0:
236,141,59180,5,2,0:0:0:0:
236,141,60037,6,0,L|220:94,2,32,2|2|2,0:0|0:0|0:0,0:0:0:0:
281,212,60552,1,2,0:0:0:0:
367,208,60894,1,2,0:0:0:0:
236,141,61237,5,2,0:0:0:0:
236,141,61923,2,0,P|243:115|233:73,1,64,2|2,0:0|0:0,0:0:0:0:
96,98,62266,6,0,L|165:113,2,64,2|2|2,0:0|0:0|0:0,0:0:0:0:
29,147,62780,1,2,0:0:0:0:
91,202,62952,2,0,P|110:238|106:273,1,64,2|2,0:0|0:0,0:0:0:0:
26,372,63294,6,0,L|42:301,1,64,2|0,0:0|0:0,0:0:0:0:
109,260,63637,2,0,L|125:189,1,64,2|0,0:0|0:0,0:0:0:0:
192,148,63980,2,0,L|208:77,1,64,2|0,0:0|0:0,0:0:0:0:
93,60,64323,6,0,P|85:97|92:127,1,64,2|0,0:0|0:0,0:0:0:0:
123,197,64666,2,0,P|152:222|181:231,1,64,2|0,0:0|0:0,0:0:0:0:
258,228,65009,2,0,P|294:215|316:194,1,64,2|0,0:0|0:0,0:0:0:0:
352,127,65352,5,2,0:0:0:0:
352,127,66037,2,0,L|337:54,1,64,2|2,0:0|0:0,0:0:0:0:
427,167,66380,6,0,P|437:197|409:249,1,64,2|0,0:0|0:0,0:0:0:0:
311,320,66723,1,2,0:0:0:0:
350,249,66894,1,2,0:0:0:0:
292,188,67066,1,2,0:0:0:0:
292,188,67152,1,2,0:0:0:0:
292,188,67237,1,2,0:0:0:0:
292,188,67323,1,2,0:0:0:0:
292,188,67409,6,0,L|159:177,1,128,4|0,0:1|0:0,0:0:0:0:
164,177,68266,6,0,L|148:147,2,32,0|0|2,0:0|0:0|0:0,0:0:0:0:
95,323,68952,2,0,P|70:331|28:363,2,64,2|2|2,0:0|0:0|0:0,0:0:0:0:
173,295,69466,6,0,P|189:250|152:166,1,128,2|0,0:0|0:0,0:0:0:0:
163,176,70323,6,0,L|170:123,2,32,2|2|2,0:0|0:0|0:0,0:0:0:0:
87,214,70837,1,2,0:0:0:0:
157,260,71180,1,2,0:0:0:0:
163,176,71523,6,0,B|182:97|182:97|144:47,1,128,2|0,0:0|0:0,0:0:0:0:
153,59,72380,6,0,L|115:49,2,32,2|2|2,0:0|0:0|0:0,0:0:0:0:
235,85,72894,1,2,0:0:0:0:
317,111,73237,1,8,0:0:0:0:
235,85,73580,6,0,B|224:140|224:140|233:164|233:164|221:217,2,128,2|2|2,0:0|0:0|0:0,0:0:0:0:
235,85,74609,5,0,0:0:0:0:
222,209,74952,2,0,P|221:248|240:297,1,64,0|2,0:0|0:0,0:0:0:0:
171,142,75294,1,2,0:0:0:0:
305,234,75466,1,2,0:0:0:0:
156,314,75637,6,0,L|19:300,2,128,4|8|0,0:1|0:0|0:0,0:0:0:0:
227,271,76494,1,0,0:0:0:0:
227,271,76580,1,0,0:0:0:0:
227,271,76666,5,0,0:0:0:0:
300,312,76837,1,8,0:0:0:0:
304,233,77009,2,0,P|311:197|348:165,1,64,2|2,0:0|0:0,0:0:0:0:
386,316,77352,2,0,P|381:347|362:372,1,64,8|8,0:0|0:0,0:0:0:0:
227,271,77694,6,0,P|192:240|183:158,2,128,2|8|0,0:0|0:0|0:0,0:0:0:0:
304,233,78552,1,2,0:0:0:0:
304,233,78637,1,2,0:0:0:0:
304,233,78723,5,2,0:0:0:0:
398,287,78894,1,8,0:0:0:0:
398,287,78980,1,2,0:0:0:0:
398,287,79066,2,0,L|377:234,3,32,2|2|2|2,0:0|0:0|0:0|0:0,0:0:0:0:
434,191,79409,2,0,L|448:156,1,32,8|0,0:0|0:0,0:0:0:0:
466,333,79580,2,0,L|454:362,1,32,2|2,0:0|0:0,0:0:0:0:
317,301,79752,6,0,P|270:314|204:285,1,120,4|0,0:1|0:0,0:0:0:0:
191,265,80094,2,0,L|206:168,1,80,8|0,0:0|0:0,0:0:0:0:
302,32,80437,2,0,P|325:60|322:119,1,80,0|2,0:0|0:0,0:0:0:0:
287,170,80694,1,2,0:0:0:0:
287,170,80780,6,0,P|341:141|415:154,1,120,4|0,0:1|0:0,0:0:0:0:
418,165,81123,2,0,L|400:247,1,80,0|2,0:0|0:0,0:0:0:0:
203,185,81466,2,0,L|221:103,1,80,2|2,0:0|0:0,0:0:0:0:
151,64,81723,1,2,0:0:0:0:
151,64,81809,6,0,L|134:128,1,40,4|0,0:1|0:0,0:0:0:0:
54,180,81980,2,0,L|71:116,1,40,2|0,0:0|0:0,0:0:0:0:
133,51,82152,6,0,L|133:117,1,40,2|0,0:0|0:0,0:0:0:0:
69,196,82323,2,0,L|68:129,1,40,2|0,0:0|0:0,0:0:0:0:
114,43,82494,6,0,L|131:106,1,40,2|0,0:0|0:0,0:0:0:0:
87,207,82666,2,0,L|69:143,1,40,2|2,0:0|0:0,0:0:0:0:
220,106,82837,5,2,0:0:0:0:
233,120,82922,1,2,0:0:0:0:
243,138,83008,1,2,0:0:0:0:
248,157,83094,1,2,0:0:0:0:
248,177,83179,1,2,0:0:0:0:
244,196,83265,1,2,0:0:0:0:
236,215,83351,1,2,0:0:0:0:
224,230,83437,1,2,0:0:0:0:
208,243,83523,5,2,0:0:0:0:
232,225,83608,1,2,0:0:0:0:
259,213,83694,1,2,0:0:0:0:
289,208,83780,1,2,0:0:0:0:
319,210,83865,5,4,0:1:0:0:
256,192,83952,12,0,87637,0:0:0:0:
319,210,87980,6,0,P|339:265|307:322,1,95.9999970703126,4|0,1:1|0:0,0:0:0:0:
314,324,88237,2,0,L|422:306,1,95.9999970703126,0|0,1:0|0:0,0:0:0:0:
436,317,88494,1,0,1:0:0:0:
252,262,88666,1,0,1:0:0:0:
362,137,88837,1,0,1:0:0:0:
192,26,89009,6,0,B|162:71|162:71|176:135,1,95.9999970703126,0|0,1:0|0:0,0:0:0:0:
157,137,89266,2,0,L|264:119,1,95.9999970703126,0|0,1:0|0:0,0:0:0:0:
277,135,89523,1,0,1:0:0:0:
81,52,89694,1,0,1:0:0:0:
135,224,89866,1,0,1:0:0:0:
20,111,90037,6,0,L|1:227,1,95.9999970703126,0|0,1:0|0:0,0:0:0:0:
19,231,90294,2,0,P|70:207|119:214,1,95.9999970703126,0|0,1:0|0:0,0:0:0:0:
135,224,90552,1,0,1:0:0:0:
0,311,90723,1,0,1:0:0:0:
105,128,90894,1,0,1:0:0:0:
195,280,91066,6,0,L|323:258,1,95.9999970703126,0|0,1:0|0:0,0:0:0:0:
312,246,91323,2,0,P|322:194|283:143,1,95.9999970703126,0|0,0:0|0:0,0:0:0:0:
280,139,91580,2,0,L|289:82,1,47.9999985351563,0|0,0:0|0:0,0:0:0:0:
289,263,91752,2,0,L|281:310,1,47.9999985351563,0|0,0:0|0:0,0:0:0:0:
191,198,91923,2,0,L|200:141,1,47.9999985351563,0|0,0:0|0:0,0:0:0:0:
302,157,92094,6,0,P|351:151|412:126,1,95.9999970703126,0|0,1:0|0:0,0:0:0:0:
418,154,92352,2,0,B|434:202|434:202|397:269,1,95.9999970703126,0|0,1:0|0:0,0:0:0:0:
392,263,92609,1,0,1:0:0:0:
446,75,92780,1,0,1:0:0:0:
302,157,92952,1,0,1:0:0:0:
213,63,93123,6,0,P|188:109|204:158,1,95.9999970703126,0|0,1:0|0:0,0:0:0:0:
215,174,93380,2,0,L|196:282,1,95.9999970703126,0|0,1:0|0:0,0:0:0:0:
173,281,93637,1,0,1:0:0:0:
302,157,93809,1,0,1:0:0:0:
125,192,93980,1,0,1:0:0:0:
264,320,94152,6,0,P|308:293|368:294,1,95.9999970703126,0|0,1:0|0:0,0:0:0:0:
378,302,94409,2,0,P|373:257|369:197,1,95.9999970703126,0|0,1:0|0:0,0:0:0:0:
384,182,94666,1,0,1:0:0:0:
334,374,94837,1,0,1:0:0:0:
198,268,95009,1,2,0:0:0:0:
112,354,95180,6,0,P|113:331|120:303,1,47.9999985351563,2|0,0:0|0:0,0:0:0:0:
65,246,95352,2,0,P|85:235|113:227,1,47.9999985351563,0|0,0:0|0:0,0:0:0:0:
195,142,95523,6,0,P|194:165|187:193,1,47.9999985351563,0|0,0:0|0:0,0:0:0:0:
242,250,95695,2,0,P|221:260|193:268,1,47.9999985351563,2|2,0:0|0:0,0:0:0:0:
3,205,95866,5,2,0:0:0:0:
11,170,95951,1,2,0:0:0:0:
20,135,96037,1,2,0:0:0:0:
28,100,96123,1,2,0:0:0:0:
38,66,96209,6,0,B|86:73|86:73|165:49,1,95.9999970703126,4|0,1:1|0:0,0:0:0:0:
158,72,96466,2,0,P|217:62|266:99,1,95.9999970703126,0|0,1:0|0:0,0:0:0:0:
268,98,96723,1,0,1:0:0:0:
294,261,96894,2,0,L|305:214,1,47.9999985351563,0|0,1:0|0:0,0:0:0:0:
382,237,97066,2,0,L|370:283,1,47.9999985351563,0|0,1:0|0:0,0:0:0:0:
210,266,97237,6,0,L|236:160,1,95.9999970703126,0|0,1:0|0:0,0:0:0:0:
209,156,97494,2,0,B|165:135|165:135|107:143,1,95.9999970703126,0|0,1:0|0:0,0:0:0:0:
94,159,97752,1,0,1:0:0:0:
80,374,97923,2,0,P|67:351|65:317,1,47.9999985351563,0|0,1:0|0:0,0:0:0:0:
136,307,98094,2,0,P|149:330|151:364,1,47.9999985351563,0|0,1:0|0:0,0:0:0:0:
1,275,98266,6,0,L|15:159,1,95.9999970703126,0|0,1:0|0:0,0:0:0:0:
13,151,98523,2,0,P|-8:109|2:63,1,95.9999970703126,0|0,1:0|0:0,0:0:0:0:
25,44,98780,1,0,1:0:0:0:
173,127,98952,2,0,B|153:112|153:112|110:101,1,47.9999985351563,0|0,1:0|0:0,0:0:0:0:
99,173,99123,2,0,B|118:187|118:187|161:198,1,47.9999985351563,0|0,1:0|0:0,0:0:0:0:
254,20,99294,6,0,B|273:66|273:66|257:117,1,95.9999970703126,0|0,1:0|0:0,0:0:0:0:
298,186,99552,1,0,0:0:0:0:
298,186,99637,2,0,P|334:178|368:175,1,47.9999985351563,0|0,0:0|0:0,0:0:0:0:
406,77,99809,2,0,P|369:69|336:66,1,47.9999985351563,0|0,0:0|0:0,0:0:0:0:
180,76,99980,1,0,0:0:0:0:
154,100,100065,1,0,0:0:0:0:
140,133,100151,1,0,0:0:0:0:
142,169,100237,1,0,0:0:0:0:
158,201,100323,6,0,P|181:257|150:315,1,95.9999970703126,4|0,0:1|0:0,0:0:0:0:
172,289,100580,1,0,1:0:0:0:
172,289,100666,1,0,0:0:0:0:
231,147,100837,1,0,1:0:0:0:
93,259,101009,1,0,1:0:0:0:
258,334,101180,1,0,1:2:0:0:
307,184,101352,6,0,B|296:233|296:233|318:282,1,95.9999970703126,4|0,0:1|0:0,0:0:0:0:
314,274,101609,1,0,1:0:0:0:
314,274,101694,1,0,0:0:0:0:
231,147,101866,1,0,1:0:0:0:
390,226,102037,1,0,1:0:0:0:
258,334,102209,1,0,1:0:0:0:
307,184,102380,6,0,B|312:160|312:160|330:124,1,47.9999985351563,4|0,1:1|0:0,0:0:0:0:
286,70,102552,2,0,B|309:62|309:62|349:59,1,47.9999985351563,0|0,0:0|1:0,0:0:0:0:
397,4,102723,2,0,B|420:49|420:49|407:118,1,95.9999970703126,0|0,0:0|1:0,0:0:0:0:
444,176,102980,1,0,0:0:0:0:
444,176,103066,6,0,L|389:185,1,47.9999985351563,0|0,1:0|0:0,0:0:0:0:
285,53,103237,2,0,L|340:62,1,47.9999985351563,0|0,1:0|0:0,0:0:0:0:
354,253,103409,5,4,0:1:0:0:
328,227,103494,1,0,0:0:0:0:
296,211,103580,1,0,0:0:0:0:
261,207,103666,1,0,0:0:0:0:
226,216,103751,1,0,0:0:0:0:
197,238,103837,1,0,0:0:0:0:
162,247,103922,1,0,0:0:0:0:
127,243,104008,1,0,0:0:0:0:
95,227,104094,5,2,0:0:0:0:
96,236,104179,1,2,0:0:0:0:
97,246,104265,1,2,0:0:0:0:
99,255,104351,1,2,0:0:0:0:
100,265,104437,6,0,L|80:351,1,80,4|0,0:1|0:0,0:0:0:0:
81,342,104694,1,0,0:0:0:0:
81,342,104780,1,0,0:0:0:0:
36,212,104952,1,0,0:0:0:0:
177,320,105123,1,0,0:0:0:0:
198,109,105294,2,0,P|207:142|206:167,1,40,2|2,0:0|0:0,0:0:0:0:
176,223,105466,6,0,P|214:193|289:198,1,120,2|0,0:0|0:0,0:0:0:0:
304,213,105809,1,2,0:0:0:0:
371,159,105980,1,0,0:0:0:0:
371,159,106066,1,0,0:0:0:0:
371,159,106152,1,2,0:0:0:0:
445,197,106323,1,0,0:0:0:0:
384,326,106494,6,0,B|369:290|369:290|390:223,1,80,2|0,0:0|0:0,0:0:0:0:
381,250,106752,1,0,0:0:0:0:
381,250,106837,1,0,0:0:0:0:
286,300,107009,1,0,0:0:0:0:
445,197,107180,2,0,L|431:106,1,80,0|2,0:0|0:0,0:0:0:0:
359,76,107437,1,2,0:0:0:0:
359,76,107523,6,0,P|324:111|226:128,1,120,2|0,0:0|0:0,0:0:0:0:
233,119,107866,1,2,0:0:0:0:
122,245,108037,2,0,L|84:259,2,40,0|0|2,0:0|0:0|0:0,0:0:0:0:
162,71,108380,1,0,0:0:0:0:
177,184,108552,6,0,B|204:220|204:220|203:277,1,80,2|0,0:0|0:0,0:0:0:0:
171,328,108809,1,0,0:0:0:0:
171,328,108894,2,0,P|213:334|261:309,1,80,0|0,0:0|0:0,0:0:0:0:
166,108,109237,2,0,P|126:123|97:169,1,80,2|0,0:0|0:0,0:0:0:0:
122,245,109580,5,2,0:0:0:0:
283,192,109752,1,0,0:0:0:0:
283,192,109837,1,0,0:0:0:0:
283,192,109923,2,0,L|297:100,1,80,2|0,0:0|0:0,0:0:0:0:
354,239,110266,2,0,P|400:279|396:348,1,120,2|0,0:0|0:0,0:0:0:0:
382,354,110609,6,0,P|337:347|293:341,1,80,2|0,0:0|0:0,0:0:0:0:
238,287,110866,1,0,0:0:0:0:
238,287,110952,2,0,P|194:290|152:329,1,80,0|0,0:0|0:0,0:0:0:0:
24,335,111294,2,0,P|68:338|110:377,1,80,2|2,0:0|0:0,0:0:0:0:
224,365,111637,5,0,0:0:0:0:
95,264,111809,1,0,0:0:0:0:
95,264,111894,1,0,0:0:0:0:
95,264,111980,2,0,P|92:237|108:186,1,80,0|0,0:0|0:0,0:0:0:0:
55,124,112237,1,0,0:0:0:0:
55,124,112323,2,0,P|32:133|-9:143,1,40,2|2,0:0|0:0,0:0:0:0:
182,149,112494,2,0,P|201:163|238:183,1,40,2|2,0:0|0:0,0:0:0:0:
128,87,112666,6,0,B|136:52|136:52|105:-1,1,80,6|0,0:0|0:0,0:0:0:0:
113,13,112923,1,0,0:0:0:0:
113,13,113009,1,0,0:0:0:0:
107,187,113180,1,0,0:0:0:0:
222,53,113352,1,0,0:0:0:0:
333,195,113523,2,0,P|307:199|281:209,1,40,2|2,0:0|0:0,0:0:0:0:
203,280,113694,6,0,P|197:194|215:171,1,120,2|0,0:0|0:0,0:0:0:0:
230,148,114037,1,2,0:0:0:0:
153,117,114209,1,0,0:0:0:0:
153,117,114294,1,0,0:0:0:0:
153,117,114380,1,2,0:0:0:0:
107,187,114552,1,0,0:0:0:0:
203,280,114723,6,0,P|244:281|299:295,1,80,2|0,0:0|0:0,0:0:0:0:
282,289,114980,1,0,0:0:0:0:
282,289,115066,1,0,0:0:0:0:
140,342,115237,1,0,0:0:0:0:
30,214,115409,2,0,P|24:179|43:135,1,80,0|2,0:0|0:0,0:0:0:0:
121,107,115666,1,2,0:0:0:0:
121,107,115752,6,0,P|146:163|136:232,1,120,2|0,0:0|0:0,0:0:0:0:
126,242,116094,1,2,0:0:0:0:
223,130,116266,2,0,P|250:133|276:144,2,40,0|0|2,0:0|0:0|0:0,0:0:0:0:
48,59,116609,1,0,0:0:0:0:
229,212,116780,6,0,L|244:262,1,40,4|0,0:1|0:0,0:0:0:0:
182,57,116952,2,0,L|170:18,1,40,0|0,0:0|0:0,0:0:0:0:
211,204,117123,6,0,L|212:250,1,40,0|0,0:0|0:0,0:0:0:0:
205,58,117295,2,0,L|205:14,1,40,0|0,0:0|0:0,0:0:0:0:
192,196,117466,6,0,L|182:236,1,40,0|0,0:0|0:0,0:0:0:0:
220,68,117638,2,0,L|231:29,1,40,0|0,0:0|0:0,0:0:0:0:
178,181,117809,6,0,P|165:198|158:217,1,40,4|0,0:1|0:0,0:0:0:0:
195,105,117980,2,0,P|173:102|153:106,1,40,0|0,0:0|0:0,0:0:0:0:
267,81,118152,2,0,P|258:61|245:45,1,40,0|0,0:0|0:0,0:0:0:0:
324,136,118323,2,0,P|337:119|343:99,1,40,0|0,0:0|0:0,0:0:0:0:
307,213,118494,2,0,P|328:215|348:211,1,40,0|0,0:0|0:0,0:0:0:0:
234,238,118666,2,0,P|242:257|255:273,1,40,0|0,0:0|0:0,0:0:0:0:
178,181,118837,5,4,0:1:0:0:
164,160,118922,1,0,0:0:0:0:
159,135,119008,1,0,0:0:0:0:
163,111,119094,1,0,0:0:0:0:
176,89,119179,1,0,0:0:0:0:
195,74,119265,1,0,0:0:0:0:
219,67,119351,1,0,0:0:0:0:
244,69,119437,1,0,0:0:0:0:
266,80,119523,2,0,L|308:67,3,40,0|0|2|2,0:0|0:0|0:0|0:0,0:0:0:0:
381,119,119866,5,4,0:1:0:0:
375,125,119952,1,2,0:0:0:0:
371,132,120037,2,0,P|382:169|393:185,1,40,2|2,0:0|0:0,0:0:0:0:
335,236,120209,1,2,0:0:0:0:
340,242,120295,1,2,0:0:0:0:
344,249,120380,2,0,P|332:286|321:302,1,40,2|2,0:0|0:0,0:0:0:0:
399,345,120552,1,0,0:0:0:0:
415,320,120637,1,0,0:0:0:0:
441,305,120723,1,0,0:0:0:0:
470,301,120809,1,0,0:0:0:0:
499,310,120894,5,0,0:0:0:0:
258,249,121237,5,6,0:0:0:0:
