osu file format v14

[General]
AudioFilename: audio.mp3
AudioLeadIn: 0
PreviewTime: 87980
Countdown: 0
SampleSet: Soft
StackLeniency: 0.4
Mode: 0
LetterboxInBreaks: 0
WidescreenStoryboard: 1

[Editor]
Bookmarks: 1580,9809,18037,26266,34494,50952,67409,75637,83866,104437,120894
DistanceSpacing: 1.1
BeatDivisor: 4
GridSize: 32
TimelineZoom: 3.000005

[Metadata]
Title:Crystal Illusion
TitleUnicode:Crystal Illusion
Artist:P4koo
ArtistUnicode:P4koo
Creator:Beomsan
Version:Down's Hard
Source:
Tags:Osu fan cafe mapping contest #3 OMC#3 Down milr_ [White_Music] Cellina Mandu- Reana Beom Nasmoeb Rieri ProEzreal
BeatmapID:1675691
BeatmapSetID:797393

[Difficulty]
HPDrainRate:5
CircleSize:4.2
OverallDifficulty:6
ApproachRate:8
SliderMultiplier:1.5
SliderTickRate:1

[Events]
//Background and Video events
0,0,"omcbackground.png",0,0
//Break Periods
2,18237,23459
//Storyboard Layer 0 (Background)
//Storyboard Layer 1 (Fail)
//Storyboard Layer 2 (Pass)
//Storyboard Layer 3 (Foreground)
//Storyboard Sound Samples

[TimingPoints]
552,342.857142857143,3,2,1,40,1,0
1237,-100,3,2,1,40,0,0
7066,-100,3,2,1,45,0,0
7409,-100,3,2,1,50,0,0
7752,-100,3,2,1,40,0,0
8780,-100,3,2,1,50,0,0
8952,-100,3,2,1,40,0,0
9809,-100,3,2,4,80,0,0
9980,-100,3,2,2,80,0,0
11866,-100,3,2,1,80,0,0
12037,-100,3,2,2,80,0,0
12552,-100,3,2,1,80,0,0
13066,-100,3,2,2,80,0,0
14780,-100,3,2,1,80,0,0
14952,-100,3,2,4,80,0,0
15294,-100,3,2,2,80,0,0
18209,-100,3,2,5,60,0,0
22152,-100,3,2,5,45,0,0
22837,-100,3,2,5,47,0,0
23180,-100,3,2,5,50,0,0
23523,-100,3,2,5,52,0,0
23866,-100,3,2,5,56,0,0
24037,-100,3,2,5,57,0,0
24209,-100,3,2,5,59,0,0
24552,-100,3,2,5,63,0,0
24894,-100,3,2,1,69,0,0
25237,-100,3,2,1,74,0,0
25409,-100,3,2,2,65,0,0
26266,-100,3,2,4,70,0,0
26609,-100,3,2,2,70,0,0
34494,-100,3,2,4,70,0,0
35180,-100,3,2,1,70,0,0
35523,-100,3,2,4,70,0,0
36209,-100,3,2,1,70,0,0
36552,-100,3,2,4,70,0,0
37237,-100,3,2,1,70,0,0
37580,-100,3,2,4,70,0,0
38094,-100,3,2,1,70,0,0
38609,-100,3,2,4,70,0,0
39294,-100,3,2,1,70,0,0
39637,-100,3,2,4,70,0,0
40323,-100,3,2,1,70,0,0
40666,-100,3,2,4,70,0,0
41352,-100,3,2,1,70,0,0
42723,-100,3,2,4,70,0,0
43409,-100,3,2,1,70,0,0
43752,-100,3,2,4,70,0,0
44437,-100,3,2,1,70,0,0
44780,-100,3,2,4,70,0,0
45466,-100,3,2,1,70,0,0
45809,-100,3,2,4,70,0,0
46495,-100,3,2,1,70,0,0
46837,-100,3,2,4,70,0,0
47523,-100,3,2,1,70,0,0
47866,-100,3,2,4,70,0,0
48552,-100,3,2,1,70,0,0
48894,-100,3,2,4,70,0,0
49580,-100,3,2,1,70,0,0
50780,-100,3,2,1,60,0,0
50866,-100,3,2,1,50,0,0
50952,-100,3,2,1,47,0,0
54380,-100,3,2,1,5,0,0
54723,-100,3,2,1,47,0,0
67066,-100,3,2,1,56,0,0
67408,-100,3,2,4,75,0,0
67752,-100,3,2,1,47,0,0
68094,-100,3,2,5,47,0,0
68266,-100,3,2,1,47,0,0
70152,-100,3,2,5,47,0,0
70323,-100,3,2,1,47,0,0
72209,-100,3,2,5,47,0,0
72380,-100,3,2,1,47,0,0
73237,-100,3,2,5,47,0,0
73409,-100,3,2,1,47,0,0
75637,-100,3,2,1,70,0,0
75980,-100,3,2,5,55,0,0
76323,-100,3,2,1,55,0,0
76837,-100,3,2,5,55,0,0
77009,-100,3,2,1,55,0,0
77352,-100,3,2,5,55,0,0
77694,-100,3,2,1,55,0,0
78037,-100,3,2,5,58,0,0
78380,-100,3,2,1,57,0,0
78552,-100,3,2,1,65,0,0
78894,-100,3,2,5,65,0,0
78980,-100,3,2,1,68,0,0
79409,-100,3,2,5,72,0,0
79580,-100,3,2,1,72,0,0
79752,-100,3,2,2,80,0,0
79837,-100,3,2,5,69,0,0
80437,-100,3,2,1,69,0,0
80780,-100,3,2,2,69,0,0
80952,-100,3,2,5,69,0,0
81294,-100,3,2,1,74,0,0
81809,-100,3,2,2,80,0,0
81980,-100,3,2,1,62,0,0
82152,-100,3,2,1,64,0,0
82323,-100,3,2,1,66,0,0
82494,-100,3,2,1,68,0,0
82666,-100,3,2,1,70,0,0
82837,-100,3,2,1,72,0,0
83009,-100,3,2,1,74,0,0
83180,-100,3,2,1,76,0,0
83352,-100,3,2,1,78,0,0
83523,-100,3,2,1,80,0,0
83694,-100,3,2,1,40,0,0
83866,-100,3,2,1,73,0,0
85752,-100,3,2,1,25,0,0
86437,-100,3,2,1,33,0,0
86780,-100,3,2,1,42,0,0
86952,-100,3,2,1,57,0,0
87123,-100,3,2,1,45,0,0
87294,-100,3,2,1,66,0,0
87466,-100,3,2,1,70,0,0
87637,-100,3,2,1,74,0,0
87809,-100,3,2,1,76,0,0
87980,-100,3,2,4,80,0,0
88152,-100,3,2,6,80,0,0
91237,-100,3,2,2,80,0,0
92094,-100,3,2,6,80,0,0
95352,-100,3,2,6,55,0,0
95523,-100,3,2,6,68,0,0
95866,-100,3,2,6,78,0,0
96037,-100,3,2,6,84,0,0
96209,-100,3,2,4,80,0,0
98266,-100,3,2,6,80,0,0
99466,-100,3,2,2,80,0,0
100323,-100,3,2,4,80,0,0
100494,-100,3,2,6,80,0,0
101352,-100,3,2,4,80,0,0
101523,-100,3,2,6,80,0,0
102380,-100,3,2,4,80,0,0
102552,-100,3,2,6,80,0,0
103409,-100,3,2,4,80,0,0
104094,-100,3,2,1,80,0,0
104437,-100,3,2,4,80,0,0
104780,-100,3,2,1,80,0,0
116780,-100,3,2,4,80,0,0
116952,-100,3,2,2,80,0,0
117809,-100,3,2,4,80,0,0
117894,-100,3,2,2,80,0,0
118837,-100,3,2,4,80,0,0
118923,-100,3,2,2,80,0,0
119694,-100,3,2,1,80,0,0
119866,-100,3,2,4,80,0,0
119952,-100,3,2,1,80,0,0
120037,-100,3,2,1,77,0,0
120123,-100,3,2,1,73,0,0
120209,-100,3,2,1,69,0,0
120294,-100,3,2,1,65,0,0
120380,-100,3,2,1,61,0,0
120466,-100,3,2,1,57,0,0
120552,-100,3,2,1,54,0,0
120637,-100,3,2,1,51,0,0
120723,-100,3,2,1,47,0,0
120809,-100,3,2,1,43,0,0
120894,-100,3,2,1,40,0,0
121237,-100,3,2,99,70,0,0

[Colours]
Combo1 : 188,188,188
Combo2 : 186,117,255
Combo3 : 128,191,255
Combo4 : 128,128,255

[HitObjects]
375,161,1237,6,0,L|393:106,3,37.5,0|0|0|0,0:0|0:0|0:0|0:0,0:0:0:0:
419,99,1580,6,0,P|338:102|270:42,1,150,2|0,0:0|0:0,0:0:0:0:
156,169,2266,1,0,0:0:0:0:
217,223,2437,6,0,L|224:267,2,37.5,2|2|2,0:0|0:0|0:0,0:0:0:0:
203,58,2952,1,0,0:0:0:0:
74,161,3294,1,2,0:0:0:0:
203,58,3637,6,0,L|301:42,1,75,2|0,0:0|0:0,0:0:0:0:
343,94,3980,2,0,L|441:78,1,75,0|0,0:0|0:0,0:0:0:0:
436,162,4323,2,0,L|338:178,1,75,0|0,0:0|0:0,0:0:0:0:
282,150,4666,5,2,0:0:0:0:
282,150,5352,2,0,P|259:186|261:245,1,75,2|2,0:0|0:0,0:0:0:0:
203,281,5694,6,0,L|51:308,2,150,2|0|0,0:0|0:0|0:0,0:0:0:0:
268,332,6552,1,0,0:0:0:0:
284,251,6723,6,0,B|306:205|306:205|270:101,2,150,2|2|2,0:0|0:0|0:0,0:0:0:0:
124,295,7752,6,0,P|106:277|93:209,1,75,2|0,0:0|0:0,0:0:0:0:
8,223,8094,2,0,P|14:198|66:153,1,75,0|0,0:0|0:0,0:0:0:0:
129,161,8437,2,0,L|150:67,1,75,0|0,0:0|0:0,0:0:0:0:
226,104,8780,6,0,L|209:177,2,75,2|0|0,0:0|0:0|0:0,0:0:0:0:
296,59,9294,1,0,0:0:0:0:
364,105,9466,2,0,P|391:98|426:92,3,37.5,2|2|2|2,0:0|0:0|0:0|0:0,0:0:0:0:
435,118,9809,6,0,L|410:301,1,150,4|8,0:1|0:0,0:0:0:0:
347,315,10323,1,0,0:0:0:0:
277,271,10494,2,0,L|183:294,1,75,0|2,0:0|0:0,0:0:0:0:
62,262,10837,6,0,L|156:239,1,75,2|8,0:0|0:0,0:0:0:0:
195,188,11180,1,2,0:0:0:0:
130,135,11352,1,0,0:0:0:0:
208,109,11523,2,0,P|219:75|205:32,1,75,2|8,0:0|0:0,0:0:0:0:
274,158,11866,6,0,L|448:139,1,150,2|8,0:0|0:0,0:0:0:0:
491,188,12380,1,0,0:0:0:0:
415,221,12552,2,0,B|394:258|394:258|400:309,1,75,2|2,0:0|0:0,0:0:0:0:
315,284,12894,6,0,L|328:367,2,75,2|10|2,0:0|0:0|0:0,0:0:0:0:
247,235,13409,1,2,0:0:0:0:
274,158,13580,2,0,L|287:75,1,75,10|10,0:0|0:0,0:0:0:0:
247,235,13923,6,0,B|181:209|181:209|81:237,1,150,4|8,0:1|0:0,0:0:0:0:
39,281,14437,1,0,0:0:0:0:
26,199,14609,2,0,P|22:160|44:118,1,75,0|2,0:0|0:0,0:0:0:0:
95,23,14952,6,0,L|117:112,1,75,4|0,0:1|0:0,0:0:0:0:
244,81,15294,2,0,L|177:144,1,75,10|0,0:0|0:0,0:0:0:0:
261,234,15637,2,0,L|172:208,1,75,2|8,0:0|0:0,0:0:0:0:
113,178,15980,6,0,B|102:230|102:230|118:267|118:267|104:329,1,150,4|8,0:1|0:0,0:0:0:0:
29,283,16494,1,0,0:0:0:0:
105,322,16666,2,0,L|212:310,1,75,0|0,0:0|0:0,0:0:0:0:
243,366,17009,6,0,P|260:337|253:283,1,75,0|8,0:0|0:0,0:0:0:0:
337,268,17352,2,0,P|320:238|270:217,1,75,0|0,0:0|0:0,0:0:0:0:
299,138,17694,2,0,P|265:137|222:170,1,75,8|8,0:0|0:0,0:0:0:0:
194,233,18037,5,0,0:0:0:0:
256,192,24209,12,2,25237,0:0:0:0:
194,233,25409,6,0,L|176:322,2,75,2|2|2,0:0|0:0|0:0,0:0:0:0:
134,175,25923,1,10,0:0:0:0:
213,155,26094,1,10,0:0:0:0:
273,211,26266,6,0,P|334:244|429:221,1,150,4|10,0:1|0:0,0:0:0:0:
468,172,26780,1,0,0:0:0:0:
386,156,26952,2,0,P|378:125|405:66,1,75,2|2,0:0|0:0,0:0:0:0:
241,54,27294,6,0,L|331:37,1,75,2|0,0:0|0:0,0:0:0:0:
180,110,27637,2,0,L|90:93,1,75,10|0,0:0|0:0,0:0:0:0:
246,161,27980,2,0,B|266:197|266:197|252:258,1,75,2|8,0:0|0:0,0:0:0:0:
176,348,28323,6,0,B|149:304|149:304|183:188,1,150,2|8,0:0|0:0,0:0:0:0:
258,229,28837,1,0,0:0:0:0:
317,170,29009,2,0,L|407:160,1,75,0|2,0:0|0:0,0:0:0:0:
451,283,29352,6,0,P|464:248|462:211,1,75,2|8,0:0|0:0,0:0:0:0:
402,90,29694,2,0,P|388:124|390:161,1,75,2|0,0:0|0:0,0:0:0:0:
451,283,30037,2,0,L|351:267,1,75,2|10,0:0|0:0,0:0:0:0:
322,208,30380,6,0,L|152:236,1,150,2|8,0:0|0:0,0:0:0:0:
116,291,30894,1,0,0:0:0:0:
37,265,31066,2,0,P|20:238|24:181,1,75,2|0,0:0|0:0,0:0:0:0:
99,76,31409,6,0,L|87:150,1,75,2|8,0:0|0:0,0:0:0:0:
215,186,31752,2,0,L|144:211,1,75,2|0,0:0|0:0,0:0:0:0:
173,339,32094,2,0,L|115:290,1,75,2|8,0:0|0:0,0:0:0:0:
144,211,32437,6,0,P|178:168|289:160,1,150,4|0,0:1|0:0,0:0:0:0:
330,205,32952,1,0,0:0:0:0:
401,164,33123,2,0,L|379:82,1,75,0|0,0:0|0:0,0:0:0:0:
472,209,33466,6,0,P|490:203|521:180,3,37.5,0|0|0|0,0:0|0:0|0:0|0:0,0:0:0:0:
433,282,33809,2,0,P|447:294|482:309,3,37.5,0|0|0|0,0:0|0:0|0:0|0:0,0:0:0:0:
350,283,34152,2,0,P|346:301|350:339,3,37.5,0|0|0|0,0:0|0:0|0:0|0:0,0:0:0:0:
330,205,34494,6,0,P|305:162|336:85,1,112.5,4|0,0:1|0:0,0:0:0:0:
355,85,34837,2,0,L|456:94,1,75,8|0,0:0|0:0,0:0:0:0:
483,176,35180,2,0,L|382:167,1,75,2|2,0:0|0:0,0:0:0:0:
330,205,35523,6,0,L|208:222,1,112.5,0|0,0:0|0:0,0:0:0:0:
181,202,35866,2,0,B|175:166|175:166|200:107,1,75,8|0,0:0|0:0,0:0:0:0:
130,73,36209,2,0,B|158:49|158:49|221:41,1,75,2|10,0:0|0:0,0:0:0:0:
274,16,36552,6,0,P|291:79|254:141,1,112.5,2|0,0:0|0:0,0:0:0:0:
304,148,36894,2,0,L|395:136,1,75,8|0,0:0|0:0,0:0:0:0:
391,219,37237,2,0,L|300:231,1,75,2|2,0:0|0:0,0:0:0:0:
274,299,37580,6,0,B|226:278|226:278|154:293,1,112.5,0|0,0:0|0:0,0:0:0:0:
127,280,37923,2,0,P|119:252|134:202,1,75,2|0,0:0|0:0,0:0:0:0:
214,118,38266,2,0,P|222:146|207:196,1,75,2|10,0:0|0:0,0:0:0:0:
54,172,38609,6,0,P|31:143|55:53,1,112.5,2|0,0:0|0:0,0:0:0:0:
76,57,38952,2,0,L|173:63,1,75,8|0,0:0|0:0,0:0:0:0:
214,118,39294,2,0,L|288:113,1,75,2|2,0:0|0:0,0:0:0:0:
348,55,39637,6,0,B|377:88|377:88|364:177,1,112.5,2|0,0:0|0:0,0:0:0:0:
397,183,39980,2,0,P|437:166|491:165,1,75,8|0,0:0|0:0,0:0:0:0:
493,241,40323,2,0,P|453:258|399:259,1,75,2|10,0:0|0:0,0:0:0:0:
340,245,40666,6,0,L|322:334,2,75,2|0|10,0:0|0:0|0:0,0:0:0:0:
285,183,41180,1,0,0:0:0:0:
213,225,41352,1,2,0:0:0:0:
139,187,41523,6,0,L|79:203,2,37.5,2|2|2,0:0|0:0|0:0,0:0:0:0:
210,145,41866,1,2,0:0:0:0:
213,225,42037,2,0,L|197:325,1,75,2|2,0:0|0:0,0:0:0:0:
201,299,42294,1,2,0:0:0:0:
201,299,42380,1,2,0:0:0:0:
129,340,42552,1,2,0:0:0:0:
61,292,42723,6,0,L|41:148,1,112.5,4|0,0:1|0:0,0:0:0:0:
81,159,43066,2,0,P|92:128|81:76,1,75,8|0,0:0|0:0,0:0:0:0:
133,225,43409,2,0,P|165:219|204:183,1,75,2|2,0:0|0:0,0:0:0:0:
325,133,43752,6,0,P|264:111|192:125,1,112.5,0|0,0:0|0:0,0:0:0:0:
176,109,44094,2,0,L|188:15,1,75,8|0,0:0|0:0,0:0:0:0:
198,194,44437,2,0,L|186:288,1,75,2|10,0:0|0:0,0:0:0:0:
254,318,44780,6,0,B|298:286|298:286|375:303,1,112.5,0|0,0:0|0:0,0:0:0:0:
396,295,45123,2,0,P|408:260|387:209,1,75,8|0,0:0|0:0,0:0:0:0:
328,113,45466,2,0,P|316:148|337:199,1,75,2|2,0:0|0:0,0:0:0:0:
472,181,45809,6,0,L|485:44,1,112.5,0|0,0:0|0:0,0:0:0:0:
454,38,46152,2,0,P|411:43|356:47,1,75,2|0,0:0|0:0,0:0:0:0:
328,113,46494,2,0,P|285:108|230:104,1,75,2|10,0:0|0:0,0:0:0:0:
172,121,46837,6,0,B|171:81|171:81|196:42,2,75,4|0|8,0:1|0:0|0:0,0:0:0:0:
228,182,47352,1,0,0:0:0:0:
160,229,47523,2,0,L|145:313,1,75,2|2,0:0|0:0,0:0:0:0:
236,260,47866,6,0,L|223:334,2,75,2|0|8,0:0|0:0|0:0,0:0:0:0:
160,229,48380,1,0,0:0:0:0:
228,182,48552,2,0,P|269:166|322:166,1,75,2|10,0:0|0:0,0:0:0:0:
331,88,48894,6,0,L|308:7,1,75,6|0,0:0|0:0,0:0:0:0:
385,151,49237,2,0,L|466:171,1,75,8|0,0:0|0:0,0:0:0:0:
299,163,49580,2,0,L|240:223,1,75,2|10,0:0|0:0,0:0:0:0:
365,263,49923,6,0,L|353:215,3,37.5,2|2|2|2,0:0|0:0|0:0|0:0,0:0:0:0:
423,320,50266,2,0,L|470:333,3,37.5,2|2|2|2,0:0|0:0|0:0|0:0,0:0:0:0:
341,341,50609,2,0,L|305:375,3,37.5,0|0|2|2,0:0|0:0|0:0|0:0,0:0:0:0:
284,281,50952,5,2,0:0:0:0:
284,281,51809,6,0,L|270:327,2,37.5,2|2|2,0:0|0:0|0:0,0:0:0:0:
152,180,52323,1,2,0:0:0:0:
300,107,52666,1,2,0:0:0:0:
152,180,53009,6,0,L|58:171,1,75,2|0,0:0|0:0,0:0:0:0:
65,254,53352,2,0,L|159:263,1,75,0|0,0:0|0:0,0:0:0:0:
216,233,53694,2,0,L|290:225,1,75,2|0,0:0|0:0,0:0:0:0:
352,170,54037,5,2,0:0:0:0:
352,170,54723,2,0,P|358:133|339:87,1,75,2|2,0:0|0:0,0:0:0:0:
274,138,55066,6,0,L|113:125,2,150,2|2|2,0:0|0:0|0:0,0:0:0:0:
352,170,55923,1,0,0:0:0:0:
285,218,56094,6,0,B|257:265|257:265|281:364,2,150,2|2|2,0:0|0:0|0:0,0:0:0:0:
412,112,57123,6,0,L|403:19,1,75,2|0,0:0|0:0,0:0:0:0:
487,32,57466,2,0,L|494:106,1,75,0|0,0:0|0:0,0:0:0:0:
462,182,57809,2,0,P|437:218|437:274,1,75,2|2,0:0|0:0,0:0:0:0:
512,342,58152,6,0,L|413:324,1,75,2|0,0:0|0:0,0:0:0:0:
363,294,58494,2,0,L|264:312,1,75,0|0,0:0|0:0,0:0:0:0:
231,366,58837,1,2,0:0:0:0:
158,325,59009,1,2,0:0:0:0:
215,266,59180,5,2,0:0:0:0:
215,266,60037,6,0,L|191:215,2,37.5,2|2|2,0:0|0:0|0:0,0:0:0:0:
57,215,60552,1,2,0:0:0:0:
183,109,60894,1,2,0:0:0:0:
57,215,61237,6,0,P|139:195|223:185,1,150,2|0,0:0|0:0,0:0:0:0:
262,126,61752,1,0,0:0:0:0:
177,38,61923,2,0,P|171:86|199:124,1,75,2|2,0:0|0:0,0:0:0:0:
288,205,62266,6,0,P|296:241|282:275,1,75,2|2,0:0|0:0,0:0:0:0:
289,376,62609,2,0,P|253:364|230:336,1,75,2|2,0:0|0:0,0:0:0:0:
134,293,62952,2,0,P|161:268|197:262,1,75,2|2,0:0|0:0,0:0:0:0:
282,275,63294,6,0,P|353:285|434:241,2,150,2|2|2,0:0|0:0|0:0,0:0:0:0:
248,198,64152,1,0,0:0:0:0:
320,158,64323,6,0,B|345:65|345:65|311:9,2,150,2|2|2,0:0|0:0|0:0,0:0:0:0:
172,232,65352,6,0,L|75:209,1,75,2|0,0:0|0:0,0:0:0:0:
76,294,65694,2,0,L|172:316,1,75,0|0,0:0|0:0,0:0:0:0:
229,291,66037,2,0,P|267:274|329:277,1,75,2|2,0:0|0:0,0:0:0:0:
368,325,66380,6,0,B|387:277|387:277|357:161,1,150,2|2,0:0|0:0,0:0:0:0:
290,140,66894,1,2,0:0:0:0:
364,103,67066,2,0,L|384:48,3,37.5,2|2|2|2,0:0|0:0|0:0|0:0,0:0:0:0:
355,32,67409,6,0,P|273:62|191:52,1,150,4|0,0:1|0:0,0:0:0:0:
211,58,68266,6,0,L|196:115,2,37.5,0|0|2,0:0|0:0|0:0,0:0:0:0:
221,222,68780,1,0,0:0:0:0:
295,185,68952,2,0,B|307:223|307:223|289:272,2,75,2|2|2,0:0|0:0|0:0,0:0:0:0:
159,162,69466,6,0,B|131:211|131:211|151:307,1,150,2|0,0:0|0:0,0:0:0:0:
150,302,70323,6,0,L|100:336,2,37.5,2|2|2,0:0|0:0|0:0,0:0:0:0:
311,334,70837,1,2,0:0:0:0:
260,176,71180,1,2,0:0:0:0:
423,152,71523,6,0,L|387:317,1,150,2|0,0:0|0:0,0:0:0:0:
391,298,72380,6,0,L|418:348,2,37.5,2|2|2,0:0|0:0|0:0,0:0:0:0:
232,250,72894,1,2,0:0:0:0:
345,130,73237,1,2,0:0:0:0:
206,40,73580,6,0,P|175:101|201:195,2,150,2|2|2,0:0|0:0|0:0,0:0:0:0:
345,130,74609,6,0,P|364:188|321:277,1,150,0|0,0:0|0:0,0:0:0:0:
260,223,75123,1,2,0:0:0:0:
189,178,75294,2,0,L|106:210,1,75,2|2,0:0|0:0,0:0:0:0:
59,264,75637,6,0,B|34:216|34:216|65:93,2,150,4|8|0,0:1|0:0|0:0,0:0:0:0:
124,314,76494,6,0,L|111:370,2,37.5,0|0|0,0:0|0:0|0:0,0:0:0:0:
267,231,77009,1,2,0:0:0:0:
329,284,77180,2,0,L|318:366,2,75,2|8|8,0:0|0:0|0:0,0:0:0:0:
200,277,77694,6,0,P|183:223|243:152,2,150,2|8|0,0:0|0:0|0:0,0:0:0:0:
237,352,78552,6,0,L|184:376,2,37.5,2|2|2,0:0|0:0|0:0,0:0:0:0:
319,358,78894,1,8,0:0:0:0:
383,306,79066,2,0,P|392:262|371:220,1,75,2|2,0:0|0:0,0:0:0:0:
347,212,79323,1,2,0:0:0:0:
347,212,79409,2,0,L|325:148,3,37.5,8|0|2|2,0:0|0:0|0:0|0:0,0:0:0:0:
350,138,79752,6,0,P|346:71|427:8,1,150,4|8,0:1|0:0,0:0:0:0:
475,47,80266,1,0,0:0:0:0:
481,129,80437,2,0,P|456:163|407:176,1,75,0|2,0:0|0:0,0:0:0:0:
350,138,80780,6,0,L|183:120,1,150,4|0,0:1|0:0,0:0:0:0:
139,177,81294,1,2,0:0:0:0:
72,127,81466,2,0,B|52:161|52:161|55:199,1,75,2|2,0:0|0:0,0:0:0:0:
191,268,81809,6,0,L|101:253,1,75,4|2,0:1|0:0,0:0:0:0:
0,339,82152,2,0,L|90:324,1,75,2|2,0:0|0:0,0:0:0:0:
191,268,82494,2,0,P|191:235|159:188,1,75,2|2,0:0|0:0,0:0:0:0:
216,129,82837,6,0,L|230:95,3,37.5,2|2|2|2,0:0|0:0|0:0|0:0,0:0:0:0:
133,124,83180,2,0,L|109:94,3,37.5,2|2|2|2,0:0|0:0|0:0|0:0,0:0:0:0:
89,193,83523,2,0,L|51:198,3,37.5,2|2|2|2,0:0|0:0|0:0|0:0,0:0:0:0:
171,198,83866,5,4,0:1:0:0:
256,192,83952,12,0,87637,0:0:0:0:
171,198,87980,6,0,P|188:233|158:307,1,112.5,4|0,1:1|1:0,0:0:0:0:
126,311,88323,1,0,0:0:0:0:
57,265,88494,1,0,1:0:0:0:
88,188,88666,2,0,L|64:110,1,75,0|0,1:0|1:0,0:0:0:0:
119,11,89009,6,0,L|157:125,1,112.5,0|0,1:0|1:0,0:0:0:0:
195,123,89352,1,0,0:0:0:0:
253,64,89523,1,0,1:0:0:0:
323,106,89694,2,0,L|306:198,1,75,0|0,1:0|1:0,0:0:0:0:
184,282,90037,6,0,L|317:255,1,112.5,0|0,1:0|1:0,0:0:0:0:
330,279,90380,1,0,0:0:0:0:
385,217,90552,1,0,1:0:0:0:
459,257,90723,2,0,B|472:221|472:221|463:182,1,75,0|0,1:0|1:0,0:0:0:0:
432,22,91066,6,0,P|402:65|421:134,1,112.5,0|0,1:0|0:0,0:0:0:0:
372,136,91409,2,0,L|277:126,1,75,0|0,0:0|0:0,0:0:0:0:
238,186,91752,2,0,L|176:208,3,37.5,0|0|0|0,0:0|0:0|0:0|0:0,0:0:0:0:
162,188,92094,6,0,B|139:237|139:237|158:292,1,112.5,0|0,1:0|1:0,0:0:0:0:
193,313,92437,1,0,0:0:0:0:
260,264,92609,1,0,1:0:0:0:
327,311,92780,2,0,L|422:291,1,75,0|0,1:0|1:0,0:0:0:0:
509,192,93123,6,0,L|384:216,1,112.5,0|0,1:0|1:0,0:0:0:0:
358,203,93466,1,0,0:0:0:0:
369,122,93637,1,0,1:0:0:0:
291,152,93809,2,0,P|266:129|253:84,1,75,0|0,1:0|1:0,0:0:0:0:
138,54,94152,6,0,P|166:108|144:176,1,112.5,0|0,1:0|0:0,0:0:0:0:
125,183,94494,1,0,0:0:0:0:
165,255,94666,1,0,1:0:0:0:
234,211,94837,2,0,B|251:251|251:251|239:293,1,75,0|2,1:0|0:0,0:0:0:0:
179,335,95180,6,0,L|96:325,1,75,2|0,0:0|0:0,0:0:0:0:
0,259,95523,2,0,L|83:249,1,75,0|2,0:0|0:0,0:0:0:0:
125,183,95866,2,0,L|103:151,3,37.5,2|2|2|2,0:0|0:0|0:0|0:0,0:0:0:0:
131,121,96209,6,0,P|178:115|223:71,1,112.5,4|0,1:1|1:0,0:0:0:0:
240,33,96552,1,0,0:0:0:0:
312,72,96723,1,0,1:0:0:0:
388,41,96894,2,0,P|395:82|378:121,1,75,0|0,1:0|1:0,0:0:0:0:
291,257,97237,6,0,B|269:207|269:207|297:136,1,112.5,0|0,1:0|1:0,0:0:0:0:
326,172,97580,1,0,0:0:0:0:
384,112,97752,1,0,1:0:0:0:
455,153,97923,2,0,P|479:196|474:249,1,75,0|0,1:0|1:0,0:0:0:0:
291,257,98266,6,0,L|158:237,1,112.5,0|0,1:0|1:0,0:0:0:0:
148,212,98609,1,0,0:0:0:0:
76,251,98780,1,0,1:0:0:0:
13,196,98952,2,0,P|12:155|38:106,1,75,0|0,1:0|1:0,0:0:0:0:
101,10,99294,6,0,P|127:49|107:110,1,112.5,0|0,1:0|0:0,0:0:0:0:
143,130,99637,2,0,L|250:115,1,75,0|0,0:0|0:0,0:0:0:0:
283,169,99980,2,0,L|311:218,3,37.5,0|0|0|0,0:0|0:0|0:0|0:0,0:0:0:0:
342,211,100323,5,4,0:1:0:0:
356,288,100494,1,0,0:0:0:0:
435,302,100666,1,0,0:0:0:0:
468,229,100837,1,0,0:0:0:0:
414,167,101009,2,0,P|408:118|375:90,1,75,0|0,1:0|0:2,0:0:0:0:
315,69,101352,5,4,0:1:0:0:
251,121,101523,1,0,0:0:0:0:
169,134,101694,1,0,0:0:0:0:
91,104,101866,1,0,1:0:0:0:
38,39,102037,2,0,L|49:2,2,37.5,0|0|0,1:0|0:0|1:0,0:0:0:0:
48,174,102380,6,0,P|55:222|90:260,1,75,4|0,0:1|0:0,0:0:0:0:
76,359,102723,2,0,P|114:328|129:279,1,75,0|0,0:0|1:0,0:0:0:0:
225,245,103066,2,0,P|179:227|129:238,1,75,0|0,1:0|1:0,0:0:0:0:
283,305,103409,5,4,0:1:0:0:
355,265,103580,1,0,0:0:0:0:
355,265,103752,2,0,L|377:180,1,75,0|0,0:0|0:0,0:0:0:0:
347,160,104009,1,0,0:0:0:0:
347,160,104094,2,0,L|336:108,3,37.5,2|2|2|2,0:0|0:0|0:0|0:0,0:0:0:0:
371,97,104437,6,0,P|430:96|502:30,2,150,4|0|0,0:1|0:0|0:0,0:0:0:0:
300,53,105294,1,2,0:0:0:0:
300,53,105380,1,2,0:0:0:0:
300,53,105466,6,0,P|252:58|206:66,1,75,2|0,0:0|0:0,0:0:0:0:
97,119,105809,2,0,P|134:122|171:128,1,75,2|0,0:0|0:0,0:0:0:0:
246,245,106152,2,0,B|257:210|257:210|241:157,1,75,2|0,0:0|0:0,0:0:0:0:
100,262,106494,6,0,B|77:200|77:200|96:119,2,150,2|0|0,0:0|0:0|0:0,0:0:0:0:
177,291,107352,1,2,0:0:0:0:
177,291,107437,1,2,0:0:0:0:
177,291,107523,6,0,L|157:375,1,75,2|0,0:0|0:0,0:0:0:0:
246,245,107866,2,0,L|308:304,1,75,2|0,0:0|0:0,0:0:0:0:
208,170,108209,2,0,L|290:145,1,75,2|0,0:0|0:0,0:0:0:0:
120,179,108552,6,0,L|161:20,2,150,2|0|2,0:0|0:0|0:0,0:0:0:0:
45,214,109409,1,0,0:0:0:0:
45,214,109494,1,0,0:0:0:0:
45,214,109580,6,0,P|65:255|63:304,1,75,2|0,0:0|0:0,0:0:0:0:
200,204,109923,2,0,P|174:241|131:264,1,75,2|0,0:0|0:0,0:0:0:0:
291,328,110266,2,0,P|245:324|204:298,1,75,2|0,0:0|0:0,0:0:0:0:
276,246,110609,6,0,P|319:195|398:201,1,150,2|0,0:0|0:0,0:0:0:0:
467,243,111123,1,0,0:0:0:0:
497,166,111294,2,0,P|496:127|485:87,1,75,2|2,0:0|0:0,0:0:0:0:
344,96,111637,6,0,P|373:73|427:50,2,75,0|0|0,0:0|0:0|0:0,0:0:0:0:
292,161,112152,1,0,0:0:0:0:
218,123,112323,2,0,P|209:108|197:77,3,37.5,2|2|2|2,0:0|0:0|0:0|0:0,0:0:0:0:
171,60,112666,6,0,P|196:161|152:213,2,150,6|0|0,0:0|0:0|0:0,0:0:0:0:
88,56,113523,1,2,0:0:0:0:
88,56,113609,1,2,0:0:0:0:
88,56,113694,6,0,P|66:98|71:148,1,75,2|0,0:0|0:0,0:0:0:0:
14,190,114037,2,0,P|39:230|85:250,1,75,2|0,0:0|0:0,0:0:0:0:
104,315,114380,2,0,L|196:289,1,75,2|0,0:0|0:0,0:0:0:0:
347,225,114723,6,0,B|278:192|278:192|195:223,2,150,2|0|0,0:0|0:0|0:0,0:0:0:0:
312,300,115580,1,2,0:0:0:0:
312,300,115666,1,2,0:0:0:0:
312,300,115752,6,0,L|335:383,1,75,2|0,0:0|0:0,0:0:0:0:
347,225,116094,2,0,L|326:152,1,75,2|0,0:0|0:0,0:0:0:0:
382,23,116437,2,0,P|397:61|379:105,1,75,2|0,0:0|0:0,0:0:0:0:
258,101,116780,6,0,P|243:63|261:19,2,75,4|0|0,0:1|0:0|0:0,0:0:0:0:
326,152,117294,1,0,0:0:0:0:
269,212,117466,2,0,L|167:205,1,75,0|0,0:0|0:0,0:0:0:0:
128,156,117809,6,0,B|109:193|109:193|115:242,2,75,4|0|0,0:1|0:0|0:0,0:0:0:0:
194,206,118323,1,0,0:0:0:0:
175,286,118494,2,0,P|194:326|194:362,1,75,0|0,0:0|0:0,0:0:0:0:
113,226,118837,6,0,L|25:212,1,75,0|0,0:0|0:0,0:0:0:0:
194,206,119180,2,0,L|250:136,1,75,0|0,0:0|0:0,0:0:0:0:
175,286,119523,2,0,L|206:369,1,75,0|2,0:0|0:0,0:0:0:0:
133,147,119866,6,0,L|118:112,3,37.5,4|2|2|2,0:1|0:0|0:0|0:0,0:0:0:0:
16,55,120209,2,0,L|53:59,3,37.5,2|2|2|2,0:0|0:0|0:0|0:0,0:0:0:0:
159,4,120552,2,0,L|136:33,3,37.5,0|0|0|0,0:0|0:0|0:0|0:0,0:0:0:0:
40,140,120894,5,0,0:0:0:0:
259,264,121237,5,6,0:0:0:0:
