osu file format v14

[General]
AudioFilename: audio.mp3
AudioLeadIn: 0
PreviewTime: 87980
Countdown: 0
SampleSet: Soft
StackLeniency: 0.2
Mode: 0
LetterboxInBreaks: 0
WidescreenStoryboard: 0

[Editor]
Bookmarks: 33294,34494,50952,67409,87980,121237
DistanceSpacing: 0.9
BeatDivisor: 4
GridSize: 16
TimelineZoom: 2.900005

[Metadata]
Title:Crystal Illusion
TitleUnicode:Crystal Illusion
Artist:P4koo
ArtistUnicode:P4koo
Creator:Beomsan
Version:Cellina's Extreme
Source:
Tags:Osu fan cafe mapping contest #3 OMC#3 Down milr_ [White_Music] Cellina Mandu- Reana Beom Nasmoeb Rieri ProEzreal
BeatmapID:1674897
BeatmapSetID:797393

[Difficulty]
HPDrainRate:5
CircleSize:4.5
OverallDifficulty:8
ApproachRate:9.4
SliderMultiplier:1.7
SliderTickRate:1

[Events]
//Background and Video events
0,0,"omcbackground.png",0,0
//Break Periods
//Storyboard Layer 0 (Background)
//Storyboard Layer 1 (Fail)
//Storyboard Layer 2 (Pass)
//Storyboard Layer 3 (Foreground)
//Storyboard Sound Samples

[TimingPoints]
552,342.857142857143,3,2,0,30,1,0
1237,-133.333333333333,3,2,31,30,0,0
1323,-133.333333333333,3,2,32,30,0,0
1409,-133.333333333333,3,2,33,30,0,0
1494,-133.333333333333,3,2,34,30,0,0
1580,-133.333333333333,3,2,35,30,0,0
2437,-133.333333333333,3,2,37,30,0,0
2523,-133.333333333333,3,2,38,30,0,0
2609,-133.333333333333,3,2,34,30,0,0
2952,-133.333333333333,3,2,33,30,0,0
3294,-133.333333333333,3,2,32,30,0,0
3637,-133.333333333333,3,2,31,30,0,0
5523,-133.333333333333,3,2,32,30,0,0
5694,-133.333333333333,3,2,33,30,0,0
6037,-133.333333333333,3,2,32,30,0,0
6380,-133.333333333333,3,2,31,30,0,0
6723,-133.333333333333,3,2,40,30,0,0
7066,-133.333333333333,3,2,32,30,0,0
7409,-133.333333333333,3,2,32,30,0,0
7752,-133.333333333333,3,2,31,30,0,0
8437,-133.333333333333,3,2,33,30,0,0
8609,-133.333333333333,3,2,34,30,0,0
8780,-133.333333333333,3,2,38,30,0,0
8952,-133.333333333333,3,2,34,30,0,0
9123,-133.333333333333,3,2,33,30,0,0
9294,-133.333333333333,3,2,32,30,0,0
9466,-133.333333333333,3,2,31,30,0,0
9552,-133.333333333333,3,2,32,30,0,0
9637,-133.333333333333,3,2,33,30,0,0
9723,-133.333333333333,3,2,34,30,0,0
9809,-100,3,2,35,50,0,0
9894,-100,3,2,79,50,0,0
18037,-100,3,2,79,50,0,0
33294,-100,3,2,48,50,0,0
33380,-100,3,2,39,50,0,0
33466,-100,3,2,37,50,0,0
33552,-100,3,2,35,50,0,0
33637,-100,3,2,34,50,0,0
33723,-100,3,2,33,50,0,0
33809,-100,3,2,32,50,0,0
33894,-100,3,2,31,50,0,0
33980,-100,3,2,41,50,0,0
34066,-100,3,2,42,50,0,0
34152,-100,3,2,43,50,0,0
34237,-100,3,2,44,50,0,0
34323,-100,3,2,45,50,0,0
34409,-100,3,2,46,50,0,0
34494,-100,3,2,47,50,0,0
34580,-100,3,2,79,50,0,0
34837,-100,3,2,44,50,0,0
34923,-100,3,2,43,50,0,0
35009,-100,3,2,41,50,0,0
35094,-100,3,2,40,50,0,0
35180,-100,3,2,32,50,0,0
35866,-100,3,2,44,50,0,0
35952,-100,3,2,43,50,0,0
36037,-100,3,2,41,50,0,0
36123,-100,3,2,40,50,0,0
36209,-100,3,2,32,50,0,0
36380,-100,3,2,79,50,0,0
36894,-100,3,2,44,50,0,0
36980,-100,3,2,43,50,0,0
37066,-100,3,2,41,50,0,0
37152,-100,3,2,40,50,0,0
37237,-100,3,2,32,50,0,0
37923,-100,3,2,44,50,0,0
38009,-100,3,2,43,50,0,0
38094,-100,3,2,41,50,0,0
38180,-100,3,2,40,50,0,0
38266,-100,3,2,32,50,0,0
38437,-100,3,2,37,50,0,0
38523,-100,3,2,38,50,0,0
38609,-100,3,2,39,50,0,0
38694,-100,3,2,79,50,0,0
38952,-100,3,2,44,50,0,0
39037,-100,3,2,43,50,0,0
39123,-100,3,2,41,50,0,0
39209,-100,3,2,40,50,0,0
39294,-100,3,2,32,50,0,0
39980,-100,3,2,44,50,0,0
40066,-100,3,2,43,50,0,0
40152,-100,3,2,41,50,0,0
40237,-100,3,2,40,50,0,0
40323,-100,3,2,32,50,0,0
40494,-100,3,2,79,50,0,0
41009,-100,3,2,44,50,0,0
41094,-100,3,2,43,50,0,0
41180,-100,3,2,41,50,0,0
41266,-100,3,2,40,50,0,0
41352,-100,3,2,32,50,0,0
41523,-100,3,2,99,50,0,0
43066,-100,3,2,44,50,0,0
43152,-100,3,2,43,50,0,0
43237,-100,3,2,41,50,0,0
43323,-100,3,2,40,50,0,0
43409,-100,3,2,32,50,0,0
44094,-100,3,2,44,50,0,0
44180,-100,3,2,43,50,0,0
44266,-100,3,2,41,50,0,0
44352,-100,3,2,40,50,0,0
44437,-100,3,2,32,50,0,0
44609,-100,3,2,79,50,0,0
45123,-100,3,2,44,50,0,0
45209,-100,3,2,43,50,0,0
45294,-100,3,2,41,50,0,0
45380,-100,3,2,40,50,0,0
45466,-100,3,2,32,50,0,0
46152,-100,3,2,44,50,0,0
46237,-100,3,2,43,50,0,0
46323,-100,3,2,41,50,0,0
46409,-100,3,2,40,50,0,0
46494,-100,3,2,32,50,0,0
46666,-100,3,2,37,50,0,0
46752,-100,3,2,38,50,0,0
46837,-100,3,2,39,50,0,0
46923,-100,3,2,79,50,0,0
47180,-100,3,2,44,50,0,0
47266,-100,3,2,43,50,0,0
47352,-100,3,2,41,50,0,0
47437,-100,3,2,40,50,0,0
47523,-100,3,2,32,50,0,0
48037,-100,3,2,79,50,0,0
48209,-100,3,2,44,50,0,0
48294,-100,3,2,43,50,0,0
48380,-100,3,2,41,50,0,0
48552,-100,3,2,32,50,0,0
48723,-100,3,2,79,50,0,0
49237,-100,3,2,44,50,0,0
49323,-100,3,2,43,50,0,0
49409,-100,3,2,41,50,0,0
49494,-100,3,2,40,50,0,0
49580,-100,3,2,32,50,0,0
49752,-100,3,2,48,50,0,0
49837,-100,3,2,39,50,0,0
49923,-100,3,2,37,50,0,0
50009,-100,3,2,35,50,0,0
50094,-100,3,2,34,50,0,0
50180,-100,3,2,33,50,0,0
50266,-100,3,2,32,50,0,0
50352,-100,3,2,31,50,0,0
50437,-100,3,2,41,50,0,0
50523,-100,3,2,42,50,0,0
50609,-100,3,2,43,50,0,0
50694,-100,3,2,44,50,0,0
50780,-100,3,2,45,50,0,0
50866,-100,3,2,46,50,0,0
50952,-133.333333333333,3,2,47,40,0,0
51809,-133.333333333333,3,2,37,40,0,0
51894,-133.333333333333,3,2,38,40,0,0
51980,-133.333333333333,3,2,34,40,0,0
52323,-133.333333333333,3,2,33,40,0,0
52666,-133.333333333333,3,2,32,40,0,0
53009,-133.333333333333,3,2,31,40,0,0
53352,-133.333333333333,3,2,51,40,0,0
53523,-133.333333333333,3,2,45,40,0,0
53694,-133.333333333333,3,2,43,40,0,0
53866,-133.333333333333,3,2,42,40,0,0
54037,-133.333333333333,3,2,31,40,0,0
54894,-133.333333333333,3,2,32,40,0,0
55066,-133.333333333333,3,2,33,40,0,0
55409,-133.333333333333,3,2,32,40,0,0
55752,-133.333333333333,3,2,31,40,0,0
56094,-133.333333333333,3,2,40,40,0,0
56437,-133.333333333333,3,2,31,40,0,0
56780,-133.333333333333,3,2,32,40,0,0
57123,-133.333333333333,3,2,31,40,0,0
57980,-133.333333333333,3,2,34,40,0,0
58152,-133.333333333333,3,2,38,40,0,0
58323,-133.333333333333,3,2,34,40,0,0
58494,-133.333333333333,3,2,33,40,0,0
58580,-133.333333333333,3,2,32,40,0,0
58837,-133.333333333333,3,2,31,40,0,0
59009,-133.333333333333,3,2,32,40,0,0
59180,-133.333333333333,3,2,35,40,0,0
60037,-133.333333333333,3,2,37,40,0,0
60123,-133.333333333333,3,2,38,40,0,0
60209,-133.333333333333,3,2,34,40,0,0
60552,-133.333333333333,3,2,35,40,0,0
60894,-133.333333333333,3,2,37,40,0,0
61237,-133.333333333333,3,2,38,40,0,0
62094,-133.333333333333,3,2,39,40,0,0
62266,-133.333333333333,3,2,48,40,0,0
62437,-133.333333333333,3,2,39,40,0,0
62609,-133.333333333333,3,2,37,40,0,0
62780,-133.333333333333,3,2,35,40,0,0
62952,-133.333333333333,3,2,34,40,0,0
63123,-133.333333333333,3,2,35,40,0,0
63637,-133.333333333333,3,2,34,40,0,0
63980,-133.333333333333,3,2,33,40,0,0
64323,-133.333333333333,3,2,34,40,0,0
64666,-133.333333333333,3,2,33,40,0,0
65009,-133.333333333333,3,2,32,40,0,0
65352,-133.333333333333,3,2,31,40,0,0
67409,-111.111111111111,3,2,79,50,0,0
86266,-111.111111111111,3,2,79,20,0,0
86523,-100,3,2,79,30,0,0
86780,-100,3,2,79,40,0,0
87294,-100,3,2,79,50,0,0
87980,-71.4285714285714,3,2,78,70,0,1
88066,-71.4285714285714,3,2,79,70,0,1
90723,-83.3333333333333,3,2,79,70,0,1
90894,-76.9230769230769,3,2,79,70,0,1
91066,-71.4285714285714,3,2,78,70,0,1
91152,-71.4285714285714,3,2,79,70,0,1
96209,-71.4285714285714,3,2,78,70,0,1
96294,-71.4285714285714,3,2,79,70,0,1
99294,-71.4285714285714,3,2,78,70,0,1
100323,-71.4285714285714,3,2,79,70,0,1
104437,-100,3,2,78,70,0,0
104523,-100,3,2,79,70,0,0

[Colours]
Combo1 : 236,244,239
Combo2 : 61,39,163
Combo3 : 69,183,203
Combo4 : 66,200,142
Combo5 : 179,77,109

[HitObjects]
137,246,1237,5,2,0:0:0:0:
136,249,1323,1,2,0:0:0:0:
135,252,1409,1,2,0:0:0:0:
134,255,1494,1,2,0:0:0:0:
133,258,1580,1,2,0:0:0:0:
133,258,2437,5,2,0:0:0:0:
135,259,2523,1,2,0:0:0:0:
137,260,2609,2,0,B|226:247|174:288|269:275,1,127.500004863739,2|2,0:0|0:0,0:0:0:0:
339,218,3294,1,2,0:0:0:0:
435,237,3637,6,0,B|466:280|437:325|437:325|390:308,1,127.500004863739,2|0,0:0|0:0,0:0:0:0:
339,218,4152,1,0,0:0:0:0:
345,221,4323,2,0,L|339:152,1,63.7500024318696
380,77,4666,1,0,0:0:0:0:
380,77,5352,5,2,0:0:0:0:
310,85,5523,1,2,0:0:0:0:
240,93,5694,2,0,P|237:57|231:23,1,63.7500024318696,2|0,0:0|0:0,0:0:0:0:
165,60,6037,2,0,P|111:102|45:88,1,127.500004863739,2|2,0:0|0:0,0:0:0:0:
64,23,6552,1,0,0:0:0:0:
23,158,6723,2,0,P|32:228|37:290,1,127.500004863739,2|2,0:0|0:0,0:0:0:0:
36,284,7409,1,2,0:0:0:0:
105,273,7580,1,0,0:0:0:0:
174,263,7752,6,0,B|256:250|219:290|311:271,1,127.500004863739,2|0,0:0|0:0,0:0:0:0:
363,245,8266,1,0,0:0:0:0:
356,314,8437,1,2,0:0:0:0:
298,273,8609,1,2,0:0:0:0:
301,203,8780,5,2,0:0:0:0:
426,293,8952,1,2,0:0:0:0:
298,273,9123,5,2,0:0:0:0:
363,245,9294,1,2,0:0:0:0:
427,217,9466,1,2,0:0:0:0:
429,214,9552,1,2,0:0:0:0:
431,211,9637,1,2,0:0:0:0:
433,208,9723,1,2,0:0:0:0:
435,203,9809,6,0,P|428:152|426:100,1,85,6|0,0:0|0:0,0:0:0:0:
342,0,10152,2,0,P|348:42|350:84,1,85
301,153,10409,1,0,0:0:0:0:
301,153,10494,2,0,P|245:147|176:141,1,85,0|0,0:0|0:0,0:0:0:0:
152,116,10752,1,2,0:0:0:0:
98,161,10837,6,0,P|82:209|106:251,1,85,2|0,0:0|0:0,0:0:0:0:
214,78,11180,2,0,P|226:38|210:0,1,85,2|0,0:0|0:0,0:0:0:0:
165,198,11523,1,2,0:0:0:0:
165,198,11694,2,0,L|219:212,1,42.5
303,235,11866,5,2,0:0:0:0:
141,306,12037,1,0,0:0:0:0:
237,360,12209,2,0,B|259:335|259:335|241:273,1,85
157,123,12552,2,0,B|142:172|142:172|164:197,1,85,0|2,0:0|0:0,0:0:0:0:
262,175,12809,1,0,0:0:0:0:
272,172,12894,5,2,0:0:0:0:
127,51,13066,1,2,0:0:0:0:
87,238,13238,1,0,0:0:0:0:
157,123,13409,1,2,0:0:0:0:
96,164,13580,5,0,0:0:0:0:
164,197,13752,1,2,0:0:0:0:
232,230,13923,6,0,B|124:212|179:274|56:252,1,170,4|0,0:0|0:0,0:0:0:0:
174,384,14437,1,0,0:0:0:0:
178,383,14523,1,0,0:0:0:0:
182,382,14609,2,0,P|209:345|203:308,1,85
37,332,14866,1,2,0:0:0:0:
40,339,14952,6,0,P|96:333|140:333,1,85,6|0,0:0|0:0,0:0:0:0:
316,236,15294,2,0,P|273:230|231:229,1,85,2|0,0:0|0:0,0:0:0:0:
85,79,15637,2,0,P|92:132|97:174,1,85,2|0,0:0|0:0,0:0:0:0:
69,254,15980,5,4,0:0:0:0:
200,155,16152,1,2,0:0:0:0:
363,170,16323,1,2,0:0:0:0:
481,283,16494,1,2,0:0:0:0:
406,304,16666,1,0,0:0:0:0:
401,296,16752,1,2,0:0:0:0:
399,287,16837,1,2,0:0:0:0:
399,278,16923,1,2,0:0:0:0:
401,269,17009,5,2,0:0:0:0:
473,363,17180,1,0,0:0:0:0:
443,365,17266,1,0,0:0:0:0:
413,367,17352,1,0,0:0:0:0:
342,334,17523,1,0,0:0:0:0:
303,329,17609,1,0,0:0:0:0:
265,324,17694,1,0,0:0:0:0:
226,319,17780,1,0,0:0:0:0:
187,314,17866,1,0,0:0:0:0:
148,309,17952,1,0,0:0:0:0:
110,304,18037,5,0,0:0:0:0:
135,195,18209,2,0,P|141:217|138:249,1,42.5
110,304,18380,5,8,0:0:0:0:
191,380,18552,2,0,P|168:374|142:355,1,42.5
110,304,18723,5,0,0:0:0:0:
3,336,18895,2,0,P|19:319|48:306,1,42.5
110,304,19066,5,0,0:0:0:0:
216,208,19237,2,0,P|243:213|274:217,1,42.5
321,245,19409,5,8,0:0:0:0:
249,119,19580,1,0,0:0:0:0:
379,52,19752,1,0,0:0:0:0:
378,64,19837,1,2,0:0:0:0:
377,76,19923,1,10,0:0:0:0:
376,88,20009,1,2,0:0:0:0:
376,154,20094,6,0,P|405:151|444:151,3,42.5
318,221,20437,1,8,0:0:0:0:
319,229,20523,1,0,0:0:0:0:
320,237,20609,1,0,0:0:0:0:
321,245,20694,1,0,0:0:0:0:
389,284,20780,6,0,P|397:261|384:231,1,42.5,2|0,0:0|0:0,0:0:0:0:
242,212,20952,2,0,P|234:235|247:265,1,42.5,2|0,0:0|0:0,0:0:0:0:
285,318,21123,6,0,P|290:345|291:377,3,42.5,0|0|8|0,0:0|0:0|0:0|0:0,0:0:0:0:
207,319,21466,1,0,0:0:0:0:
199,320,21552,1,0,0:0:0:0:
191,321,21638,1,0,0:0:0:0:
183,322,21723,1,0,0:0:0:0:
117,345,21809,6,0,L|120:290,1,42.5
74,241,21980,2,0,L|77:186,1,42.5,10|2,0:0|0:0,0:0:0:0:
56,119,22152,5,0,0:0:0:0:
64,120,22237,1,0,0:0:0:0:
72,121,22323,1,0,0:0:0:0:
80,122,22409,1,0,0:0:0:0:
88,123,22494,1,10,0:0:0:0:
96,124,22580,1,2,0:0:0:0:
104,125,22666,1,2,0:0:0:0:
112,126,22752,1,2,0:0:0:0:
165,166,22837,6,0,B|149:137|149:137|175:63,1,85
226,29,23094,1,0,0:0:0:0:
238,22,23180,2,0,L|354:31,1,85
449,95,23523,1,8,0:0:0:0:
453,95,23609,1,0,0:0:0:0:
457,95,23694,1,0,0:0:0:0:
461,95,23780,1,0,0:0:0:0:
465,95,23866,5,0,0:0:0:0:
433,81,23952,1,0,0:0:0:0:
399,82,24037,1,8,0:0:0:0:
370,100,24123,1,0,0:0:0:0:
349,127,24209,5,0,0:0:0:0:
345,210,24380,2,0,P|372:211|400:195,1,42.5
349,127,24552,5,8,0:0:0:0:
279,82,24723,2,0,P|264:104|264:137,1,42.5
349,127,24894,5,0,0:0:0:0:
422,88,25066,2,0,P|409:64|378:46,1,42.5
349,127,25237,5,0,0:0:0:0:
274,226,25409,2,0,L|217:220,1,42.5,8|0,0:0|0:0,0:0:0:0:
160,149,25580,6,0,P|154:130|163:82,1,42.5
151,276,25752,2,0,P|142:295|140:316,1,42.5
79,65,25923,6,0,P|73:85|74:106,1,42.5,8|0,0:0|0:0,0:0:0:0:
57,352,26094,2,0,P|53:331|56:310,1,42.5
54,211,26266,6,0,B|164:199|102:257|254:240,1,170,6|8,0:0|0:0,0:0:0:0:
368,204,26780,1,0,0:0:0:0:
372,203,26866,1,0,0:0:0:0:
376,202,26952,2,0,P|332:207|290:208,1,85
292,284,27209,1,2,0:0:0:0:
292,284,27294,6,0,P|271:329|286:374,1,85,2|0,0:0|0:0,0:0:0:0:
445,229,27637,2,0,P|451:187|431:151,1,85,8|0,0:0|0:0,0:0:0:0:
260,114,27980,2,0,B|340:131|303:86|394:104,1,127.5,2|0,0:0|0:0,0:0:0:0:
445,68,28323,6,0,P|431:112|432:162,1,85,2|0,0:0|0:0,0:0:0:0:
291,208,28666,1,8,0:0:0:0:
448,237,28837,1,0,0:0:0:0:
449,233,28923,1,0,0:0:0:0:
449,228,29009,1,0,0:0:0:0:
291,208,29180,5,2,0:0:0:0:
267,271,29266,1,2,0:0:0:0:
321,311,29352,2,0,P|251:301|182:296,1,127.5,2|0,0:0|0:0,0:0:0:0:
194,296,29694,1,2,0:0:0:0:
73,249,29866,1,0,0:0:0:0:
64,268,29952,1,0,0:0:0:0:
65,289,30037,1,2,0:0:0:0:
169,180,30209,2,0,P|165:153|162:114,1,42.5,8|0,0:0|0:0,0:0:0:0:
172,68,30380,6,0,P|117:64|54:55,1,85,2|0,0:0|0:0,0:0:0:0:
288,129,30723,2,0,P|343:125|408:120,1,85,8|0,0:0|0:0,0:0:0:0:
372,122,30980,2,0,L|371:178,1,42.5,0|2,0:0|0:0,0:0:0:0:
446,210,31237,1,0,0:0:0:0:
377,333,31409,6,0,B|357:304|357:304|376:236,1,85,2|0,0:0|0:0,0:0:0:0:
456,115,31752,2,0,L|369:122,1,85,10|0,0:0|0:0,0:0:0:0:
357,123,32009,1,0,0:0:0:0:
357,123,32094,1,2,0:0:0:0:
247,219,32266,2,0,L|319:213,1,42.5
370,256,32437,5,4,0:0:0:0:
303,338,32609,1,0,0:0:0:0:
291,330,32694,1,2,0:0:0:0:
290,315,32780,1,2,0:0:0:0:
446,194,32952,1,0,0:0:0:0:
455,204,33037,1,2,0:0:0:0:
459,217,33123,1,2,0:0:0:0:
370,256,33294,1,2,0:0:0:0:
370,243,33380,1,2,0:0:0:0:
370,230,33466,5,2,0:0:0:0:
329,254,33552,1,2,0:0:0:0:
282,254,33637,1,2,0:0:0:0:
240,231,33723,1,2,0:0:0:0:
220,188,33809,1,2,0:0:0:0:
178,167,33894,1,2,0:0:0:0:
131,172,33980,1,2,0:0:0:0:
97,204,34066,1,2,0:0:0:0:
93,250,34152,1,2,0:0:0:0:
117,289,34237,1,2,0:0:0:0:
162,302,34323,1,2,0:0:0:0:
196,333,34409,1,2,0:0:0:0:
204,378,34494,5,6,0:0:0:0:
160,235,34666,1,0,0:0:0:0:
309,311,34837,1,2,0:0:0:0:
316,306,34923,1,2,0:0:0:0:
324,304,35009,1,2,0:0:0:0:
332,302,35094,1,2,0:0:0:0:
340,302,35180,2,0,P|345:257|360:203,1,85,2|0,0:0|0:0,0:0:0:0:
387,127,35523,5,0,0:0:0:0:
240,231,35694,1,0,0:0:0:0:
264,40,35866,1,10,0:0:0:0:
269,46,35952,1,2,0:0:0:0:
273,53,36037,1,2,0:0:0:0:
276,60,36123,1,2,0:0:0:0:
278,67,36209,1,2,0:0:0:0:
450,196,36380,1,10,0:0:0:0:
299,147,36552,5,0,0:0:0:0:
385,17,36723,1,0,0:0:0:0:
211,120,36894,1,10,0:0:0:0:
207,127,36980,1,2,0:0:0:0:
204,135,37066,1,2,0:0:0:0:
202,143,37152,1,2,0:0:0:0:
201,151,37237,2,0,P|205:200|212:248,1,85,2|0,0:0|0:0,0:0:0:0:
309,245,37580,5,0,0:0:0:0:
147,313,37752,1,8,0:0:0:0:
299,384,37923,1,2,0:0:0:0:
300,375,38009,1,2,0:0:0:0:
299,366,38094,1,2,0:0:0:0:
297,357,38180,1,2,0:0:0:0:
295,348,38266,1,2,0:0:0:0:
90,226,38437,2,0,P|115:230|153:235,1,42.5,10|2,0:0|0:0,0:0:0:0:
309,245,38609,5,2,0:0:0:0:
216,373,38780,1,0,0:0:0:0:
404,300,38952,1,10,0:0:0:0:
410,294,39037,1,2,0:0:0:0:
415,287,39123,1,2,0:0:0:0:
419,279,39209,1,2,0:0:0:0:
422,271,39294,2,0,P|424:226|420:171,1,85,2|0,0:0|0:0,0:0:0:0:
461,97,39637,5,0,0:0:0:0:
303,130,39809,1,0,0:0:0:0:
145,163,39980,1,10,0:0:0:0:
140,170,40066,1,2,0:0:0:0:
137,178,40152,1,2,0:0:0:0:
135,186,40237,1,2,0:0:0:0:
134,194,40323,1,2,0:0:0:0:
239,54,40494,1,10,0:0:0:0:
78,111,40666,5,0,0:0:0:0:
215,198,40837,1,0,0:0:0:0:
69,295,41009,1,10,0:0:0:0:
60,294,41094,1,2,0:0:0:0:
51,293,41180,1,2,0:0:0:0:
42,292,41266,1,2,0:0:0:0:
33,292,41352,1,2,0:0:0:0:
147,147,41523,1,0,0:0:0:0:
146,155,41609,1,2,0:0:0:0:
145,163,41694,5,2,0:0:0:0:
94,40,41866,1,10,0:0:0:0:
265,132,42037,1,0,0:0:0:0:
148,244,42209,1,2,0:0:0:0:
156,272,42294,1,2,0:0:0:0:
162,301,42380,1,10,0:0:0:0:
167,330,42466,1,2,0:0:0:0:
169,360,42552,1,10,0:0:0:0:
216,183,42723,6,0,P|307:168|391:160,1,170,4|10,0:0|0:0,0:0:0:0:
459,135,43152,1,2,0:0:0:0:
489,163,43237,1,2,0:0:0:0:
493,205,43323,1,2,0:0:0:0:
466,238,43409,2,0,L|420:232,1,42.5,2|0,0:0|0:0,0:0:0:0:
396,86,43580,1,0,0:0:0:0:
349,284,43752,6,0,P|318:251|327:202,1,85
396,86,44094,1,10,0:0:0:0:
404,87,44180,1,2,0:0:0:0:
412,88,44266,1,2,0:0:0:0:
420,89,44352,1,2,0:0:0:0:
428,91,44437,2,0,L|479:98,1,42.5,2|0,0:0|0:0,0:0:0:0:
508,232,44609,2,0,L|457:239,1,42.5,10|0,0:0|0:0,0:0:0:0:
297,349,44780,6,0,P|339:356|386:367,1,85
292,239,45123,1,10,0:0:0:0:
320,213,45209,1,2,0:0:0:0:
327,175,45295,1,2,0:0:0:0:
317,138,45380,1,2,0:0:0:0:
293,107,45466,2,0,P|248:115|196:120,1,85,2|0,0:0|0:0,0:0:0:0:
125,125,45809,5,0,0:0:0:0:
176,202,45980,1,8,0:0:0:0:
152,232,46066,1,0,0:0:0:0:
113,236,46152,1,2,0:0:0:0:
77,223,46237,1,2,0:0:0:0:
40,235,46323,1,2,0:0:0:0:
21,268,46409,1,2,0:0:0:0:
29,304,46494,1,2,0:0:0:0:
62,322,46580,1,2,0:0:0:0:
100,317,46666,1,10,0:0:0:0:
135,330,46752,1,2,0:0:0:0:
147,365,46837,6,0,P|132:267|129:181,1,170,6|10,0:0|0:0,0:0:0:0:
61,141,47266,1,2,0:0:0:0:
52,143,47352,1,2,0:0:0:0:
44,145,47437,1,2,0:0:0:0:
35,147,47523,2,0,P|17:101|28:54,1,85,2|0,0:0|0:0,0:0:0:0:
89,27,47780,2,0,L|142:32,1,42.5,0|4,0:0|0:0,0:0:0:0:
210,158,48037,5,2,0:0:0:0:
252,153,48123,1,2,0:0:0:0:
294,149,48209,1,10,0:0:0:0:
335,145,48294,1,2,0:0:0:0:
377,141,48380,1,2,0:0:0:0:
481,97,48552,2,0,L|419:95,1,42.5,2|0,0:0|0:0,0:0:0:0:
204,169,48723,2,0,L|142:171,1,42.5,10|0,0:0|0:0,0:0:0:0:
72,217,48894,6,0,P|48:171|65:135,1,85,4|0,0:0|0:0,0:0:0:0:
150,236,49237,1,8,0:0:0:0:
152,248,49323,1,2,0:0:0:0:
154,260,49409,1,2,0:0:0:0:
156,272,49494,1,2,0:0:0:0:
141,307,49580,1,6,0:0:0:0:
176,291,49666,1,2,0:0:0:0:
213,300,49752,1,2,0:0:0:0:
242,323,49837,1,2,0:0:0:0:
266,352,49923,5,6,0:0:0:0:
303,358,50009,1,2,0:0:0:0:
340,349,50094,1,2,0:0:0:0:
367,322,50180,1,2,0:0:0:0:
367,283,50266,1,2,0:0:0:0:
349,248,50352,1,2,0:0:0:0:
341,210,50437,1,2,0:0:0:0:
352,173,50523,1,2,0:0:0:0:
383,151,50609,1,6,0:0:0:0:
420,153,50694,1,2,0:0:0:0:
451,174,50780,1,2,0:0:0:0:
457,211,50866,1,2,0:0:0:0:
433,241,50952,6,0,P|370:232|299:225,1,127.500004863739,4|0,0:0|0:0,0:0:0:0:
246,183,51466,1,0,0:0:0:0:
199,238,51637,1,0,0:0:0:0:
229,304,51809,1,2,0:0:0:0:
232,309,51894,1,2,0:0:0:0:
235,314,51980,6,0,P|245:352|248:376,1,63.7500024318696,2|0,0:0|0:0,0:0:0:0:
199,238,52323,2,0,P|158:271|56:280,1,127.500004863739,2|2,0:0|0:0,0:0:0:0:
246,183,52837,1,0,0:0:0:0:
306,225,53009,6,0,P|369:231|433:241,1,127.500004863739,2|2,0:0|0:0,0:0:0:0:
486,191,53523,1,2,0:0:0:0:
440,134,53694,1,2,0:0:0:0:
489,80,53866,1,2,0:0:0:0:
440,26,54037,5,2,0:0:0:0:
440,26,54723,1,2,0:0:0:0:
369,42,54894,1,2,0:0:0:0:
297,58,55066,6,0,B|216:66|256:44|160:56,1,127.500004863739,2|2,0:0|0:0,0:0:0:0:
99,38,55580,1,0,0:0:0:0:
46,88,55752,2,0,P|36:128|51:152,1,63.7500024318696,2|0,0:0|0:0,0:0:0:0:
32,217,56094,6,0,P|111:206|184:198,1,127.500004863739,2|2,0:0|0:0,0:0:0:0:
224,169,56609,1,0,0:0:0:0:
280,214,56780,2,0,P|333:223|361:226,1,63.7500024318696,2|0,0:0|0:0,0:0:0:0:
279,295,57123,6,0,P|226:286|198:283,1,63.7500024318696,2|0,0:0|0:0,0:0:0:0:
348,362,57466,2,0,P|357:309|360:281,1,63.7500024318696
353,161,57809,2,0,P|344:214|341:242,1,63.7500024318696,2|2,0:0|0:0,0:0:0:0:
420,250,58152,5,2,0:0:0:0:
478,207,58323,1,2,0:0:0:0:
469,135,58494,1,2,0:0:0:0:
408,93,58666,1,2,0:0:0:0:
386,23,58837,2,0,P|424:17|467:8,1,63.7500024318696,2|2,0:0|0:0,0:0:0:0:
330,75,59180,6,0,P|264:57|190:48,1,127.500004863739,2|0,0:0|0:0,0:0:0:0:
138,21,59694,1,0,0:0:0:0:
73,54,59866,2,0,L|82:130,1,63.7500024318696,0|2,0:0|0:0,0:0:0:0:
82,123,60123,1,2,0:0:0:0:
83,129,60209,5,2,0:0:0:0:
142,170,60380,1,0,0:0:0:0:
95,225,60552,2,0,P|57:217|24:213,1,63.7500024318696,2|0,0:0|0:0,0:0:0:0:
148,274,60894,2,0,P|179:269|210:262,1,63.7500024318696,2|0,0:0|0:0,0:0:0:0:
275,296,61237,6,0,P|329:258|389:265,1,127.500004863739,2|0,0:0|0:0,0:0:0:0:
445,219,61752,1,0,0:0:0:0:
508,254,61923,5,2,0:0:0:0:
379,188,62094,1,2,0:0:0:0:
387,264,62266,5,2,0:0:0:0:
501,169,62437,1,2,0:0:0:0:
363,116,62609,1,2,0:0:0:0:
249,210,62780,1,2,0:0:0:0:
303,161,62952,5,2,0:0:0:0:
235,135,63123,1,2,0:0:0:0:
179,181,63294,2,0,P|122:218|53:221,1,127.500004863739,2|2,0:0|0:0,0:0:0:0:
235,135,63980,2,0,P|231:102|232:58,1,63.7500024318696,2|0,0:0|0:0,0:0:0:0:
288,22,64323,6,0,B|211:52|246:9|135:40,1,127.500004863739,2|2,0:0|0:0,0:0:0:0:
63,222,65009,1,2,0:0:0:0:
123,182,65180,1,0,0:0:0:0:
187,215,65352,6,0,P|253:189|311:192,1,127.500004863739,2|0,0:0|0:0,0:0:0:0:
373,157,65866,1,0,0:0:0:0:
432,197,66037,1,0,0:0:0:0:
497,110,66209,1,0,0:0:0:0:
373,157,66380,5,0,0:0:0:0:
426,280,66552,1,0,0:0:0:0:
409,86,66723,1,0,0:0:0:0:
247,191,66895,1,0,0:0:0:0:
373,157,67066,5,0,0:0:0:0:
379,159,67152,1,0,0:0:0:0:
384,161,67237,1,0,0:0:0:0:
390,163,67323,1,0,0:0:0:0:
397,165,67409,2,0,P|311:173|228:200,1,152.999995330811,8|0,0:0|0:0,0:0:0:0:
119,308,68266,2,0,L|109:252,2,38.2499988327027
119,308,68952,5,0,0:0:0:0:
21,198,69123,1,8,0:0:0:0:
165,169,69294,1,0,0:0:0:0:
48,331,69466,6,0,P|138:338|211:348,1,152.999995330811
405,225,70323,1,0,0:0:0:0:
407,218,70409,1,0,0:0:0:0:
409,211,70494,2,0,P|371:206|329:229,1,76.4999976654053
358,363,70837,2,0,P|396:368|438:345,1,76.4999976654053,8|0,0:0|0:0,0:0:0:0:
284,299,71180,1,0,0:0:0:0:
284,299,71523,6,0,P|256:216|255:142,1,152.999995330811
411,95,72381,1,0,0:0:0:0:
403,97,72466,1,0,0:0:0:0:
395,99,72552,2,0,P|337:93|295:92,1,76.4999976654053
177,157,72894,2,0,P|214:152|253:150,1,76.4999976654053
333,176,73237,5,8,0:0:0:0:
245,68,73409,1,0,0:0:0:0:
333,176,73580,6,0,P|396:207|497:198,1,152.999995330811
197,321,74609,1,0,0:0:0:0:
170,250,75124,5,0,0:0:0:0:
271,339,75295,1,0,0:0:0:0:
143,381,75466,1,0,0:0:0:0:
197,321,75637,6,0,P|276:313|364:303,1,152.999995330811,0|8,0:0|0:0,0:0:0:0:
440,332,76152,1,0,0:0:0:0:
349,222,76323,1,0,0:0:0:0:
512,229,76494,5,0,0:0:0:0:
511,232,76580,1,0,0:0:0:0:
510,235,76666,2,0,P|462:260|431:256,1,76.4999976654053,0|8,0:0|0:0,0:0:0:0:
349,222,77009,1,0,0:0:0:0:
452,184,77180,5,0,0:0:0:0:
269,112,77352,1,0,0:0:0:0:
444,38,77523,1,8,0:0:0:0:
336,148,77694,6,0,P|251:141|178:139,1,152.999995330811,0|8,0:0|0:0,0:0:0:0:
74,253,78209,2,0,P|45:225|48:175,1,76.4999976654053
95,114,78552,2,0,L|87:71,2,38.2499988327027
162,223,78894,5,8,0:0:0:0:
189,249,78980,1,0,0:0:0:0:
191,287,79066,1,0,0:0:0:0:
173,321,79152,1,0,0:0:0:0:
185,356,79237,1,0,0:0:0:0:
219,372,79323,1,0,0:0:0:0:
256,364,79409,1,8,0:0:0:0:
277,332,79494,1,0,0:0:0:0:
277,293,79580,1,0,0:0:0:0:
300,262,79666,1,0,0:0:0:0:
337,251,79752,6,0,B|429:236|387:285|493:267,1,152.999995330811,4|8,0:0|0:0,0:0:0:0:
308,181,80265,1,0,0:0:0:0:
277,293,80437,1,0,0:0:0:0:
187,146,80609,1,0,0:0:0:0:
183,148,80694,1,0,0:0:0:0:
179,150,80780,6,0,P|161:108|174:66,1,76.4999976654053,4|8,0:0|0:0,0:0:0:0:
224,240,81123,1,0,0:0:0:0:
187,228,81209,1,0,0:0:0:0:
149,235,81294,1,0,0:0:0:0:
117,257,81380,1,0,0:0:0:0:
79,266,81466,1,0,0:0:0:0:
42,255,81552,1,0,0:0:0:0:
23,221,81637,1,8,0:0:0:0:
28,183,81723,1,0,0:0:0:0:
60,162,81809,5,4,0:0:0:0:
81,342,81980,1,0,0:0:0:0:
231,241,82152,1,8,0:0:0:0:
21,97,82323,1,0,0:0:0:0:
79,266,82494,1,0,0:0:0:0:
228,163,82666,1,0,0:0:0:0:
228,163,82752,1,0,0:0:0:0:
228,163,82837,5,0,0:0:0:0:
272,173,82923,1,0,0:0:0:0:
317,165,83009,1,8,0:0:0:0:
350,134,83094,1,0,0:0:0:0:
395,130,83180,1,0,0:0:0:0:
435,151,83266,1,0,0:0:0:0:
454,192,83352,1,0,0:0:0:0:
439,235,83437,1,0,0:0:0:0:
395,249,83523,1,8,0:0:0:0:
359,278,83609,1,0,0:0:0:0:
349,322,83694,1,8,0:0:0:0:
367,364,83780,1,0,0:0:0:0:
409,380,83866,5,4,0:0:0:0:
409,380,86266,2,0,L|318:375,1,76.4999976654053,2|0,0:1|0:0,0:0:0:0:
177,337,86523,6,0,B|218:318|218:318|275:329,1,85
331,302,86780,2,0,L|323:259,1,42.5
264,158,86952,2,0,L|256:199,1,42.5,2|0,0:1|0:0,0:0:0:0:
173,263,87123,2,0,L|165:220,1,42.5,2|0,0:1|0:0,0:0:0:0:
148,143,87294,5,0,0:0:0:0:
10,360,87466,1,0,0:0:0:0:
24,352,87552,1,0,0:0:0:0:
52,357,87637,1,0,0:0:0:0:
67,349,87723,1,0,0:0:0:0:
95,355,87809,1,0,0:0:0:0:
110,347,87895,1,0,0:0:0:0:
177,337,87980,6,0,B|207:307|207:307|186:217,1,118.999996368408,14|0,0:1|0:0,0:0:0:0:
44,255,88237,1,2,0:1:0:0:
37,271,88323,2,0,L|100:264,1,59.4999981842042,8|0,0:0|0:0,0:0:0:0:
209,160,88494,2,0,L|146:167,1,59.4999981842042,2|0,0:1|0:0,0:0:0:0:
61,114,88666,1,2,0:1:0:0:
264,217,88837,1,0,0:0:0:0:
264,217,88923,1,0,0:0:0:0:
264,217,89009,6,0,B|317:188|317:188|394:204,1,118.999996368408,6|0,0:1|0:0,0:0:0:0:
360,320,89266,1,2,0:1:0:0:
346,333,89352,2,0,L|334:273,1,59.4999981842042,8|0,0:0|0:0,0:0:0:0:
443,154,89523,2,0,B|456:181|456:181|454:211,1,59.4999981842042,2|0,0:1|0:0,0:0:0:0:
270,124,89694,6,0,L|272:55,1,59.4999981842042,2|0,0:1|0:0,0:0:0:0:
264,217,89866,1,10,0:1:0:0:
87,335,90037,6,0,B|133:330|133:330|161:341|161:341|203:337,1,118.999996368408,6|0,0:1|0:0,0:0:0:0:
28,262,90294,1,2,0:1:0:0:
33,268,90380,2,0,P|38:231|38:196,1,59.4999981842042,8|0,0:0|0:0,0:0:0:0:
144,107,90552,2,0,P|145:136|149:166,1,59.4999981842042,2|0,0:1|0:0,0:0:0:0:
260,243,90723,6,0,P|265:206|266:174,1,50.9999984436036
376,125,90894,2,0,P|379:150|381:182,1,55.2499974708558,2|0,0:1|0:0,0:0:0:0:
495,284,91066,6,0,B|475:228|475:228|525:152,1,118.999996368408,6|8,0:1|0:0,0:0:0:0:
491,60,91323,1,2,0:1:0:0:
491,60,91409,2,0,P|459:67|426:68,1,59.4999981842042
265,192,91580,5,0,0:0:0:0:
216,201,91665,1,2,0:0:0:0:
176,172,91751,1,10,0:0:0:0:
171,123,91837,1,2,0:0:0:0:
205,87,91922,1,2,0:0:0:0:
255,87,92008,1,2,0:0:0:0:
287,125,92094,6,0,B|268:55|268:55|306:13,1,118.999996368408,6|0,0:1|0:0,0:0:0:0:
381,179,92352,1,2,0:1:0:0:
381,179,92437,2,0,L|376:255,1,59.4999981842042,8|0,0:0|0:0,0:0:0:0:
304,330,92609,6,0,P|302:302|293:254,1,59.4999981842042,2|0,0:1|0:0,0:1:0:0:
466,210,92780,2,0,P|468:180|473:151,1,59.4999981842042,2|0,0:1|0:0,0:0:0:0:
373,353,92952,1,0,0:0:0:0:
373,353,93037,1,0,0:0:0:0:
373,353,93123,6,0,B|303:346|328:380|248:369,1,118.999996368408,6|0,0:1|0:0,0:0:0:0:
173,227,93380,2,0,P|180:255|182:285,1,59.4999981842042,2|8,0:1|0:0,0:0:0:0:
10,372,93552,1,0,0:0:0:0:
24,384,93637,2,0,P|31:355|33:325,1,59.4999981842042,2|0,0:1|0:0,0:0:0:0:
21,180,93809,6,0,L|101:167,1,59.4999981842042,10|0,0:1|0:0,0:0:0:0:
140,124,93980,1,2,0:1:0:0:
24,63,94152,5,6,0:1:0:0:
237,163,94323,1,0,0:0:0:0:
237,163,94409,1,2,0:1:0:0:
237,163,94494,2,0,B|237:113|246:76|246:76|237:92|217:99,1,118.999996368408,8|2,0:0|0:1,0:0:0:0:
158,244,94752,1,0,0:0:0:0:
170,227,94837,2,0,P|180:258|184:295,1,59.4999981842042,2|0,0:1|0:0,0:0:0:0:
330,132,95009,2,0,P|320:163|316:200,1,59.4999981842042,2|2,0:0|0:0,0:0:0:0:
290,344,95180,5,6,0:1:0:0:
237,163,95352,1,10,0:0:0:0:
423,189,95523,1,2,0:0:0:0:
300,205,95694,5,0,0:0:0:0:
304,201,95780,1,2,0:0:0:0:
308,197,95866,1,10,0:0:0:0:
312,193,95952,1,2,0:0:0:0:
316,189,96037,2,0,P|312:225|311:259,1,59.4999981842042,2|0,0:0|0:0,0:0:0:0:
158,353,96209,6,0,P|143:292|192:289,1,118.999996368408,6|0,0:1|0:0,0:0:0:0:
290,344,96466,1,2,0:1:0:0:
290,344,96552,2,0,P|323:336|367:336,1,59.4999981842042,8|0,0:0|0:0,0:0:0:0:
455,271,96723,2,0,P|422:263|378:263,1,59.4999981842042,2|0,0:1|0:0,0:0:0:0:
243,246,96894,5,2,0:1:0:0:
412,79,97066,1,2,0:0:0:0:
412,79,97152,1,2,0:0:0:0:
412,79,97237,2,0,B|439:122|439:122|422:191,1,118.999996368408,6|0,0:1|0:0,0:0:0:0:
300,114,97494,1,2,0:1:0:0:
306,103,97580,2,0,P|306:76|296:33,1,59.4999981842042,8|0,0:0|0:1,0:0:0:0:
368,1,97752,1,2,0:0:0:0:
142,165,97923,6,0,L|241:178,1,59.4999981842042,8|0,0:0|0:0,0:0:0:0:
332,189,98094,1,0,0:0:0:0:
246,263,98266,6,0,P|182:272|103:289,1,118.999996368408,6|0,0:1|0:0,0:0:0:0:
17,322,98523,1,2,0:1:0:0:
30,310,98609,2,0,B|22:344|22:344|38:377,1,59.4999981842042,8|0,0:0|0:0,0:0:0:0:
74,194,98780,1,2,0:0:0:0:
61,206,98866,2,0,B|69:172|69:172|53:139,1,59.4999981842042,2|2,0:0|0:1,0:0:0:0:
128,282,99123,6,0,P|159:275|204:271,1,59.4999981842042
359,261,99294,1,14,0:1:0:0:
250,384,99466,5,2,0:0:0:0:
250,384,99552,1,2,0:0:0:0:
250,384,99637,2,0,P|247:352|232:308,1,59.4999981842042,2|0,0:0|0:0,0:0:0:0:
332,189,99809,2,0,P|335:157|350:113,1,59.4999981842042,2|0,0:0|0:0,0:0:0:0:
106,87,99980,5,0,0:0:0:0:
70,109,100066,1,2,0:0:0:0:
58,149,100152,1,10,0:0:0:0:
71,188,100237,1,2,0:0:0:0:
106,209,100323,6,0,P|165:196|234:193,1,118.999996368408,6|0,0:1|0:0,0:0:0:0:
332,72,100580,1,2,0:1:0:0:
332,72,100666,2,0,P|339:108|343:144,1,59.4999981842042,8|0,0:0|0:0,0:0:0:0:
421,291,100837,2,0,P|424:261|430:232,1,59.4999981842042,2|0,0:1|0:0,0:0:0:0:
503,64,101009,2,0,P|510:100|514:136,1,59.4999981842042,2|0,0:1|0:0,0:0:0:0:
327,318,101180,5,2,0:0:0:0:
259,328,101266,1,2,0:0:0:0:
191,338,101352,2,0,B|155:303|155:303|174:217,1,118.999996368408,6|0,0:1|0:0,0:0:0:0:
338,108,101609,1,2,0:1:0:0:
338,108,101694,2,0,L|352:189,1,59.4999981842042,8|0,0:0|0:0,0:0:0:0:
327,318,101866,5,2,0:1:0:0:
360,326,101951,1,0,0:0:0:0:
391,310,102037,1,0,0:0:0:0:
404,278,102123,1,2,0:0:0:0:
392,245,102209,1,10,0:0:0:0:
362,228,102294,1,2,0:0:0:0:
328,236,102380,5,6,0:1:0:0:
235,121,102552,1,2,0:0:0:0:
235,121,102637,1,2,0:0:0:0:
235,121,102723,2,0,L|226:188,1,59.4999981842042,6|0,0:1|0:0,0:0:0:0:
190,337,102894,1,2,0:0:0:0:
190,337,102979,1,2,0:0:0:0:
190,337,103066,2,0,L|183:279,1,59.4999981842042,6|0,0:1|0:0,0:0:0:0:
105,156,103237,2,0,L|97:214,1,59.4999981842042,6|0,0:1|0:0,0:0:0:0:
103,363,103409,5,6,0:1:0:0:
143,338,103494,1,2,0:0:0:0:
190,337,103580,1,10,0:0:0:0:
231,360,103666,1,2,0:0:0:0:
278,364,103752,1,2,0:0:0:0:
319,341,103837,1,2,0:0:0:0:
338,297,103923,1,2,0:0:0:0:
321,252,104009,1,2,0:0:0:0:
279,229,104094,1,10,0:0:0:0:
250,190,104180,1,2,0:0:0:0:
250,142,104266,1,2,0:0:0:0:
280,104,104352,1,2,0:0:0:0:
326,97,104437,5,4,0:1:0:0:
261,299,104609,1,0,0:0:0:0:
388,162,104779,1,8,0:0:0:0:
392,161,104866,1,2,0:0:0:0:
396,160,104952,1,2,0:0:0:0:
400,159,105037,1,2,0:0:0:0:
404,158,105123,2,0,P|418:213|424:246,1,85,2|0,0:0|0:0,0:0:0:0:
415,316,105380,1,0,0:0:0:0:
415,316,105466,6,0,P|459:310|517:308,1,85,2|0,0:0|0:0,0:0:0:0:
351,264,105809,1,10,0:0:0:0:
311,368,105980,1,0,0:0:0:0:
250,190,106152,2,0,P|192:152|128:154,1,127.5,2|0,0:0|0:0,0:0:0:0:
118,162,106494,6,0,P|107:113|89:68,1,85,2|0,0:0|0:0,0:0:0:0:
312,75,106837,2,0,L|319:27,1,42.5,8|0,0:0|0:0,0:0:0:0:
200,81,107009,2,0,L|206:123,1,42.5
352,154,107180,1,0,0:0:0:0:
244,269,107352,5,0,0:0:0:0:
177,276,107437,1,2,0:0:0:0:
109,284,107523,2,0,B|93:327|93:327|109:362,1,85,2|8,0:0|0:0,0:0:0:0:
118,162,107866,2,0,P|73:152|24:148,1,85
242,193,108209,2,0,P|291:152|374:167,1,127.5,2|0,0:0|0:0,0:0:0:0:
365,158,108552,6,0,P|351:108|347:62,1,85,2|0,0:0|0:0,0:0:0:0:
443,250,108894,2,0,L|495:239,3,42.5,8|0|0|0,0:0|0:0|0:0|0:0,0:0:0:0:
443,250,109237,2,0,P|437:292|425:332,1,85,2|0,0:0|0:0,0:0:0:0:
332,379,109580,6,0,P|306:335|320:284,1,85,2|0,0:0|0:0,0:0:0:0:
435,98,109923,2,0,P|461:142|447:193,1,85,10|0,0:0|0:0,0:0:0:0:
231,267,110266,2,0,P|301:261|379:246,1,127.5,2|0,0:0|0:0,0:0:0:0:
357,251,110609,6,0,P|348:184|347:132,1,85,2|0,0:0|0:0,0:0:0:0:
263,57,110952,1,8,0:0:0:0:
258,56,111037,1,0,0:0:0:0:
253,56,111123,1,0,0:0:0:0:
248,56,111209,1,0,0:0:0:0:
243,56,111294,2,0,P|182:74|131:84,1,85
77,55,111637,5,0,0:0:0:0:
232,151,111809,1,8,0:0:0:0:
91,263,111980,1,0,0:0:0:0:
82,265,112066,1,0,0:0:0:0:
73,265,112152,1,0,0:0:0:0:
64,265,112237,1,0,0:0:0:0:
55,264,112323,5,8,0:0:0:0:
81,285,112409,1,2,0:0:0:0:
88,317,112494,1,2,0:0:0:0:
82,350,112580,1,2,0:0:0:0:
60,376,112666,6,0,P|152:363|245:360,1,170,6|8,0:0|0:0,0:0:0:0:
388,264,113180,2,0,L|382:321,1,42.5
312,346,113352,2,0,L|307:303,1,42.5
293,189,113523,1,2,0:0:0:0:
293,189,113609,1,2,0:0:0:0:
293,189,113694,6,0,P|240:200|199:205,1,85,2|0,0:0|0:0,0:0:0:0:
319,95,114038,1,10,0:0:0:0:
364,197,114209,1,0,0:0:0:0:
388,40,114380,2,0,P|444:14|519:26,1,127.5,2|0,0:0|0:0,0:0:0:0:
507,20,114723,6,0,P|501:81|502:113,1,85,2|0,0:0|0:0,0:0:0:0:
407,144,115066,1,8,0:0:0:0:
487,218,115238,1,0,0:0:0:0:
453,321,115409,1,0,0:0:0:0:
310,327,115580,5,0,0:0:0:0:
273,264,115666,1,2,0:0:0:0:
293,194,115752,2,0,P|306:146|306:89,1,85,2|8,0:0|0:0,0:0:0:0:
204,292,116094,2,0,P|160:299|102:304,1,85,2|0,0:0|0:0,0:0:0:0:
48,359,116437,1,2,0:0:0:0:
79,226,116609,1,8,0:0:0:0:
15,282,116780,5,4,0:0:0:0:
113,152,116952,1,0,0:0:0:0:
112,143,117037,1,0,0:0:0:0:
111,134,117123,1,8,0:0:0:0:
204,292,117294,1,0,0:0:0:0:
203,301,117380,1,0,0:0:0:0:
202,310,117465,1,0,0:0:0:0:
309,124,117637,1,0,0:0:0:0:
308,115,117722,1,0,0:0:0:0:
307,106,117808,5,4,0:0:0:0:
366,298,117980,1,0,0:0:0:0:
391,293,118066,1,0,0:0:0:0:
416,289,118152,1,8,0:0:0:0:
196,150,118323,1,0,0:0:0:0:
221,155,118409,1,0,0:0:0:0:
246,157,118495,1,0,0:0:0:0:
48,359,118666,1,8,0:0:0:0:
73,354,118752,1,0,0:0:0:0:
98,350,118838,5,4,0:0:0:0:
32,158,119009,1,0,0:0:0:0:
164,265,119180,1,8,0:0:0:0:
164,265,119266,1,0,0:0:0:0:
164,265,119352,1,0,0:0:0:0:
200,286,119437,1,0,0:0:0:0:
242,279,119523,1,0,0:0:0:0:
272,249,119609,1,0,0:0:0:0:
313,240,119694,1,0,0:0:0:0:
349,262,119780,1,0,0:0:0:0:
355,304,119866,5,4,0:0:0:0:
331,339,119952,1,0,0:0:0:0:
315,290,120037,1,0,0:0:0:0:
332,241,120123,1,0,0:0:0:0:
377,218,120209,1,0,0:0:0:0:
414,184,120294,1,0,0:0:0:0:
426,134,120380,1,0,0:0:0:0:
409,85,120466,1,0,0:0:0:0:
366,57,120552,1,0,0:0:0:0:
315,59,120637,1,0,0:0:0:0:
274,90,120723,1,0,0:0:0:0:
247,134,120809,1,0,0:0:0:0:
197,143,120894,6,0,L|131:135,3,42.5,8|0|0|0,0:0|0:0|0:0|0:0,0:0:0:0:
256,208,121237,1,4,0:0:0:0:
