osu file format v14

[General]
AudioFilename: audio.mp3
AudioLeadIn: 0
PreviewTime: 47252
Countdown: 0
SampleSet: Soft
StackLeniency: 0.7
Mode: 0
LetterboxInBreaks: 0
WidescreenStoryboard: 0

[Editor]
Bookmarks: 2913,97326
DistanceSpacing: 1.1
BeatDivisor: 4
GridSize: 32
TimelineZoom: 1.7

[Metadata]
Title:Colorful Days (feat. Tsuyuri Karin)
TitleUnicode:Colorful Days♪ (feat. つゆり花鈴)
Artist:P4koo
ArtistUnicode:P4koo
Creator:LeomineXD
Version:Normal
Source:G2R2018 Climax
Tags:圧倒的二次元 Attoteki attouteki nijigen colourful fa featured artist mappers' guild mpg mg japanese pop jpop j-pop jp amats Mizujin -_Aqua AqUa_M1X pakoo
BeatmapID:4389463
BeatmapSetID:2093577

[Difficulty]
HPDrainRate:3
CircleSize:3
OverallDifficulty:3.5
ApproachRate:5.5
SliderMultiplier:1.2
SliderTickRate:1

[Events]
//Background and Video events
0,0,"99023585_p0.jpg",0,0
//Break Periods
2,17894,18554
2,74364,75024
//Storyboard Layer 0 (Background)
//Storyboard Layer 1 (Fail)
//Storyboard Layer 2 (Pass)
//Storyboard Layer 3 (Foreground)
//Storyboard Layer 4 (Overlay)
//Storyboard Sound Samples

[TimingPoints]
3797,441.176470588236,4,2,1,50,1,0
3797,-133.333333333333,4,2,1,50,0,0
10855,-125,4,2,1,75,0,0
16260,-125,4,2,1,78,0,0
19679,-133.333333333333,4,2,1,70,0,0
33797,-142.857142857143,4,2,1,60,0,0
40855,-133.333333333333,4,2,1,70,0,0
44164,-133.333333333333,4,2,1,78,0,0
47252,-100,4,2,1,65,0,0
47914,-100,4,2,1,85,0,1
61591,-100,4,2,1,85,0,0
62032,-100,4,2,1,85,0,1
74385,-100,4,2,1,65,0,0
76149,-111.111111111111,4,2,1,70,0,0
83208,-111.111111111111,4,2,1,55,0,0
86738,-111.111111111111,4,2,1,75,0,0
88282,-111.111111111111,4,2,1,80,0,0
92473,-111.111111111111,4,2,1,70,0,0
97326,-111.111111111111,4,2,1,5,0,0

[Colours]
Combo1 : 255,85,231
Combo2 : 255,38,38
Combo3 : 67,72,255
Combo4 : 167,52,255

[HitObjects]
405,208,10855,6,0,P|372:173|326:164,1,96,4|10,1:2|2:2,0:0:0:0:
228,203,11738,2,0,L|211:273,2,72,2|2|2,1:2|2:2|2:2,0:0:0:0:
196,160,12620,1,0,1:1:0:0:
93,119,13061,1,10,2:2:0:0:
93,119,13282,2,0,P|83:73|106:32,1,96,2|2,2:2|2:2,0:0:0:0:
155,14,13944,1,8,2:2:0:0:
229,88,14385,6,0,L|323:70,1,96,2|10,1:2|2:2,0:0:0:0:
365,38,15047,1,0,0:0:0:0:
365,38,15267,1,0,1:1:0:0:
454,93,15708,1,10,2:2:0:0:
454,93,15929,2,0,P|479:68|483:33,2,72,4|0|10,1:2|1:1|2:2,0:0:0:0:
392,142,16922,2,0,L|321:123,1,72,2|0,1:2|3:3,0:0:0:0:
272,106,17473,1,10,2:2:0:0:
272,106,17694,1,10,2:2:0:0:
43,280,19679,5,4,1:2:0:0:
43,280,19899,2,0,L|0:269,2,45.0000017166138,2|10|2,2:2|2:2|2:2,0:0:0:0:
78,315,20561,2,0,L|165:293,1,90.0000034332277,2|8,1:2|2:2,0:0:0:0:
255,334,21444,1,2,1:2:0:0:
255,334,21664,2,0,L|342:312,1,90.0000034332277,2|2,2:2|2:2,0:0:0:0:
388,330,22326,1,2,1:2:0:0:
388,330,22547,2,0,P|426:308|440:266,1,90.0000034332277,2|2,2:2|0:0,0:0:0:0:
386,183,23429,6,0,L|399:136,1,45.0000017166138,2|10,2:2|2:2,0:0:0:0:
435,107,23870,1,2,2:2:0:0:
435,107,24091,2,0,P|433:63|398:36,1,90.0000034332277,2|10,1:2|2:2,0:0:0:0:
355,13,24752,1,2,2:2:0:0:
261,45,25194,1,2,2:2:0:0:
261,45,25414,2,0,P|238:41|216:35,1,45.0000017166138,10|2,2:2|2:2,0:0:0:0:
175,8,25855,1,10,3:2:0:0:
81,41,26297,1,10,3:2:0:0:
94,139,26738,5,4,1:2:0:0:
94,139,26958,2,0,L|82:182,2,45.0000017166138,2|10|2,2:2|2:2|2:2,0:0:0:0:
140,122,27620,2,0,B|192:131|164:157|216:165,1,90.0000034332277,2|8,1:2|2:2,0:0:0:0:
310,136,28502,1,2,1:2:0:0:
310,136,28723,2,0,P|353:148|395:160,1,90.0000034332277,2|2,2:2|2:2,0:0:0:0:
428,198,29385,1,2,1:2:0:0:
362,272,29826,2,0,P|372:291|377:313,1,45.0000017166138,10|2,2:2|2:2,0:0:0:0:
349,354,30267,6,0,B|310:344|310:344|299:348|299:348|256:338,1,90.0000034332277,0|10,1:1|2:2,0:0:0:0:
226,304,30929,1,2,2:2:0:0:
226,304,31149,2,0,P|182:300|146:326,1,90.0000034332277,0|8,1:1|2:2,0:0:0:0:
121,369,31811,1,4,1:2:0:0:
36,319,32252,2,0,P|44:298|45:276,1,45.0000017166138,2|2,2:2|2:2,0:0:0:0:
20,233,32694,2,0,L|44:147,1,90.0000034332277,2|0,2:2|1:1,0:0:0:0:
38,97,33355,1,2,2:2:0:0:
110,29,33797,6,0,L|192:13,1,83.9999974365235,4|8,1:2|2:2,0:0:0:0:
237,0,34458,1,2,2:2:0:0:
237,0,34679,1,2,2:2:0:0:
314,51,35120,1,8,2:2:0:0:
314,51,35341,2,0,P|347:25|388:23,1,83.9999974365235,2|0,1:2|0:0,0:0:0:0:
428,42,36002,1,8,2:2:0:0:
498,102,36444,2,0,P|488:120|484:141,1,41.9999987182618,2|2,2:2|1:2,0:0:0:0:
503,182,36885,1,10,2:2:0:0:
452,259,37326,6,0,P|416:236|375:236,1,83.9999974365235,2|8,1:2|2:2,0:0:0:0:
308,300,38208,2,0,L|315:341,2,41.9999987182618,2|2|10,2:2|1:2|2:2,0:0:0:0:
267,277,38870,1,2,1:2:0:0:
277,185,39311,2,0,L|284:143,1,41.9999987182618,2|10,2:2|2:2,0:0:0:0:
320,115,39752,2,0,L|304:32,1,83.9999974365235,2|0,1:2|1:1,0:0:0:0:
270,0,40414,1,2,1:2:0:0:
182,55,40855,6,0,P|137:63|94:74,1,90.0000034332277,4|10,1:2|2:2,0:0:0:0:
59,109,41517,1,2,2:2:0:0:
59,109,41738,2,0,P|81:147|77:191,1,90.0000034332277,2|10,1:2|2:2,0:0:0:0:
9,263,42620,2,0,P|20:306|28:350,1,90.0000034332277,0|8,1:1|2:2,0:0:0:0:
122,380,43502,2,0,P|144:375|165:370,1,45.0000017166138,0|2,1:1|2:2,0:0:0:0:
202,336,43944,1,10,2:2:0:0:
202,336,44164,6,0,P|204:292|173:260,1,90.0000034332277,4|2,1:2|1:2,0:0:0:0:
139,224,44826,2,0,P|116:227|94:231,1,45.0000017166138,10|10,2:2|2:2,0:0:0:0:
53,203,45267,2,0,P|49:180|45:158,1,45.0000017166138,0|2,1:1|1:2,0:0:0:0:
10,123,45708,1,10,2:2:0:0:
10,123,45929,1,2,1:2:0:0:
295,58,47252,2,0,P|288:28|280:0,2,60,2|2|2,2:2|2:2|2:2,0:0:0:0:
336,109,47914,6,0,L|322:167,1,60,4|0,1:2|0:0,0:0:0:0:
267,202,48355,2,0,L|280:260,1,60,10|0,2:2|0:0,0:0:0:0:
326,307,48797,2,0,P|370:307|404:279,1,90,2|2,1:2|2:2,0:0:0:0:
466,202,49458,1,2,2:2:0:0:
466,202,49679,2,0,L|449:143,1,60,0|2,1:1|2:2,0:0:0:0:
463,79,50120,1,10,2:2:0:0:
463,79,50341,2,0,P|429:31|371:27,1,120,2|2,2:2|2:2,0:0:0:0:
316,62,51002,1,8,2:2:0:0:
199,0,51444,6,0,L|140:12,1,60,2|2,1:2|2:2,0:0:0:0:
75,26,51885,1,10,2:2:0:0:
4,92,52216,2,0,P|32:125|35:169,1,90,2|2,2:2|2:2,0:0:0:0:
0,225,52767,1,10,2:2:0:0:
0,225,52988,2,0,P|-5:283|32:327,1,120,2|2,2:2|2:2,0:0:0:0:
92,354,53649,1,10,2:2:0:0:
92,354,53870,2,0,B|125:346|137:318|137:318|159:339|192:332,1,120,2|2,2:2|2:2,0:0:0:0:
245,292,54532,1,10,2:2:0:0:
166,185,54973,6,0,L|180:126,1,60,0|2,1:1|2:2,0:0:0:0:
227,80,55414,2,0,P|220:50|210:22,2,60,10|2|2,2:2|2:2|1:2,0:0:0:0:
280,118,56076,1,2,2:2:0:0:
390,45,56517,2,0,P|447:38|488:79,1,120,2|2,2:2|2:2,0:0:0:0:
512,141,57179,1,10,2:2:0:0:
512,141,57399,2,0,P|491:197|478:255,1,120,2|2,2:2|2:2,0:0:0:0:
431,302,58061,1,10,2:2:0:0:
318,233,58502,6,0,P|288:237|259:245,1,60,0|2,1:1|2:2,0:0:0:0:
224,301,58944,2,0,P|195:309|165:313,1,60,10|2,2:2|2:2,0:0:0:0:
103,291,59385,1,0,1:1:0:0:
161,172,59826,1,8,2:2:0:0:
161,172,60047,2,0,B|172:139|144:119|144:119|117:99|128:66,1,120,4|2,1:2|3:2,0:0:0:0:
172,16,60708,1,10,2:2:0:0:
262,55,61039,2,0,B|298:46|298:46|311:36|311:36|352:25,1,90,4|2,1:2|3:2,0:0:0:0:
407,0,61591,1,10,2:2:0:0:
512,80,62032,6,0,L|498:138,1,60,4|0,1:2|0:0,0:0:0:0:
445,179,62473,2,0,L|459:237,1,60,10|0,2:2|0:0,0:0:0:0:
512,277,62914,2,0,B|503:318|503:318|493:326|493:326|482:372,1,90,2|2,1:2|2:2,0:0:0:0:
393,322,63576,1,2,2:2:0:0:
393,322,63797,2,0,P|363:320|335:330,1,60,0|2,1:1|2:2,0:0:0:0:
282,370,64238,1,10,2:2:0:0:
282,370,64458,2,0,P|224:353|165:339,1,120,2|2,2:2|2:2,0:0:0:0:
101,353,65120,1,8,2:2:0:0:
7,259,65561,6,0,P|27:237|36:209,1,60,2|2,1:2|2:2,0:0:0:0:
11,148,66002,1,10,2:2:0:0:
72,70,66333,2,0,L|159:90,1,90,2|2,2:2|2:2,0:0:0:0:
213,129,66885,1,10,2:2:0:0:
213,129,67105,2,0,B|289:111|238:87|314:70,1,120,2|2,2:2|2:2,0:0:0:0:
368,34,67767,1,8,2:2:0:0:
368,34,67988,2,0,P|426:33|466:76,1,120,2|2,2:2|2:2,0:0:0:0:
482,140,68649,1,10,2:2:0:0:
382,227,69091,6,0,L|323:213,1,60,0|2,1:1|2:2,0:0:0:0:
276,166,69532,2,0,P|294:142|300:113,2,60,8|2|2,2:2|2:2|1:2,0:0:0:0:
214,190,70194,1,2,2:2:0:0:
114,103,70635,2,0,B|55:92|55:92|12:134,1,120,2|2,2:2|2:2,0:0:0:0:
0,200,71297,1,10,2:2:0:0:
0,200,71517,2,0,B|14:256|14:256|19:260|19:260|35:319,1,120,2|2,2:2|2:2,0:0:0:0:
88,352,72179,1,10,2:2:0:0:
178,256,72620,6,0,L|236:268,1,60,4|2,1:2|1:2,0:0:0:0:
283,314,73061,2,0,L|341:301,1,60,10|2,2:2|1:2,0:0:0:0:
395,263,73502,2,0,P|423:272|452:277,2,60,0|2|10,1:1|1:2|2:2,0:0:0:0:
361,206,74164,1,2,1:2:0:0:
62,78,76149,6,0,L|74:25,2,53.9999983520508,4|2|10,1:2|2:2|2:2,0:0:0:0:
1,180,77032,2,0,L|13:232,1,53.9999983520508,0|2,1:1|2:2,0:0:0:0:
55,274,77473,1,10,2:2:0:0:
143,194,77914,2,0,P|165:178|191:174,1,53.9999983520508,0|2,1:1|2:2,0:0:0:0:
246,197,78355,2,0,P|272:194|295:179,1,53.9999983520508,10|0,2:2|0:0,0:0:0:0:
320,125,78797,1,0,1:1:0:0:
427,75,79238,2,0,P|445:93|453:119,1,53.9999983520508,10|0,2:2|0:0,0:0:0:0:
426,172,79679,6,0,B|410:198|410:198|425:274,1,107.999996704102,0|10,1:1|2:2,0:0:0:0:
392,323,80341,1,0,0:0:0:0:
392,323,80561,2,0,B|333:311|352:352|286:340,1,107.999996704102,0|10,1:1|2:2,0:0:0:0:
207,254,81444,2,0,P|154:250|115:285,1,107.999996704102,0|10,1:1|2:2,0:0:0:0:
73,327,82105,1,2,2:2:0:0:
73,327,82326,2,0,L|83:379,2,53.9999983520508,0|0|8,1:1|0:0|2:2,0:0:0:0:
10,226,83208,6,0,L|31:120,1,107.999996704102,4|10,2:2|2:2,0:0:0:0:
111,32,84091,2,0,P|145:71|197:68,1,107.999996704102,2|10,0:0|2:2,0:0:0:0:
301,10,84973,1,0,0:0:0:0:
373,104,85414,1,10,2:2:0:0:
275,172,85855,2,0,L|304:275,1,107.999996704102,0|10,0:0|2:2,0:0:0:0:
353,308,86517,1,2,2:2:0:0:
353,308,86738,6,0,P|379:310|402:296,1,53.9999983520508,4|2,1:2|1:2,0:0:0:0:
443,253,87179,2,0,L|428:201,1,53.9999983520508,10|2,2:2|1:2,0:0:0:0:
387,157,87620,1,0,1:1:0:0:
387,157,87841,1,2,1:2:0:0:
278,206,88282,6,0,B|255:201|237:173|237:173|209:191|186:186,1,107.999996704102,4|2,1:2|1:2,0:0:0:0:
130,206,88944,1,10,2:2:0:0:
130,206,89164,2,0,P|78:216|34:186,1,107.999996704102,4|0,1:2|1:1,0:0:0:0:
70,73,90047,2,0,B|43:56|43:56|28:56|28:56|0:37,2,80.9999975280763,4|2|10,1:2|1:2|2:2,0:0:0:0:
127,58,90929,1,4,1:2:0:0:
236,11,91370,2,0,L|290:21,1,53.9999983520508,0|10,3:3|2:2,0:0:0:0:
345,38,91811,1,10,2:2:0:0:
256,192,92473,5,4,1:2:0:0:
256,192,92694,12,0,97326,0:0:0:0:
