osu file format v14

[General]
AudioFilename: audio.mp3
AudioLeadIn: 0
PreviewTime: 47252
Countdown: 0
SampleSet: Soft
StackLeniency: 0.5
Mode: 0
LetterboxInBreaks: 0
WidescreenStoryboard: 0

[Editor]
Bookmarks: 2913,97326
DistanceSpacing: 0.5
BeatDivisor: 4
GridSize: 16
TimelineZoom: 1.6

[Metadata]
Title:Colorful Days (feat. Tsuyuri Karin)
TitleUnicode:Colorful Days♪ (feat. つゆり花鈴)
Artist:P4koo
ArtistUnicode:P4koo
Creator:LeomineXD
Version:Hard
Source:G2R2018 Climax
Tags:圧倒的二次元 Attoteki attouteki nijigen colourful fa featured artist mappers' guild mpg mg japanese pop jpop j-pop jp amats Mizujin -_Aqua AqUa_M1X pakoo
BeatmapID:4389462
BeatmapSetID:2093577

[Difficulty]
HPDrainRate:4
CircleSize:3.4
OverallDifficulty:5
ApproachRate:7
SliderMultiplier:1.4
SliderTickRate:1

[Events]
//Background and Video events
0,0,"99023585_p0.jpg",0,0
//Break Periods
2,17894,18779
2,74364,75249
//Storyboard Layer 0 (Background)
//Storyboard Layer 1 (Fail)
//Storyboard Layer 2 (Pass)
//Storyboard Layer 3 (Foreground)
//Storyboard Layer 4 (Overlay)
//Storyboard Sound Samples

[TimingPoints]
3797,441.176470588236,4,2,1,50,1,0
3797,-133.333333333333,4,2,1,50,0,0
10855,-111.111111111111,4,2,1,75,0,0
16260,-111.111111111111,4,2,1,78,0,0
19679,-125,4,2,1,70,0,0
33797,-142.857142857143,4,2,1,60,0,0
40855,-125,4,2,1,70,0,0
44164,-111.111111111111,4,2,1,78,0,0
47252,-111.111111111111,4,2,1,65,0,0
47914,-100,4,2,1,85,0,1
61591,-100,4,2,1,85,0,0
62032,-100,4,2,1,85,0,1
74385,-111.111111111111,4,2,1,65,0,0
76149,-111.111111111111,4,2,1,70,0,0
83208,-133.333333333333,4,2,1,55,0,0
86738,-111.111111111111,4,2,1,75,0,0
88282,-111.111111111111,4,2,1,80,0,0
92473,-111.111111111111,4,2,1,70,0,0
97326,-111.111111111111,4,2,1,5,0,0

[Colours]
Combo1 : 255,85,231
Combo2 : 255,38,38
Combo3 : 67,72,255
Combo4 : 167,52,255

[HitObjects]
187,83,3797,6,0,L|238:71,1,52.5000020027161,6|0,2:2|0:0,0:0:0:0:
304,19,4238,2,0,L|355:30,1,52.5000020027161,2|0,2:2|0:0,0:0:0:0:
424,77,4679,2,0,P|458:58|497:59,1,78.7500030040742,2|2,2:2|2:2,0:0:0:0:
378,150,5341,2,0,P|398:198|415:247,1,105.000004005432,2|2,2:2|2:2,0:0:0:0:
465,322,6002,1,2,2:2:0:0:
465,322,6223,2,0,B|406:312|427:347|357:338,1,105.000004005432,2|2,2:2|2:2,0:0:0:0:
287,299,6885,1,2,2:2:0:0:
310,213,7105,1,2,2:2:0:0:
310,213,7326,6,0,P|292:163|272:115,1,105.000004005432,2|2,2:2|2:2,0:0:0:0:
206,63,7988,2,0,P|171:100|120:100,1,105.000004005432,2|2,2:2|2:2,0:0:0:0:
46,56,8649,1,2,2:2:0:0:
0,133,8870,2,0,B|11:176|11:176|22:188|22:188|36:237,1,105.000004005432,2|2,2:2|2:2,0:0:0:0:
99,288,9532,1,2,2:2:0:0:
158,225,9752,2,0,P|208:221|246:256,1,105.000004005432,2|2,2:2|2:2,0:0:0:0:
287,330,10414,1,2,2:2:0:0:
287,330,10635,1,2,1:2:0:0:
380,281,10855,6,0,P|410:287|441:293,1,62.9999980773926,4|0,1:2|0:0,0:0:0:0:
461,197,11297,2,0,P|430:190|399:184,1,62.9999980773926,10|0,2:2|0:0,0:0:0:0:
309,213,11738,2,0,P|299:167|321:126,1,94.499997116089,2|2,1:2|2:2,0:0:0:0:
345,106,12179,1,8,2:2:0:0:
294,23,12399,1,2,2:2:0:0:
294,23,12620,6,0,P|263:29|232:35,1,62.9999980773926,0|2,1:1|2:2,0:0:0:0:
155,90,13061,1,10,2:2:0:0:
155,90,13282,2,0,P|112:48|50:49,1,125.999996154785,2|2,2:2|2:2,0:0:0:0:
0,130,13944,2,0,P|9:160|19:190,1,62.9999980773926,8|2,2:2|2:2,0:0:0:0:
96,250,14385,6,0,P|121:231|152:228,1,62.9999980773926,2|0,1:2|0:0,0:0:0:0:
228,290,14826,2,0,L|218:320,2,31.4999990386963,10|2|0,2:2|2:2|0:0,0:0:0:0:
293,213,15267,2,0,P|283:183|273:152,1,62.9999980773926,0|2,1:1|2:2,0:0:0:0:
238,52,15708,1,10,2:2:0:0:
238,52,15929,6,0,B|279:61|279:61|287:66|287:66|333:76,1,94.499997116089,4|0,1:2|1:1,0:0:0:0:
358,53,16370,2,0,L|350:22,2,31.4999990386963,2|0|10,3:2|3:3|2:2,0:0:0:0:
438,109,16811,1,4,1:2:0:0:
438,109,16922,2,0,L|415:200,1,94.499997116089,2|0,1:2|3:3,0:0:0:0:
460,305,17473,1,10,2:2:0:0:
396,379,17694,1,10,2:2:0:0:
81,366,19679,5,4,1:2:0:0:
21,300,19899,1,2,2:2:0:0:
21,300,20120,2,0,L|35:245,1,56,10|2,2:2|2:2,0:0:0:0:
104,184,20561,2,0,L|83:102,1,84,2|2,1:2|0:0,0:0:0:0:
65,78,21002,2,0,P|63:50|79:28,1,56,8|2,2:2|2:2,0:0:0:0:
171,57,21444,5,2,1:2:0:0:
171,57,21664,2,0,B|230:39|218:71|282:52,1,112,2|2,2:2|2:2,0:0:0:0:
355,2,22326,1,2,1:2:0:0:
433,46,22547,2,0,P|420:100|406:154,1,112,2|2,2:2|0:0,0:0:0:0:
343,214,23208,5,0,1:1:0:0:
413,270,23429,2,0,P|438:255|468:254,2,56,2|10|2,2:2|2:2|2:2,0:0:0:0:
350,338,24091,2,0,B|306:326|306:326|287:326|287:326|237:312,1,112,2|10,1:2|2:2,0:0:0:0:
158,346,24752,6,0,P|105:331|87:281,1,112,2|2,2:2|2:2,0:0:0:0:
54,194,25414,1,10,2:2:0:0:
130,141,25635,1,2,2:2:0:0:
130,141,25855,1,10,3:2:0:0:
211,0,26297,1,10,3:2:0:0:
344,93,26738,5,4,1:2:0:0:
292,167,26958,1,2,2:2:0:0:
292,167,27179,2,0,L|281:221,1,56,10|2,2:2|2:2,0:0:0:0:
297,310,27620,2,0,P|329:284|370:283,1,84,2|2,1:2|0:0,0:0:0:0:
398,290,28061,2,0,P|425:291|452:281,1,56,8|2,2:2|2:2,0:0:0:0:
510,209,28502,5,2,1:2:0:0:
510,209,28723,2,0,B|502:183|507:153|507:153|486:131|478:105,1,112,2|2,2:2|2:2,0:0:0:0:
420,34,29385,1,2,1:2:0:0:
268,139,29826,1,10,2:2:0:0:
199,82,30047,1,2,2:2:0:0:
199,82,30267,6,0,L|144:69,1,56,0|2,1:1|2:2,0:0:0:0:
55,36,30708,2,0,P|66:61|64:88,1,56,10|2,2:2|2:2,0:0:0:0:
50,113,31039,2,0,L|69:194,1,84,2|2,2:2|2:2,0:0:0:0:
135,257,31591,1,8,2:2:0:0:
60,324,31811,6,0,B|131:334|95:363|161:370,1,112,4|2,1:2|2:2,0:0:0:0:
174,367,32363,1,2,2:2:0:0:
189,363,32473,1,2,2:2:0:0:
256,295,32694,2,0,P|218:255|218:200,1,112,2|0,2:2|1:1,0:0:0:0:
260,116,33355,2,0,L|253:88,2,28,2|0|0,2:2|0:0|1:1,0:0:0:0:
354,147,33797,6,0,L|449:123,1,97.9999970092774,4|8,1:2|2:2,0:0:0:0:
512,178,34458,1,2,2:2:0:0:
465,247,34679,2,0,L|481:318,1,73.4999977569581,2|2,2:2|2:2,0:0:0:0:
379,384,35341,6,0,P|352:342|306:327,1,97.9999970092774,2|0,1:2|0:0,0:0:0:0:
241,373,36002,1,8,2:2:0:0:
170,334,36223,2,0,L|122:345,2,48.9999985046387,2|2|2,2:2|2:2|1:2,0:0:0:0:
227,263,36885,1,10,2:2:0:0:
157,210,37105,1,0,1:1:0:0:
157,210,37326,6,0,P|109:220|61:232,1,97.9999970092774,2|8,1:2|2:2,0:0:0:0:
14,166,37988,1,2,2:2:0:0:
14,166,38208,2,0,P|28:146|32:122,1,48.9999985046387,2|2,2:2|1:2,0:0:0:0:
2,47,38649,1,10,2:2:0:0:
70,3,38870,6,0,B|114:11|114:11|122:21|122:21|171:30,1,97.9999970092774,2|2,1:2|2:2,0:0:0:0:
229,79,39532,1,10,2:2:0:0:
229,79,39752,2,0,L|324:56,1,97.9999970092774,2|0,1:2|1:1,0:0:0:0:
401,23,40414,2,0,L|395:0,2,24.4999992523194,2|2|2,1:2|2:2|2:2,0:0:0:0:
476,95,40855,6,0,P|466:121|460:148,1,56,4|2,1:2|2:2,0:0:0:0:
388,207,41297,1,10,2:2:0:0:
315,146,41517,1,2,2:2:0:0:
315,146,41738,2,0,P|260:157|207:176,1,112,2|10,1:2|2:2,0:0:0:0:
114,132,42399,6,0,B|132:157|132:157|116:236,1,112,2|2,2:2|2:2,0:0:0:0:
52,311,43061,2,0,P|27:297|0:295,2,56,8|0|0,2:2|0:0|1:1,0:0:0:0:
123,375,43723,1,2,2:2:0:0:
198,312,43944,1,10,2:2:0:0:
301,372,44164,6,0,B|379:355|335:327|409:311,1,125.999996154785,4|2,1:2|1:2,0:0:0:0:
481,247,44826,2,0,P|479:215|464:188,1,62.9999980773926,10|10,2:2|2:2,0:0:0:0:
375,142,45267,1,0,1:1:0:0:
291,84,45488,1,2,1:2:0:0:
349,0,45708,1,10,2:2:0:0:
433,56,45929,1,2,1:2:0:0:
30,206,47252,5,2,2:2:0:0:
30,206,47473,2,0,L|0:199,2,31.4999990386963,2|2|2,2:2|2:2|2:2,0:0:0:0:
127,150,47914,6,0,L|194:170,1,70,4|0,1:2|0:0,0:0:0:0:
281,235,48355,2,0,L|349:220,1,70,10|0,2:2|0:0,0:0:0:0:
429,151,48797,2,0,P|405:125|400:91,1,70,2|0,1:2|0:0,0:0:0:0:
408,74,49127,1,2,2:2:0:0:
415,56,49238,1,8,2:2:0:0:
315,0,49458,1,2,2:2:0:0:
315,0,49679,6,0,P|280:6|246:15,1,70,0|2,1:1|2:2,0:0:0:0:
159,73,50120,1,10,2:2:0:0:
58,33,50341,2,0,B|82:14|82:14|64:123,1,140,2|2,2:2|2:2,0:0:0:0:
0,209,51002,1,8,2:2:0:0:
75,292,51223,1,2,2:2:0:0:
75,292,51444,6,0,L|58:360,1,70,2|2,1:2|2:2,0:0:0:0:
165,384,51885,2,0,L|181:315,1,70,10|2,2:2|2:2,0:0:0:0:
202,288,52216,2,0,B|193:247|191:259|182:218,1,70,2|0,2:2|0:0,0:0:0:0:
168,193,52547,1,2,2:2:0:0:
104,109,52767,1,10,2:2:0:0:
175,27,52988,6,0,B|227:38|227:38|249:55|249:55|308:68,1,140,2|2,2:2|2:2,0:0:0:0:
400,21,53649,1,10,2:2:0:0:
476,99,53870,2,0,P|494:164|456:221,1,140,2|2,2:2|2:2,0:0:0:0:
371,282,54532,1,10,2:2:0:0:
295,205,54752,1,2,1:2:0:0:
295,205,54973,6,0,L|226:188,1,70,0|2,1:1|2:2,0:0:0:0:
150,117,55414,1,10,2:2:0:0:
64,178,55635,1,2,2:2:0:0:
138,252,55855,1,2,1:2:0:0:
138,252,56076,2,0,P|141:286|124:315,1,70,2|8,2:2|2:2,0:0:0:0:
211,381,56517,6,0,P|262:336|330:344,1,140,2|2,2:2|2:2,0:0:0:0:
428,384,57179,1,10,2:2:0:0:
494,298,57399,2,0,B|477:243|477:243|485:217|485:217|468:161,1,140,2|2,2:2|2:2,0:0:0:0:
394,91,58061,1,10,2:2:0:0:
394,91,58282,6,0,P|343:136|277:126,1,140,2|2,2:2|2:2,0:0:0:0:
206,44,58944,2,0,P|171:50|138:60,1,70,10|2,2:2|2:2,0:0:0:0:
109,48,59274,2,0,P|63:70|45:118,1,105,2|2,2:2|2:2,0:0:0:0:
0,214,59826,1,8,2:2:0:0:
83,289,60047,6,0,P|133:280|170:315,1,105,4|0,1:2|1:1,0:0:0:0:
179,346,60488,1,2,3:2:0:0:
267,289,60708,2,0,P|301:295|335:303,1,70,10|0,2:2|3:3,0:0:0:0:
358,326,61039,2,0,P|387:343|421:338,1,70,4|0,1:2|1:1,0:0:0:0:
448,320,61370,1,2,3:2:0:0:
511,236,61591,1,10,2:2:0:0:
440,150,61811,1,10,2:2:0:0:
440,150,61922,1,2,0:0:0:0:
440,150,62032,6,0,P|405:156|371:164,1,70,4|0,1:2|0:0,0:0:0:0:
287,227,62473,2,0,P|252:220|218:212,1,70,10|0,2:2|0:0,0:0:0:0:
138,139,62914,2,0,B|109:146|109:146|104:153|104:153|74:162,1,70,2|0,1:2|0:0,0:0:0:0:
60,175,63245,1,2,2:2:0:0:
44,186,63355,1,8,2:2:0:0:
0,278,63576,1,2,2:2:0:0:
0,278,63797,6,0,P|6:311|32:333,1,70,0|2,1:1|2:2,0:0:0:0:
121,276,64238,1,10,2:2:0:0:
219,310,64458,2,0,P|273:349|336:327,1,140,2|2,2:2|2:2,0:0:0:0:
423,267,65120,1,8,2:2:0:0:
383,170,65341,1,2,2:2:0:0:
383,170,65561,6,0,L|397:100,1,70,2|2,1:2|2:2,0:0:0:0:
331,20,66002,2,0,P|301:38|267:40,1,70,10|2,2:2|2:2,0:0:0:0:
239,25,66333,2,0,B|209:31|209:31|204:34|204:34|171:43,1,70,2|0,2:2|0:0,0:0:0:0:
140,42,66664,1,2,2:2:0:0:
35,34,66885,1,10,2:2:0:0:
80,132,67105,6,0,P|97:162|95:196,1,70,2|0,2:2|1:1,0:0:0:0:
28,278,67547,2,0,L|96:293,1,70,2|8,2:2|2:2,0:0:0:0:
183,234,67988,2,0,P|235:190|303:199,1,140,2|2,2:2|2:2,0:0:0:0:
383,267,68649,1,10,2:2:0:0:
453,184,68870,1,2,1:2:0:0:
453,184,69091,6,0,L|437:115,1,70,0|2,1:1|2:2,0:0:0:0:
353,53,69532,2,0,P|318:49|289:67,1,70,8|2,2:2|2:2,0:0:0:0:
238,159,69973,1,2,1:2:0:0:
238,159,70194,2,0,L|253:227,1,70,2|8,2:2|2:2,0:0:0:0:
321,313,70635,6,0,B|242:297|264:347|187:332,1,140,2|2,2:2|2:2,0:0:0:0:
88,369,71297,1,10,2:2:0:0:
27,284,71517,2,0,B|52:258|52:258|47:207|38:146,1,140,2|2,2:2|2:2,0:0:0:0:
10,54,72179,1,10,2:2:0:0:
118,94,72399,1,2,2:2:0:0:
118,94,72510,1,2,2:2:0:0:
118,94,72620,6,0,P|152:84|187:78,1,70,4|2,1:2|1:2,0:0:0:0:
266,5,73061,2,0,P|299:14|334:20,1,70,10|2,2:2|1:2,0:0:0:0:
411,88,73502,1,0,1:1:0:0:
471,177,73723,1,2,1:2:0:0:
382,236,73944,1,10,2:2:0:0:
322,148,74164,1,2,1:2:0:0:
198,368,76149,6,0,P|168:358|137:352,1,62.9999980773926,4|2,1:2|2:2,0:0:0:0:
51,372,76591,2,0,P|36:343|19:317,1,62.9999980773926,10|2,2:2|0:0,0:0:0:0:
5,293,76922,2,0,P|26:250|52:211,1,94.499997116089,2|2,2:2|2:2,0:0:0:0:
126,157,77473,1,10,2:2:0:0:
126,157,77583,2,0,P|117:126|106:97,1,62.9999980773926,2|2,2:2|2:2,0:0:0:0:
103,69,77914,6,0,P|124:47|155:43,1,62.9999980773926,0|2,1:1|2:2,0:0:0:0:
234,84,78355,1,10,2:2:0:0:
234,84,78466,2,0,L|325:56,1,94.499997116089,2|0,2:2|1:1,0:0:0:0:
400,5,79017,1,0,0:0:0:0:
455,78,79238,2,0,L|449:108,1,31.4999990386963,10|2,2:2|2:2,0:0:0:0:
386,184,79569,6,0,L|411:274,1,94.499997116089,2|2,2:2|2:2,0:0:0:0:
473,339,80120,1,10,2:2:0:0:
473,339,80230,1,2,2:2:0:0:
397,384,80451,2,0,P|361:354|314:353,1,94.499997116089,2|2,2:2|2:2,0:0:0:0:
232,384,81002,2,0,L|202:378,1,31.4999990386963,10|2,2:2|2:2,0:0:0:0:
156,298,81333,6,0,P|153:251|182:216,1,94.499997116089,2|2,2:2|2:2,0:0:0:0:
261,168,81885,1,10,2:2:0:0:
228,83,82105,2,0,P|177:47|117:57,1,125.999996154785,2|0,2:2|0:0,0:0:0:0:
41,114,82767,1,8,2:2:0:0:
41,114,82988,1,0,1:1:0:0:
81,202,83208,6,0,L|55:304,1,105.000004005432,4|10,2:2|2:2,0:0:0:0:
172,323,83980,2,0,L|191:246,1,78.7500030040742,2|2,2:2|2:2,0:0:0:0:
256,192,84532,1,10,2:2:0:0:
350,270,84863,2,0,B|386:260|386:260|392:253|392:253|429:244,1,78.7500030040742,2|2,2:2|2:2,0:0:0:0:
481,184,85414,1,10,2:2:0:0:
404,79,85745,2,0,B|357:70|373:95|319:85,1,78.7500030040742,2|0,2:2|0:0,0:0:0:0:
260,35,86297,1,10,2:2:0:0:
192,88,86517,1,2,2:2:0:0:
192,88,86738,6,0,L|202:150,1,62.9999980773926,4|2,1:2|1:2,0:0:0:0:
279,211,87179,2,0,L|268:273,1,62.9999980773926,10|2,2:2|1:2,0:0:0:0:
197,335,87620,1,0,1:1:0:0:
137,258,87841,1,2,1:2:0:0:
65,319,88061,1,8,2:2:0:0:
0,234,88282,6,0,P|42:189|36:128,1,125.999996154785,4|2,1:2|1:2,0:0:0:0:
59,34,88944,1,10,2:2:0:0:
149,72,89164,2,0,B|173:57|200:64|200:64|193:49|193:49|224:58|249:44,1,125.999996154785,4|0,1:2|1:1,0:0:0:0:
344,25,89826,1,10,2:2:0:0:
344,25,89936,1,2,2:2:0:0:
344,25,90047,2,0,L|322:117,1,94.499997116089,4|2,1:2|1:2,0:0:0:0:
268,202,90598,1,2,2:2:0:0:
268,202,90708,1,10,2:2:0:0:
328,283,90929,1,4,1:2:0:0:
328,283,91039,6,0,P|333:328|306:366,1,94.499997116089,0|0,1:1|1:1,0:0:0:0:
221,300,91591,2,0,L|189:307,2,31.4999990386963,10|0|10,2:2|3:3|2:2,0:0:0:0:
116,192,92473,5,4,1:2:0:0:
256,192,92694,12,0,97326,0:0:0:0:
