osu file format v14

[General]
AudioFilename: audio.mp3
AudioLeadIn: 0
PreviewTime: 47252
Countdown: 0
SampleSet: Soft
StackLeniency: 0.7
Mode: 0
LetterboxInBreaks: 0
WidescreenStoryboard: 0

[Editor]
Bookmarks: 2913,97326
DistanceSpacing: 1
BeatDivisor: 2
GridSize: 16
TimelineZoom: 2

[Metadata]
Title:Colorful Days (feat. Tsuyuri Karin)
TitleUnicode:Colorful Days♪ (feat. つゆり花鈴)
Artist:P4koo
ArtistUnicode:P4koo
Creator:LeomineXD
Version:Easy
Source:G2R2018 Climax
Tags:圧倒的二次元 Attoteki attouteki nijigen colourful fa featured artist mappers' guild mpg mg japanese pop jpop j-pop jp amats Mizujin -_Aqua AqUa_M1X pakoo
BeatmapID:4389461
BeatmapSetID:2093577

[Difficulty]
HPDrainRate:2
CircleSize:2.5
OverallDifficulty:2
ApproachRate:4
SliderMultiplier:1
SliderTickRate:1

[Events]
//Background and Video events
0,0,"99023585_p0.jpg",0,0
//Break Periods
//Storyboard Layer 0 (Background)
//Storyboard Layer 1 (Fail)
//Storyboard Layer 2 (Pass)
//Storyboard Layer 3 (Foreground)
//Storyboard Layer 4 (Overlay)
//Storyboard Sound Samples

[TimingPoints]
3797,441.176470588236,4,2,1,50,1,0
10855,-100,4,2,1,75,0,0
16260,-100,4,2,1,78,0,0
19679,-117.647058823529,4,2,1,70,0,0
33797,-117.647058823529,4,2,1,60,0,0
40855,-117.647058823529,4,2,1,70,0,0
44164,-117.647058823529,4,2,1,78,0,0
47252,-117.647058823529,4,2,1,65,0,0
47914,-100,4,2,1,85,0,1
61591,-100,4,2,1,85,0,0
62032,-100,4,2,1,85,0,1
74385,-100,4,2,1,65,0,0
76149,-111.111111111111,4,2,1,70,0,0
83208,-111.111111111111,4,2,1,55,0,0
86738,-111.111111111111,4,2,1,75,0,0
88282,-111.111111111111,4,2,1,80,0,0
92473,-111.111111111111,4,2,1,70,0,0
97326,-111.111111111111,4,2,1,5,0,0

[Colours]
Combo1 : 255,85,231
Combo2 : 255,38,38
Combo3 : 67,72,255
Combo4 : 167,52,255

[HitObjects]
53,120,10855,6,0,P|22:82|27:34,2,100,4|10|2,1:2|2:2|1:2,0:0:0:0:
139,172,12179,1,8,2:2:0:0:
210,101,12620,2,0,L|307:121,1,100,0|10,1:1|2:2,0:0:0:0:
401,84,13502,2,0,P|449:85|477:124,1,100,0|8,1:1|2:2,0:0:0:0:
508,220,14385,6,0,P|495:268|484:317,1,100,2|10,1:2|2:2,0:0:0:0:
394,361,15267,1,0,1:1:0:0:
289,253,15929,2,0,B|258:282|219:266|219:266|180:250|150:279,2,150,4|10|0,1:2|2:2|3:3,0:0:0:0:
352,175,17694,1,10,0:2:0:0:
90,311,19679,6,0,L|174:298,1,85.0000016212464,4|10,1:2|2:2,0:0:0:0:
249,338,20561,2,0,L|333:325,1,85.0000016212464,2|8,1:2|2:2,0:0:0:0:
401,274,21444,2,0,L|485:286,2,85.0000016212464,2|8|2,1:2|2:2|1:2,0:0:0:0:
354,202,22767,1,8,2:2:0:0:
416,144,23208,6,0,P|435:107|426:66,1,85.0000016212464,0|10,1:1|2:2,0:0:0:0:
362,9,24091,2,0,L|278:24,1,85.0000016212464,2|10,1:2|2:2,0:0:0:0:
213,79,24973,2,0,L|129:63,1,85.0000016212464,0|10,1:1|2:2,0:0:0:0:
46,44,25855,1,10,3:2:0:0:
0,117,26297,1,10,3:2:0:0:
43,190,26738,6,0,L|22:272,1,85.0000016212464,4|10,1:2|2:2,0:0:0:0:
85,330,27620,2,0,P|116:302|158:297,1,85.0000016212464,2|8,1:2|2:2,0:0:0:0:
243,298,28502,2,0,B|233:335|233:335|234:344|234:344|224:385,2,85.0000016212464,2|8|2,1:2|2:2|1:2,0:0:0:0:
299,234,29826,1,10,2:2:0:0:
239,173,30267,6,0,B|189:185|212:193|159:205,1,85.0000016212464,0|10,1:1|2:2,0:0:0:0:
83,171,31149,1,0,1:1:0:0:
125,50,31811,2,0,P|166:40|207:31,1,85.0000016212464,4|2,1:2|2:2,0:0:0:0:
285,66,32694,2,0,P|346:51|409:37,1,127.50000243187,2|2,2:2|2:2,0:0:0:0:
487,72,33797,6,0,B|498:116|470:151|470:151|441:187|453:231,1,170.000003242493,4|2,1:2|2:2,0:0:0:0:
497,304,35120,1,8,2:2:0:0:
436,364,35561,2,0,P|353:342|270:328,1,170.000003242493,0|2,0:0|2:2,0:0:0:0:
209,267,36885,1,10,2:2:0:0:
134,307,37326,6,0,L|51:286,1,85.0000016212464,2|8,1:2|2:2,0:0:0:0:
0,218,38208,1,2,2:2:0:0:
89,127,38870,2,0,P|130:136|171:147,1,85.0000016212464,2|2,1:2|2:2,0:0:0:0:
244,191,39752,2,0,P|306:177|367:159,1,127.50000243187,2|2,1:2|1:2,0:0:0:0:
419,92,40855,6,0,P|393:58|396:17,2,85.0000016212464,4|10|2,1:2|2:2|1:2,0:0:0:0:
490,137,42179,1,10,2:2:0:0:
447,210,42620,2,0,L|467:292,1,85.0000016212464,0|8,1:1|2:2,0:0:0:0:
419,362,43502,1,0,1:1:0:0:
309,296,44164,6,0,B|279:302|245:294|245:294|219:316|189:323,1,127.50000243187,4|10,1:2|2:2,0:0:0:0:
110,290,45267,1,0,1:1:0:0:
148,214,45708,2,0,L|130:166,1,42.5000008106232,10|2,2:2|1:2,0:0:0:0:
453,250,47914,6,0,L|476:152,1,100,4|10,1:2|2:2,0:0:0:0:
427,64,48797,2,0,P|385:38|336:43,1,100,2|8,1:2|2:2,0:0:0:0:
255,101,49679,1,0,1:1:0:0:
184,30,50120,1,10,2:2:0:0:
113,101,50561,2,0,L|15:78,1,100,0|8,1:1|2:2,0:0:0:0:
0,177,51444,6,0,L|98:200,1,100,2|10,1:2|2:2,0:0:0:0:
181,254,52326,1,0,0:0:0:0:
267,201,52767,1,10,2:2:0:0:
344,266,53208,2,0,P|385:292|433:288,1,100,0|10,1:1|2:2,0:0:0:0:
504,217,54091,2,0,B|489:176|489:176|492:163|492:163|477:123,1,100,0|10,1:1|2:2,0:0:0:0:
405,52,54973,6,0,P|366:81|316:77,1,100,0|10,1:0|0:2,0:0:0:0:
245,9,55855,1,2,1:2:0:0:
146,25,56297,1,8,2:2:0:0:
95,112,56738,2,0,P|47:97|-1:84,2,100,0|10|0,1:1|2:2|1:1,0:0:0:0:
153,193,58061,1,10,2:2:0:0:
201,280,58502,2,0,P|249:292|297:307,1,100,0|10,1:1|2:2,0:0:0:0:
360,229,59385,1,0,1:1:0:0:
259,116,60047,6,0,B|230:113|202:131|202:131|186:158|186:158|160:180|124:177,1,150,4|10,1:2|2:2,0:0:0:0:
38,143,61149,1,2,0:0:0:0:
27,43,61591,1,10,2:2:0:0:
120,4,62032,6,0,B|181:14|158:27|217:36,1,100,4|10,1:2|2:2,0:0:0:0:
308,1,62914,2,0,L|406:20,1,100,2|8,1:2|2:2,0:0:0:0:
476,91,63797,1,0,1:1:0:0:
417,172,64238,1,10,2:2:0:0:
463,260,64679,2,0,P|470:308|443:349,1,100,0|8,1:1|2:2,0:0:0:0:
345,328,65561,6,0,L|247:350,1,100,2|10,1:2|2:2,0:0:0:0:
169,286,66444,1,0,1:0:0:0:
223,202,66885,1,10,2:2:0:0:
152,137,67326,2,0,L|54:159,1,100,0|8,1:1|2:2,0:0:0:0:
29,62,68208,2,0,L|127:40,1,100,0|10,1:1|2:2,0:0:0:0:
220,74,69091,6,0,L|318:52,1,100,0|10,1:1|2:2,0:0:0:0:
407,9,69973,1,2,1:2:0:0:
470,85,70414,1,8,2:2:0:0:
428,175,70855,2,0,P|459:213|459:262,2,100,0|10|0,1:1|2:2|1:1,0:0:0:0:
336,135,72179,1,10,2:2:0:0:
285,221,72620,5,4,1:2:0:0:
194,178,73061,1,10,2:2:0:0:
241,89,73502,2,0,P|245:40|219:-1,1,100,0|10,1:1|2:2,0:0:0:0:
121,18,74385,1,2,3:2:0:0:
271,356,76149,6,0,P|314:345|359:337,1,89.9999972534181,4|10,1:2|2:2,0:0:0:0:
424,275,77032,2,0,P|388:249|376:206,1,89.9999972534181,0|10,1:1|2:2,0:0:0:0:
421,129,77914,2,0,P|465:137|509:147,2,89.9999972534181,0|10|0,1:1|2:2|1:1,0:0:0:0:
360,62,79238,1,10,2:2:0:0:
280,103,79679,6,0,P|236:93|191:84,1,89.9999972534181,0|10,1:1|2:2,0:0:0:0:
119,31,80561,2,0,P|75:37|46:70,1,89.9999972534181,0|10,1:1|2:2,0:0:0:0:
0,148,81444,1,0,1:1:0:0:
63,211,81885,1,10,2:2:0:0:
5,280,82326,2,0,P|19:322|32:365,1,89.9999972534181,0|8,1:1|2:2,0:0:0:0:
112,325,83208,6,0,B|210:309|171:380|281:361,1,179.999994506836,4|2,2:2|0:0,0:0:0:0:
344,297,84532,1,10,2:2:0:0:
280,233,84973,2,0,P|223:167|247:84,1,179.999994506836
313,23,86297,1,10,2:2:0:0:
399,47,86738,6,0,P|433:74|441:118,1,89.9999972534181,4|10,1:2|2:2,0:0:0:0:
395,195,87620,1,0,1:1:0:0:
269,145,88282,2,0,L|182:169,1,89.9999972534181,4|2,1:2|1:2,0:0:0:0:
98,136,89164,2,0,P|54:133|19:160,1,89.9999972534181,4|0,1:2|1:1,0:0:0:0:
0,248,90047,2,0,L|24:335,1,89.9999972534181,4|2,1:2|2:2,0:0:0:0:
110,309,90929,2,0,B|159:298|146:331|198:316,1,89.9999972534181,4|0,1:2|3:3,0:0:0:0:
272,268,91811,1,10,2:2:0:0:
192,159,92473,5,4,1:2:0:0:
256,192,92694,12,0,97326,0:0:0:0:
