osu file format v14

[General]
AudioFilename: audio.mp3
AudioLeadIn: 0
PreviewTime: 47252
Countdown: 0
SampleSet: Soft
StackLeniency: 0.7
Mode: 0
LetterboxInBreaks: 0
WidescreenStoryboard: 0

[Editor]
Bookmarks: 2913,19679,33797,47914,76149,97326
DistanceSpacing: 1.3
BeatDivisor: 4
GridSize: 16
TimelineZoom: 1.7

[Metadata]
Title:Colorful Days (feat. Tsuyuri Karin)
TitleUnicode:Colorful Days♪ (feat. つゆり花鈴)
Artist:P4koo
ArtistUnicode:P4koo
Creator:LeomineXD
Version:Collab Hyper
Source:G2R2018 Climax
Tags:圧倒的二次元 Attoteki attouteki nijigen colourful fa featured artist mappers' guild mpg mg japanese pop jpop j-pop jp amats Mizujin -_Aqua AqUa_M1X pakoo
BeatmapID:4389460
BeatmapSetID:2093577

[Difficulty]
HPDrainRate:4.5
CircleSize:3.6
OverallDifficulty:6.5
ApproachRate:8
SliderMultiplier:1.5
SliderTickRate:1

[Events]
//Background and Video events
0,0,"99023585_p0.jpg",0,0
//Break Periods
2,17894,18929
2,74585,75399
//Storyboard Layer 0 (Background)
//Storyboard Layer 1 (Fail)
//Storyboard Layer 2 (Pass)
//Storyboard Layer 3 (Foreground)
//Storyboard Layer 4 (Overlay)
//Storyboard Sound Samples

[TimingPoints]
3797,441.176470588236,4,2,1,50,1,0
3797,-125,4,2,1,50,0,0
10855,-125,4,2,1,70,0,0
16149,-105.263157894737,4,2,1,70,0,0
16260,-105.263157894737,4,2,1,78,0,0
19679,-117.647058823529,4,2,1,70,0,0
33797,-142.857142857143,4,2,1,60,0,0
40855,-117.647058823529,4,2,1,70,0,0
44164,-105.263157894737,4,2,1,78,0,0
47252,-125,4,2,1,65,0,0
47914,-86.9565217391303,4,2,1,85,0,1
61591,-86.9565217391303,4,2,1,85,0,0
62032,-86.9565217391303,4,2,1,85,0,1
74385,-125,4,2,1,65,0,0
76149,-111.111111111111,4,2,1,70,0,0
83208,-133.333333333333,4,2,1,55,0,0
86738,-100,4,2,1,75,0,0
88282,-100,4,2,1,80,0,0
92473,-100,4,2,1,70,0,0
97326,-100,4,2,1,5,0,0

[Colours]
Combo1 : 255,85,231
Combo2 : 255,38,38
Combo3 : 67,72,255
Combo4 : 167,52,255

[HitObjects]
295,69,3797,6,0,P|323:58|352:53,1,60,6|0,2:2|0:0,0:0:0:0:
424,107,4238,2,0,P|452:116|482:120,1,60,2|0,2:2|0:0,0:0:0:0:
358,174,4679,2,0,P|356:203|369:230,1,60,2|0,2:2|0:0,0:0:0:0:
395,254,5010,2,0,L|382:312,1,60,2|0,2:2|0:0,0:0:0:0:
367,342,5341,1,2,2:2:0:0:
220,229,5782,1,2,2:2:0:0:
264,154,6002,1,2,2:2:0:0:
203,88,6223,2,0,P|145:104|86:115,1,120,2|2,2:2|2:2,0:0:0:0:
18,178,6885,2,0,P|33:203|34:233,1,60,2|2,2:2|2:2,0:0:0:0:
0,320,7326,6,0,B|69:326|38:367|108:375,1,120,2|2,2:2|2:2,0:0:0:0:
182,327,7988,1,2,2:2:0:0:
182,327,8098,1,2,2:2:0:0:
182,327,8208,2,0,P|193:354|194:384,1,60,2|2,2:2|2:2,0:0:0:0:
116,261,8649,1,2,2:2:0:0:
177,195,8870,6,0,P|235:206|294:220,1,120,2|2,2:2|2:2,0:0:0:0:
362,280,9532,1,2,2:2:0:0:
442,223,9752,1,2,2:2:0:0:
446,215,9863,1,2,2:2:0:0:
451,207,9973,2,0,L|444:177,3,30,2|2|2|0,2:2|2:2|2:2|0:0,0:0:0:0:
455,146,10414,1,2,2:2:0:0:
483,60,10635,1,2,1:2:0:0:
375,87,10855,6,0,P|345:91|316:98,1,60,4|0,1:2|0:0,0:0:0:0:
245,41,11297,2,0,P|215:45|186:52,1,60,10|0,2:2|0:0,0:0:0:0:
124,117,11738,2,0,P|79:111|35:102,1,90,2|2,1:2|2:2,0:0:0:0:
2,92,12179,1,8,2:2:0:0:
28,187,12399,1,2,2:2:0:0:
28,187,12620,6,0,L|87:196,1,60,0|2,1:1|2:2,0:0:0:0:
163,246,13061,1,10,2:2:0:0:
235,187,13282,2,0,B|263:201|268:233|268:233|273:265|302:279,1,120,2|2,2:2|2:2,0:0:0:0:
382,335,13944,1,8,2:2:0:0:
382,335,14054,1,2,2:2:0:0:
382,335,14164,1,2,2:2:0:0:
462,282,14385,6,0,L|445:223,1,60,2|0,1:2|0:0,0:0:0:0:
392,153,14826,1,10,2:2:0:0:
392,153,14936,2,0,L|408:94,1,60,2|2,2:2|2:2,0:0:0:0:
386,26,15267,2,0,P|361:10|331:11,1,60,0|2,1:1|2:2,0:0:0:0:
256,73,15708,1,10,2:2:0:0:
256,73,15819,1,2,2:2:0:0:
256,73,15929,5,4,1:2:0:0:
118,16,16260,1,0,1:1:0:0:
118,16,16370,2,0,L|82:22,1,35.6249990487099,2|0,3:2|3:3,0:0:0:0:
37,82,16591,2,0,P|55:111|56:147,1,71.2499980974198,10|4,2:2|1:2,0:0:0:0:
56,147,16922,1,2,1:2:0:0:
142,244,17142,1,0,1:1:0:0:
142,244,17252,2,0,L|177:237,1,35.6249990487099,0|0,3:3|3:3,0:0:0:0:
251,224,17473,1,10,2:2:0:0:
312,353,17694,1,10,2:2:0:0:
312,353,19679,5,4,1:2:0:0:
379,308,19899,1,2,2:2:0:0:
447,351,20120,2,0,P|478:357|509:364,1,63.7500012159348,10|2,2:2|2:2,0:0:0:0:
512,255,20561,2,0,P|504:224|497:192,1,63.7500012159348,2|2,1:2|0:0,0:0:0:0:
472,167,20892,1,2,0:0:0:0:
472,167,21002,2,0,P|465:135|457:104,1,63.7500012159348,8|2,2:2|2:2,0:0:0:0:
385,0,21444,5,2,1:2:0:0:
319,46,21664,2,0,B|248:61|281:91|212:110,1,127.50000243187,2|2,2:2|2:2,0:0:0:0:
80,69,22326,1,2,1:2:0:0:
122,0,22547,2,0,P|178:20|180:80,1,127.50000243187,2|2,2:2|0:0,0:0:0:0:
212,109,23098,1,2,0:0:0:0:
212,109,23208,5,0,1:1:0:0:
166,175,23429,1,2,2:2:0:0:
216,238,23649,2,0,P|247:244|278:252,1,63.7500012159348,10|2,2:2|2:2,0:0:0:0:
160,173,24091,2,0,P|113:183|66:193,1,95.6250018239022,2|0,1:2|0:0,0:0:0:0:
30,214,24532,1,10,2:2:0:0:
129,373,24752,6,0,B|142:359|154:349|154:349|142:304|134:258,1,127.50000243187,2|2,2:2|2:2,0:0:0:0:
60,114,25414,1,10,2:2:0:0:
133,75,25635,1,2,2:2:0:0:
133,75,25745,1,2,0:0:0:0:
133,75,25855,2,0,P|163:83|194:90,1,63.7500012159348,10|2,3:2|0:0,0:0:0:0:
224,126,26186,1,2,0:0:0:0:
224,126,26297,2,0,P|255:133|285:141,1,63.7500012159348,10|2,3:2|0:0,0:0:0:0:
433,184,26738,5,4,1:2:0:0:
478,116,26958,1,2,2:2:0:0:
433,184,27179,2,0,P|439:215|444:246,1,63.7500012159348,10|2,2:2|2:2,0:0:0:0:
486,372,27620,2,0,P|461:351|430:345,1,63.7500012159348,2|2,1:2|0:0,0:0:0:0:
399,326,27951,1,2,0:0:0:0:
399,326,28061,2,0,P|371:341|340:342,1,63.7500012159348,8|2,2:2|2:2,0:0:0:0:
208,272,28502,5,2,1:2:0:0:
273,225,28723,2,0,P|259:287|247:349,1,127.50000243187,2|2,2:2|2:2,0:0:0:0:
150,216,29385,1,2,1:2:0:0:
150,216,29826,1,10,2:2:0:0:
229,133,30047,1,2,2:2:0:0:
146,43,30267,6,0,P|114:37|83:28,1,63.7500012159348,0|2,1:1|2:2,0:0:0:0:
0,98,30708,2,0,P|9:128|15:159,1,63.7500012159348,10|2,2:2|2:2,0:0:0:0:
50,191,31039,1,2,2:2:0:0:
50,191,31149,2,0,P|56:222|65:252,1,63.7500012159348,0|2,1:1|2:2,0:0:0:0:
75,297,31480,1,2,2:2:0:0:
75,297,31591,1,8,2:2:0:0:
184,377,31811,6,0,B|254:361|219:334|294:318,1,127.50000243187,4|2,1:2|2:2,0:0:0:0:
338,331,32363,1,2,2:2:0:0:
338,331,32473,1,2,2:2:0:0:
485,376,32694,6,0,P|497:313|513:251,1,127.50000243187,2|0,2:2|1:1,0:0:0:0:
387,190,33355,2,0,P|392:206|395:222,1,31.8750006079674,2|0,2:2|0:0,0:0:0:0:
405,255,33576,1,0,1:1:0:0:
472,112,33797,6,0,P|468:61|424:36,1,104.999996795654,4|8,1:2|2:2,0:0:0:0:
338,18,34458,1,2,2:2:0:0:
338,18,34679,2,0,L|286:28,1,52.4999983978272,2|0,2:2|1:1,0:0:0:0:
256,44,35010,2,0,L|204:33,1,52.4999983978272,2|0,2:2|0:0,0:0:0:0:
177,13,35341,6,0,B|122:22|136:38|77:48,1,104.999996795654,2|0,1:2|0:0,0:0:0:0:
9,107,36002,1,8,2:2:0:0:
79,212,36223,1,2,2:2:0:0:
155,176,36444,1,2,2:2:0:0:
204,244,36664,1,2,1:2:0:0:
159,315,36885,2,0,L|170:366,1,52.4999983978272,10|0,2:2|1:1,0:0:0:0:
204,244,37326,6,0,P|254:256|305:271,1,104.999996795654,2|8,1:2|2:2,0:0:0:0:
378,323,37988,1,2,2:2:0:0:
447,263,38208,2,0,P|440:237|433:212,2,52.4999983978272,2|2|10,2:2|1:2|2:2,0:0:0:0:
346,183,38870,2,0,P|367:136|415:117,1,104.999996795654,2|2,1:2|2:2,0:0:0:0:
479,55,39532,1,10,2:2:0:0:
366,0,39752,2,0,B|319:8|319:8|309:16|309:16|265:25,1,104.999996795654,2|0,1:2|1:1,0:0:0:0:
171,71,40414,2,0,L|163:46,1,26.2499991989136,2|2,1:2|2:2,0:0:0:0:
155,21,40635,1,2,2:2:0:0:
245,136,40855,6,0,L|225:196,1,63.7500012159348,4|2,1:2|2:2,0:0:0:0:
140,247,41297,1,10,2:2:0:0:
38,188,41517,1,2,2:2:0:0:
38,188,41738,2,0,B|17:207|17:207|25:278,1,95.6250018239022,2|0,1:2|0:0,0:0:0:0:
29,306,42179,1,10,2:2:0:0:
132,381,42399,1,2,2:2:0:0:
132,381,42620,6,0,P|162:371|193:364,1,63.7500012159348,0|2,1:1|2:2,0:0:0:0:
212,365,42951,1,2,2:2:0:0:
231,367,43061,1,8,2:2:0:0:
297,281,43282,1,0,0:0:0:0:
204,226,43502,2,0,P|188:198|191:167,1,63.7500012159348,0|2,1:1|2:2,0:0:0:0:
271,67,43944,1,10,2:2:0:0:
271,67,44054,1,2,2:2:0:0:
271,67,44164,6,0,B|332:75|311:38|382:49,1,106.87499714613,4|0,1:2|0:0,0:0:0:0:
405,53,44605,1,2,1:2:0:0:
484,135,44826,2,0,L|465:203,1,71.2499980974198,10|10,2:2|2:2,0:0:0:0:
453,219,45157,1,2,2:2:0:0:
441,234,45267,1,0,1:1:0:0:
340,174,45488,1,2,1:2:0:0:
233,159,45708,1,10,2:2:0:0:
158,235,45929,1,2,1:2:0:0:
300,347,47252,5,2,2:2:0:0:
300,347,47473,6,0,L|329:352,1,30,2|2,2:2|2:2,0:0:0:0:
231,293,47694,6,0,L|201:298,1,30,2|2,2:2|2:2,0:0:0:0:
292,227,47914,6,0,L|306:141,1,86.2500016450882,4|0,1:2|0:0,0:0:0:0:
216,4,48355,2,0,P|251:55|313:53,1,129.375002467632,10|0,2:2|0:0,0:0:0:0:
391,71,48797,2,0,P|426:48|467:56,1,86.2500016450882,2|0,1:2|0:0,0:0:0:0:
512,129,49127,1,2,2:2:0:0:
512,129,49238,1,8,2:2:0:0:
438,254,49458,6,0,P|397:264|355:277,1,86.2500016450882,2|0,2:2|1:1,0:0:0:0:
240,357,49899,1,2,2:2:0:0:
349,272,50120,1,10,2:2:0:0:
257,160,50341,2,0,P|214:159|183:187,1,86.2500016450882,2|0,2:2|1:1,0:0:0:0:
264,278,50782,1,2,2:2:0:0:
264,278,50892,1,2,2:2:0:0:
264,278,51002,1,8,2:2:0:0:
340,180,51223,1,2,2:2:0:0:
183,187,51444,5,2,1:2:0:0:
296,76,51664,1,2,2:2:0:0:
168,17,51885,2,0,P|125:8|83:0,1,86.2500016450882,10|2,2:2|2:2,0:0:0:0:
21,49,52216,1,2,2:2:0:0:
21,49,52326,2,0,P|30:91|38:133,1,86.2500016450882,0|2,1:1|2:2,0:0:0:0:
101,230,52767,1,10,2:2:0:0:
10,366,52988,6,0,P|46:344|94:343,1,86.2500016450882,2|0,2:2|1:1,0:0:0:0:
223,384,53429,1,2,2:2:0:0:
337,288,53649,1,10,2:2:0:0:
228,211,53870,2,0,P|238:252|245:295,1,86.2500016450882,2|0,2:2|1:1,0:0:0:0:
338,381,54311,1,2,2:2:0:0:
338,381,54422,1,2,2:2:0:0:
338,381,54532,1,10,2:2:0:0:
454,303,54752,1,2,1:2:0:0:
391,161,54973,6,0,P|348:152|306:142,1,86.2500016450882,0|2,1:1|2:2,0:0:0:0:
215,32,55414,1,10,2:2:0:0:
301,144,55635,1,2,2:2:0:0:
122,215,55855,2,0,P|116:194|109:173,1,43.1250008225441,2|0,1:2|0:0,0:0:0:0:
181,136,56076,2,0,P|186:156|193:177,1,43.1250008225441,2|0,2:2|0:0,0:0:0:0:
112,87,56297,1,8,2:2:0:0:
217,257,56517,1,2,2:2:0:0:
62,352,56738,5,0,1:1:0:0:
62,352,56958,1,2,2:2:0:0:
139,297,57179,1,10,2:2:0:0:
231,366,57399,2,0,P|273:372|315:382,1,86.2500016450882,2|0,2:2|1:1,0:0:0:0:
441,345,57841,1,2,2:2:0:0:
441,345,57951,1,2,2:2:0:0:
441,345,58061,2,0,P|433:302|427:259,1,86.2500016450882,10|2,2:2|2:2,0:0:0:0:
404,98,58502,6,0,P|378:64|336:58,1,86.2500016450882,0|2,1:1|2:2,0:0:0:0:
232,0,58944,2,0,P|194:19|181:59,1,86.2500016450882,10|2,2:2|2:2,0:0:0:0:
112,97,59274,1,2,2:2:0:0:
112,97,59386,2,0,P|120:138|155:160,1,86.2500016450882,0|2,1:1|2:2,0:0:0:0:
204,231,59716,1,2,2:2:0:0:
204,231,59826,1,8,2:2:0:0:
376,161,60047,6,0,B|414:152|414:152|421:148|421:148|459:139,1,86.2500016450882,4|0,1:2|0:0,0:0:0:0:
492,67,60377,2,0,L|501:23,2,43.1250008225441,0|2|0,1:1|3:2|3:3,0:0:0:0:
464,144,60708,1,10,2:2:0:0:
512,259,60929,1,0,3:3:0:0:
512,259,61039,1,4,1:2:0:0:
405,364,61260,1,0,1:1:0:0:
389,366,61370,1,2,3:2:0:0:
374,368,61480,1,0,3:3:0:0:
358,370,61591,6,0,L|315:362,1,43.1250008225441,10|0,2:2|0:0,0:0:0:0:
250,315,61811,2,0,L|207:322,1,43.1250008225441,10|2,2:2|0:0,0:0:0:0:
95,370,62032,6,0,P|53:367|29:333,1,86.2500016450882,4|0,1:2|0:0,0:0:0:0:
155,166,62473,2,0,P|140:229|128:292,1,129.375002467632,10|0,2:2|0:0,0:0:0:0:
58,256,62914,2,0,P|67:213|75:171,1,86.2500016450882,2|0,1:2|0:0,0:0:0:0:
110,102,63245,1,2,2:2:0:0:
110,102,63355,1,8,2:2:0:0:
225,208,63576,6,0,B|267:222|267:222|302:199,1,86.2500016450882,2|0,2:2|1:1,0:0:0:0:
393,59,64017,1,2,2:2:0:0:
257,119,64238,1,10,2:2:0:0:
386,244,64458,2,0,P|428:253|469:265,1,86.2500016450882,2|0,2:2|1:1,0:0:0:0:
385,156,64899,1,2,2:2:0:0:
385,156,65010,1,2,2:2:0:0:
385,156,65120,1,8,2:2:0:0:
478,273,65341,1,2,2:2:0:0:
322,362,65561,5,2,1:2:0:0:
216,247,65782,1,2,2:2:0:0:
108,337,66002,2,0,P|70:355|31:340,1,86.2500016450882,10|2,2:2|2:2,0:0:0:0:
0,273,66333,1,2,2:2:0:0:
0,273,66444,2,0,P|11:231|19:189,1,86.2500016450882,0|2,1:1|2:2,0:0:0:0:
36,49,66885,1,10,2:2:0:0:
176,140,67105,6,0,P|218:148|260:159,1,86.2500016450882,2|0,2:2|1:1,0:0:0:0:
405,98,67547,1,2,2:2:0:0:
263,167,67767,1,8,2:2:0:0:
420,282,67988,2,0,P|409:240|401:197,1,86.2500016450882,2|0,2:2|1:1,0:0:0:0:
337,311,68429,1,2,2:2:0:0:
337,311,68539,1,2,2:2:0:0:
337,311,68649,1,10,2:2:0:0:
488,219,68870,1,2,1:2:0:0:
357,114,69091,6,0,P|314:114|279:138,1,86.2500016450882,0|2,1:1|2:2,0:0:0:0:
190,234,69532,2,0,P|150:250|109:241,1,86.2500016450882,8|2,2:2|2:2,0:0:0:0:
13,129,69973,2,0,P|19:108|25:87,1,43.1250008225441,2|0,1:2|0:0,0:0:0:0:
105,94,70194,2,0,P|98:114|92:135,1,43.1250008225441,2|0,2:2|0:0,0:0:0:0:
47,199,70414,1,8,2:2:0:0:
93,12,70635,6,0,P|133:0|169:19,1,86.2500016450882,2|0,2:2|1:1,0:0:0:0:
257,132,71076,1,2,2:2:0:0:
401,44,71297,1,10,2:2:0:0:
447,198,71517,2,0,P|436:239|428:282,1,86.2500016450882,2|0,2:2|1:1,0:0:0:0:
341,378,71958,1,2,2:2:0:0:
341,378,72069,1,2,2:2:0:0:
341,378,72179,1,10,2:2:0:0:
205,311,72399,1,2,2:2:0:0:
359,224,72620,5,4,1:2:0:0:
288,296,72841,1,2,1:2:0:0:
175,156,73061,1,10,2:2:0:0:
270,209,73282,1,2,1:2:0:0:
405,129,73502,2,0,P|415:86|427:45,1,86.2500016450882,0|2,1:1|1:2,0:0:0:0:
362,0,73833,1,2,2:2:0:0:
362,0,73944,2,0,P|342:5|320:9,1,43.1250008225441,10|0,2:2|0:0,0:0:0:0:
266,69,74164,2,0,P|245:72|224:78,1,43.1250008225441,2|0,1:2|0:0,0:0:0:0:
119,33,74385,5,2,3:2:0:0:
256,192,76149,5,4,1:2:0:0:
166,145,76370,1,2,2:2:0:0:
108,228,76591,1,10,2:2:0:0:
108,228,76701,1,2,2:2:0:0:
5,163,76922,2,0,L|34:66,1,101.249996910095,2|2,2:2|2:2,0:0:0:0:
118,15,77473,1,10,2:2:0:0:
118,15,77583,2,0,P|144:34|177:36,1,67.4999979400635,2|2,2:2|2:2,0:0:0:0:
243,0,77914,6,0,L|308:14,1,67.4999979400635,0|2,1:1|2:2,0:0:0:0:
413,5,78355,1,10,2:2:0:0:
413,5,78466,1,2,2:2:0:0:
335,102,78686,2,0,P|329:151|359:191,1,101.249996910095,2|0,2:2|0:0,0:0:0:0:
427,120,79238,1,10,2:2:0:0:
427,120,79348,2,0,L|492:105,1,67.4999979400635,2|2,2:2|2:2,0:0:0:0:
512,181,79679,6,0,L|446:195,1,67.4999979400635,0|2,1:1|2:2,0:0:0:0:
372,270,80120,1,10,2:2:0:0:
372,270,80230,1,2,2:2:0:0:
264,207,80451,2,0,L|286:108,1,101.249996910095,2|2,2:2|2:2,0:0:0:0:
213,24,81002,1,10,2:2:0:0:
213,24,81113,2,0,P|179:24|152:43,1,67.4999979400635,2|2,2:2|2:2,0:0:0:0:
86,81,81444,6,0,L|100:146,1,67.4999979400635,0|2,1:1|2:2,0:0:0:0:
169,222,81885,1,10,2:2:0:0:
65,269,82105,2,0,B|40:262|28:236|28:236|41:275|43:321,1,134.999995880127,2|0,2:2|0:0,0:0:0:0:
136,383,82767,2,0,L|169:376,1,33.7499989700318,8|0,2:2|0:0,0:0:0:0:
234,333,82988,2,0,L|267:326,1,33.7499989700318,0|0,1:1|0:0,0:0:0:0:
340,357,83208,6,0,L|395:346,2,56.2500021457673,4|2|10,2:2|2:2|2:2,0:0:0:0:
294,230,83980,2,0,L|376:213,1,84.3750032186509,2|2,2:2|2:2,0:0:0:0:
442,164,84532,2,0,L|469:169,1,28.1250010728836,10|2,2:2|2:2,0:0:0:0:
366,66,84863,2,0,B|317:75|339:89|289:99,1,84.3750032186509,2|2,2:2|2:2,0:0:0:0:
221,50,85414,2,0,L|226:22,1,28.1250010728836,10|2,2:2|2:2,0:0:0:0:
113,115,85745,2,0,P|124:155|132:197,1,84.3750032186509,2|0,2:2|0:0,0:0:0:0:
206,249,86297,1,10,2:2:0:0:
263,183,86517,1,2,2:2:0:0:
358,245,86738,5,4,1:2:0:0:
358,245,86958,1,2,1:2:0:0:
419,150,87179,1,10,2:2:0:0:
419,150,87399,1,2,1:2:0:0:
324,88,87620,1,0,1:1:0:0:
324,88,87841,1,2,1:2:0:0:
263,183,88061,1,8,2:2:0:0:
173,121,88282,6,0,B|173:90|201:67|201:67|181:61|181:61|207:39|207:2,1,150,4|2,1:2|1:2,0:0:0:0:
207,2,88944,1,10,2:2:0:0:
86,130,89164,2,0,P|119:194|190:205,1,150,4|0,1:2|1:1,0:0:0:0:
190,205,89826,1,10,2:2:0:0:
305,97,90047,2,0,P|342:94|375:111,1,75,4|0,1:2|0:0,0:0:0:0:
455,121,90377,2,0,P|469:155|465:191,1,75,2|2,1:2|2:2,0:0:0:0:
422,258,90708,1,10,2:2:0:0:
296,340,90929,1,4,1:2:0:0:
296,340,91039,6,0,B|264:334|264:334|255:325|255:325|225:320,1,75,0|0,1:1|1:1,0:0:0:0:
153,360,91370,2,0,L|116:351,1,37.5,0|0,3:3|3:3,0:0:0:0:
70,285,91591,2,0,L|78:248,1,37.5,10|0,2:2|3:3,0:0:0:0:
136,190,91811,1,10,2:2:0:0:
345,266,92473,5,4,1:2:0:0:
256,192,92694,12,0,97326,0:0:0:0:
