osu file format v14

[General]
AudioFilename: audio.mp3
AudioLeadIn: 0
PreviewTime: 47252
Countdown: 0
SampleSet: Soft
StackLeniency: 0.7
Mode: 0
LetterboxInBreaks: 0
WidescreenStoryboard: 1

[Editor]
Bookmarks: 2913,97326
DistanceSpacing: 1.2
BeatDivisor: 4
GridSize: 16
TimelineZoom: 1.7

[Metadata]
Title:Colorful Days (feat. Tsuyuri Karin)
TitleUnicode:Colorful Days♪ (feat. つゆり花鈴)
Artist:P4koo
ArtistUnicode:P4koo
Creator:LeomineXD
Version:Amats' Sunrise
Source:G2R2018 Climax
Tags:圧倒的二次元 Attoteki attouteki nijigen colourful fa featured artist mappers' guild mpg mg japanese pop jpop j-pop jp amats Mizujin -_Aqua AqUa_M1X pakoo
BeatmapID:4389459
BeatmapSetID:2093577

[Difficulty]
HPDrainRate:5
CircleSize:3.8
OverallDifficulty:7.5
ApproachRate:8.5
SliderMultiplier:1.8
SliderTickRate:1

[Events]
//Background and Video events
0,0,"99023585_p0.jpg",0,0
//Break Periods
2,18004,19004
//Storyboard Layer 0 (Background)
//Storyboard Layer 1 (Fail)
//Storyboard Layer 2 (Pass)
//Storyboard Layer 3 (Foreground)
//Storyboard Layer 4 (Overlay)
//Storyboard Sound Samples

[TimingPoints]
3797,441.176470588236,4,2,1,50,1,0
3797,-125,4,2,1,50,0,0
10855,-111.111111111111,4,2,1,75,0,0
16260,-111.111111111111,4,2,1,78,0,0
19679,-125,4,2,1,70,0,0
33797,-142.857142857143,4,2,1,60,0,0
40855,-100,4,2,1,70,0,0
44164,-100,4,2,1,78,0,0
47252,-100,4,2,1,65,0,0
47914,-83.3333333333333,4,2,1,85,0,1
61591,-83.3333333333333,4,2,1,85,0,0
62032,-83.3333333333333,4,2,1,85,0,1
74385,-83.3333333333333,4,2,1,65,0,0
76149,-83.3333333333333,4,2,1,70,0,0
83208,-83.3333333333333,4,2,1,55,0,0
83649,-100,4,2,1,55,0,0
86738,-100,4,2,1,75,0,0
87620,-83.3333333333333,4,2,1,75,0,0
88282,-83.3333333333333,4,2,1,80,0,0
92473,-83.3333333333333,4,2,1,70,0,0
97326,-83.3333333333333,4,2,1,5,0,0

[Colours]
Combo1 : 255,85,231
Combo2 : 255,38,38
Combo3 : 67,72,255
Combo4 : 167,52,255

[HitObjects]
480,160,3797,6,0,P|466:230|455:301,1,144,6|2,2:2|2:2,0:0:0:0:
380,340,4458,1,0,0:0:0:0:
264,260,4679,2,0,P|228:266|193:272,1,72,2|0,2:2|0:0,0:0:0:0:
180,196,5010,2,0,P|215:189|250:183,1,72,2|0,2:2|0:0,0:0:0:0:
328,208,5341,6,0,P|351:160|344:107,1,108,2|0,2:2|0:0,0:0:0:0:
292,52,5782,1,2,2:2:0:0:
200,108,6002,1,2,2:2:0:0:
68,24,6223,2,0,P|81:94|92:165,1,144,2|2,2:2|2:2,0:0:0:0:
0,268,6885,2,0,P|24:250|74:252,1,72,2|2,2:2|2:2,0:0:0:0:
256,300,7326,6,0,P|185:313|114:324,1,144,2|2,2:2|2:2,0:0:0:0:
152,164,7988,1,2,2:2:0:0:
152,164,8098,1,2,2:2:0:0:
152,164,8208,2,0,P|158:199|164:234,1,72,2|2,2:2|2:2,0:0:0:0:
240,72,8649,1,2,2:2:0:0:
360,192,8870,6,0,B|462:173|462:173|429:216,1,144,2|2,2:2|2:2,0:0:0:0:
332,328,9532,1,2,2:2:0:0:
200,264,9752,1,2,2:2:0:0:
200,264,9863,1,2,2:2:0:0:
200,264,9973,2,0,P|206:228|212:193,1,72,2|2,2:2|2:2,0:0:0:0:
304,96,10414,1,2,2:2:0:0:
140,152,10635,1,2,1:2:0:0:
308,288,10855,6,0,P|300:248|293:208,1,80.9999975280763,4|0,1:2|0:0,0:0:0:0:
416,60,11297,2,0,P|408:99|401:139,1,80.9999975280763,10|0,2:2|0:0,0:0:0:0:
220,48,11738,2,0,P|180:39|141:49,1,80.9999975280763,2|0,1:2|0:0,0:0:0:0:
80,92,12069,1,2,2:2:0:0:
72,104,12179,1,8,2:2:0:0:
16,40,12399,1,2,2:2:0:0:
48,224,12620,6,0,P|87:217|127:209,1,80.9999975280763,0|2,1:1|2:2,0:0:0:0:
312,96,13061,1,10,2:2:0:0:
236,32,13282,2,0,B|200:125|200:125|228:144|244:169,1,161.999995056153,2|2,2:2|2:2,0:0:0:0:
304,212,13833,1,2,2:2:0:0:
320,216,13944,1,8,2:2:0:0:
184,264,14164,1,2,2:2:0:0:
352,364,14385,6,0,P|359:324|366:284,1,80.9999975280763,2|0,1:2|0:0,0:0:0:0:
456,168,14826,2,0,P|463:207|470:247,1,80.9999975280763,10|0,2:2|0:0,0:0:0:0:
512,312,15157,1,2,2:2:0:0:
504,328,15267,1,0,1:1:0:0:
356,268,15488,2,0,P|336:271|316:275,1,40.4999987640381,2|0,2:2|0:0,0:0:0:0:
274,345,15708,2,0,P|254:341|234:337,1,40.4999987640381,10|2,2:2|2:2,0:0:0:0:
159,292,15929,1,4,1:2:0:0:
228,120,16260,6,0,P|231:100|235:80,1,40.4999987640381,0|2,1:1|3:2,0:0:0:0:
180,28,16480,1,0,3:3:0:0:
164,28,16591,2,0,P|160:47|156:67,1,40.4999987640381,10|0,2:2|0:0,0:0:0:0:
98,136,16811,1,2,1:2:0:0:
60,61,16922,1,6,1:2:0:0:
316,32,17142,5,0,1:1:0:0:
324,40,17252,2,0,P|320:59|316:79,1,40.4999987640381,0|0,3:3|3:3,0:0:0:0:
212,236,17473,2,0,P|207:216|203:196,1,40.4999987640381,10|0,2:2|0:0,0:0:0:0:
406,65,17694,2,0,P|401:84|398:104,1,40.4999987640381,10|0,2:2|0:0,0:0:0:0:
193,25,19679,6,0,P|206:96|217:167,1,144,4|10,1:2|2:2,0:0:0:0:
150,253,20341,1,2,2:2:0:0:
150,253,20451,1,2,0:0:0:0:
150,253,20561,2,0,B|196:245|196:245|213:251|213:251|256:243,1,108,2|2,1:2|0:0,0:0:0:0:
320,196,21002,1,8,2:2:0:0:
393,291,21223,1,2,2:2:0:0:
393,291,21333,1,2,0:0:0:0:
393,291,21444,5,2,1:2:0:0:
456,236,21664,1,2,2:2:0:0:
388,104,21885,2,0,P|394:139|400:174,1,72,8|2,2:2|2:2,0:0:0:0:
260,316,22326,1,2,1:2:0:0:
144,260,22547,1,2,2:2:0:0:
144,260,22657,1,2,0:0:0:0:
144,260,22767,2,0,P|179:254|214:248,1,72,8|2,2:2|0:0,0:0:0:0:
344,148,23208,5,0,1:1:0:0:
256,44,23429,2,0,P|262:79|268:114,1,72,2|10,2:2|2:2,0:0:0:0:
232,184,23870,1,2,2:2:0:0:
120,72,24091,2,0,B|74:80|74:80|57:74|57:74|14:82,1,108,2|0,1:2|0:0,0:0:0:0:
0,100,24532,1,10,2:2:0:0:
64,272,24752,6,0,P|132:290|196:261,1,144,2|2,2:2|2:2,0:0:0:0:
244,200,25304,1,2,0:0:0:0:
240,184,25414,1,10,2:2:0:0:
328,320,25635,1,2,2:2:0:0:
336,328,25745,1,2,0:0:0:0:
344,336,25855,2,0,P|361:332|379:329,3,36,10|2|2|2,3:2|0:0|0:0|0:0,0:0:0:0:
252,364,26297,1,10,3:2:0:0:
252,364,26407,1,2,0:0:0:0:
252,364,26517,2,0,P|248:346|245:328,1,36,2|2,0:0|0:0,0:0:0:0:
280,244,26738,5,4,1:2:0:0:
168,292,26958,1,2,2:2:0:0:
296,240,27179,2,0,P|290:205|284:170,1,72,10|2,2:2|2:2,0:0:0:0:
356,136,27510,1,2,0:0:0:0:
368,132,27620,2,0,P|374:97|380:62,1,72,2|2,1:2|0:0,0:0:0:0:
316,16,27951,1,2,0:0:0:0:
302,21,28061,1,8,2:2:0:0:
156,100,28282,2,0,P|138:96|120:93,1,36,2|0,2:2|0:0,0:0:0:0:
48,48,28502,5,2,1:2:0:0:
0,200,28723,2,0,P|64:170|132:189,1,144,2|2,2:2|2:2,0:0:0:0:
244,232,29274,1,2,0:0:0:0:
260,220,29385,2,0,P|254:185|248:150,1,72,2|2,1:2|0:0,0:0:0:0:
200,84,29716,1,2,0:0:0:0:
192,72,29826,1,10,2:2:0:0:
360,12,30047,1,2,2:2:0:0:
480,188,30267,6,0,P|445:182|410:176,1,72,0|2,1:1|2:2,0:0:0:0:
352,124,30598,1,2,2:2:0:0:
340,116,30708,1,10,2:2:0:0:
184,232,30929,1,2,2:2:0:0:
172,240,31039,2,0,P|175:257|178:275,1,36,2|0,2:2|1:1,0:0:0:0:
256,352,31260,1,0,0:0:0:0:
244,344,31370,2,0,P|247:326|250:308,1,36,2|2,2:2|2:2,0:0:0:0:
320,268,31591,1,8,2:2:0:0:
4,184,31811,6,0,P|75:172|145:160,1,144,4|2,1:2|2:2,0:0:0:0:
200,112,32363,1,2,2:2:0:0:
208,104,32473,1,2,2:2:0:0:
249,217,32694,2,0,P|317:235|381:206,1,144,2|0,2:2|1:1,0:0:0:0:
381,206,33355,1,2,2:2:0:0:
423,305,33576,1,0,1:1:0:0:
480,172,33797,6,0,P|468:110|459:47,1,125.999996154785,4|8,1:2|2:2,0:0:0:0:
392,0,34458,1,2,2:2:0:0:
268,80,34679,1,2,2:2:0:0:
336,128,34899,1,0,1:1:0:0:
256,68,35120,1,8,2:2:0:0:
200,184,35341,6,0,P|212:246|221:309,1,125.999996154785,2|0,1:2|0:0,0:0:0:0:
280,368,36002,1,8,2:2:0:0:
400,312,36223,2,0,P|368:307|337:301,1,62.9999980773926,2|2,2:2|2:2,0:0:0:0:
337,301,36664,1,2,1:2:0:0:
396,144,36885,1,10,2:2:0:0:
312,224,37105,1,0,1:1:0:0:
184,124,37326,6,0,B|117:98|117:98|73:130,1,125.999996154785,2|8,1:2|2:2,0:0:0:0:
12,192,37988,1,2,2:2:0:0:
84,292,38208,1,2,2:2:0:0:
4,180,38429,1,2,1:2:0:0:
76,280,38649,1,10,2:2:0:0:
224,196,38870,6,0,P|286:208|349:217,1,125.999996154785,2|2,1:2|2:2,0:0:0:0:
400,152,39532,1,10,2:2:0:0:
448,320,39752,2,0,P|456:257|468:195,1,125.999996154785,2|0,1:2|1:1,0:0:0:0:
400,152,40414,1,2,1:2:0:0:
456,88,40635,1,2,2:2:0:0:
304,28,40855,6,0,P|311:72|317:116,1,90,4|2,1:2|2:2,0:0:0:0:
228,236,41297,1,10,2:2:0:0:
400,152,41517,1,2,2:2:0:0:
216,36,41738,2,0,P|182:92|200:156,1,135,2|0,1:2|0:0,0:0:0:0:
280,168,42179,1,10,2:2:0:0:
88,248,42399,1,2,2:2:0:0:
244,364,42620,6,0,P|250:319|257:275,1,90,0|2,1:1|2:2,0:0:0:0:
164,156,43061,2,0,P|170:200|177:244,1,90,8|0,2:2|0:0,0:0:0:0:
124,336,43502,1,0,1:1:0:0:
305,279,43723,1,2,2:2:0:0:
80,164,43944,1,10,2:2:0:0:
320,288,44164,6,0,B|364:305|385:326|385:326|427:301|437:298,1,135,4|0,1:2|0:0,0:0:0:0:
504,256,44605,1,2,1:2:0:0:
376,92,44826,2,0,P|383:136|389:180,1,90,10|10,2:2|2:2,0:0:0:0:
340,240,45157,1,2,2:2:0:0:
328,248,45267,1,0,1:1:0:0:
488,160,45488,1,2,1:2:0:0:
276,80,45708,1,10,2:2:0:0:
460,348,45929,1,2,1:2:0:0:
444,152,47473,6,0,P|447:129|451:107,1,45,2|2,2:2|2:2,0:0:0:0:
376,0,47694,2,0,P|380:22|383:44,1,45,2|2,2:2|2:2,0:0:0:0:
276,80,47914,6,0,P|200:57|128:91,1,161.999995056153,4|0,1:2|0:0,0:0:0:0:
36,28,48355,2,0,P|50:107|61:188,1,161.999995056153,10|0,2:2|0:0,0:0:0:0:
184,342,48797,2,0,P|204:292|193:240,1,107.999996704102,2|0,1:2|0:0,0:0:0:0:
176,228,49127,1,2,2:2:0:0:
164,220,49238,1,8,2:2:0:0:
309,288,49458,1,2,2:2:0:0:
68,240,49679,6,0,P|63:213|58:186,1,53.9999983520508,0|0,1:1|0:0,0:0:0:0:
132,136,49899,1,2,2:2:0:0:
232,308,50120,1,10,2:2:0:0:
428,256,50341,2,0,P|401:251|374:246,1,53.9999983520508,2|0,2:2|0:0,0:0:0:0:
328,116,50561,1,0,1:1:0:0:
328,116,50672,1,2,0:0:0:0:
328,116,50782,2,0,P|332:142|337:169,1,53.9999983520508,2|2,2:2|2:2,0:0:0:0:
272,300,51002,2,0,P|264:246|254:193,1,107.999996704102,8|2,2:2|2:2,0:0:0:0:
428,32,51444,5,2,1:2:0:0:
232,104,51664,1,2,2:2:0:0:
440,184,51885,1,10,2:2:0:0:
330,2,52105,1,2,2:2:0:0:
309,9,52216,2,0,P|319:62|327:115,1,107.999996704102,2|0,2:2|0:0,0:0:0:0:
352,200,52547,1,2,2:2:0:0:
144,136,52767,1,10,2:2:0:0:
340,348,52988,6,0,P|393:338|446:330,1,107.999996704102,2|0,2:2|1:1,0:0:0:0:
322,170,53429,1,2,2:2:0:0:
200,304,53649,1,10,2:2:0:0:
48,76,53870,2,0,P|52:102|57:129,1,53.9999983520508,2|0,2:2|0:0,0:0:0:0:
176,220,54091,1,0,1:1:0:0:
176,220,54201,1,2,0:0:0:0:
176,220,54311,2,0,P|180:193|185:166,1,53.9999983520508,2|2,2:2|2:2,0:0:0:0:
12,328,54532,2,0,P|38:323|65:318,1,53.9999983520508,10|0,2:2|0:0,0:0:0:0:
156,368,54752,6,0,P|209:358|262:350,1,107.999996704102,2|0,1:2|1:1,0:0:0:0:
396,268,55194,1,2,2:2:0:0:
404,276,55304,1,0,0:0:0:0:
412,284,55414,1,10,2:2:0:0:
256,208,55635,2,0,P|251:182|246:155,1,53.9999983520508,2|0,2:2|0:0,0:0:0:0:
164,112,55855,1,2,1:2:0:0:
340,168,56076,2,0,P|393:158|446:150,1,107.999996704102,2|8,2:2|2:2,0:0:0:0:
180,20,56517,6,0,P|100:34|19:45,1,161.999995056153,2|0,2:2|0:0,0:0:0:0:
0,64,56958,1,2,2:2:0:0:
244,132,57179,1,10,2:2:0:0:
56,280,57399,1,2,2:2:0:0:
56,280,57510,1,2,0:0:0:0:
56,280,57620,2,0,P|51:253|46:226,1,53.9999983520508,0|0,1:1|0:0,0:0:0:0:
136,120,57841,2,0,P|131:146|126:173,1,53.9999983520508,2|2,2:2|2:2,0:0:0:0:
192,240,58061,1,10,2:2:0:0:
40,136,58282,1,2,2:2:0:0:
264,348,58502,6,0,P|317:338|370:330,1,107.999996704102,0|2,1:1|2:2,0:0:0:0:
508,192,58944,1,10,2:2:0:0:
412,36,59164,1,2,2:2:0:0:
424,28,59274,2,0,P|414:81|406:134,1,107.999996704102,2|0,2:2|0:0,0:0:0:0:
352,200,59605,1,2,2:2:0:0:
476,384,59826,1,8,2:2:0:0:
216,120,60047,6,0,P|163:130|110:138,1,107.999996704102,4|0,1:2|0:0,0:0:0:0:
28,136,60377,1,0,1:1:0:0:
12,148,60488,2,0,P|17:174|22:201,1,53.9999983520508,2|0,3:2|3:3,0:0:0:0:
56,360,60708,1,10,2:2:0:0:
264,284,60929,1,0,3:3:0:0:
276,296,61039,2,0,P|329:285|382:277,1,107.999996704102,4|0,1:2|1:1,0:0:0:0:
448,336,61370,1,2,3:2:0:0:
496,88,61591,1,10,2:2:0:0:
164,216,61811,1,10,2:2:0:0:
164,216,61922,1,2,0:0:0:0:
164,216,62032,6,0,B|256:214|220:160|310:158,1,161.999995056153,4|0,1:2|0:0,0:0:0:0:
408,72,62473,2,0,P|394:151|383:232,1,161.999995056153,10|0,2:2|0:0,0:0:0:0:
338,314,62914,2,0,P|285:304|232:296,1,107.999996704102,2|0,1:2|0:0,0:0:0:0:
221,301,63245,1,2,2:2:0:0:
209,305,63355,1,8,2:2:0:0:
309,158,63576,1,2,2:2:0:0:
98,64,63797,6,0,P|103:91|108:118,1,53.9999983520508,0|0,1:1|0:0,0:0:0:0:
37,167,64017,1,2,2:2:0:0:
132,331,64238,1,10,2:2:0:0:
244,92,64459,2,0,P|217:97|190:102,1,53.9999983520508,2|0,2:2|0:0,0:0:0:0:
312,152,64679,1,0,1:1:0:0:
312,152,64790,1,2,0:0:0:0:
312,152,64900,2,0,P|338:147|365:142,1,53.9999983520508,2|2,2:2|2:2,0:0:0:0:
456,4,65120,2,0,P|446:57|438:110,1,107.999996704102,8|2,2:2|2:2,0:0:0:0:
353,289,65562,5,2,1:2:0:0:
244,92,65782,1,2,2:2:0:0:
429,249,66003,1,10,2:2:0:0:
144,208,66223,1,2,2:2:0:0:
136,220,66334,2,0,P|189:210|242:202,1,107.999996704102,2|0,2:2|0:0,0:0:0:0:
312,152,66665,1,2,2:2:0:0:
208,344,66885,1,10,2:2:0:0:
20,60,67106,6,0,P|30:113|38:166,1,107.999996704102,2|0,2:2|1:1,0:0:0:0:
304,360,67547,2,0,P|312:306|322:253,1,107.999996704102,2|8,2:2|2:2,0:0:0:0:
100,40,67988,2,0,P|104:66|109:93,1,53.9999983520508,2|0,2:2|0:0,0:0:0:0:
164,200,68209,1,0,1:1:0:0:
164,200,68319,1,2,0:0:0:0:
164,200,68429,2,0,P|168:173|173:146,1,53.9999983520508,2|2,2:2|2:2,0:0:0:0:
336,36,68650,2,0,P|362:31|389:26,1,53.9999983520508,10|0,2:2|0:0,0:0:0:0:
488,96,68870,6,0,P|434:104|381:114,1,107.999996704102,2|0,1:2|1:1,0:0:0:0:
381,113,69312,1,2,2:2:0:0:
232,44,69532,2,0,P|242:97|250:150,1,107.999996704102,8|2,2:2|2:2,0:0:0:0:
255,161,69863,1,0,0:0:0:0:
263,173,69973,1,2,1:2:0:0:
144,92,70194,2,0,P|91:102|38:110,1,107.999996704102,2|8,2:2|2:2,0:0:0:0:
264,268,70635,6,0,B|304:283|334:310|334:310|373:301|398:265,1,161.999995056153,2|0,2:2|0:0,0:0:0:0:
448,204,71076,1,2,2:2:0:0:
256,360,71297,1,10,2:2:0:0:
92,112,71517,2,0,P|102:165|110:218,1,107.999996704102,2|0,2:2|1:1,0:0:0:0:
40,276,71958,1,2,2:2:0:0:
239,187,72179,1,10,2:2:0:0:
48,268,72399,1,2,2:2:0:0:
354,356,72620,5,4,1:2:0:0:
169,244,72841,1,2,1:2:0:0:
390,123,73061,1,10,2:2:0:0:
324,278,73282,1,2,1:2:0:0:
324,278,73392,1,2,2:2:0:0:
324,278,73502,2,0,P|319:251|314:224,1,53.9999983520508,0|0,1:1|0:0,0:0:0:0:
473,304,73723,2,0,P|468:277|463:250,1,53.9999983520508,2|2,1:2|2:2,0:0:0:0:
180,333,73944,2,0,P|175:306|170:279,1,53.9999983520508,10|0,2:2|0:0,0:0:0:0:
124,36,74164,1,2,1:2:0:0:
116,28,74605,5,0,3:3:0:0:
44,60,74826,2,0,P|54:113|62:166,1,107.999996704102,8|8,2:3|2:3,0:0:0:0:
124,208,75157,1,8,2:3:0:0:
136,216,75267,2,0,P|131:243|126:270,1,53.9999983520508,0|0,3:3|0:0,0:0:0:0:
28,288,75488,2,0,P|33:315|38:342,1,53.9999983520508,2|2,2:2|2:2,0:0:0:0:
272,372,75708,1,2,2:2:0:0:
272,372,75819,1,2,2:2:0:0:
272,372,75929,2,0,P|267:345|262:318,1,53.9999983520508,2|2,2:2|2:2,0:0:0:0:
384,168,76149,6,0,P|437:178|490:186,1,107.999996704102,4|2,1:2|2:2,0:0:0:0:
260,28,76591,2,0,P|233:33|206:38,1,53.9999983520508,10|2,2:2|2:2,0:0:0:0:
128,12,76811,1,2,0:0:0:0:
112,20,76922,2,0,P|122:73|130:126,1,107.999996704102,2|0,2:2|0:0,0:0:0:0:
248,204,77252,2,0,P|253:177|258:150,1,53.9999983520508,2|0,2:2|0:0,0:0:0:0:
336,8,77473,1,10,2:2:0:0:
348,16,77583,2,0,P|343:43|338:70,1,53.9999983520508,2|2,2:2|0:0,0:0:0:0:
392,124,77804,1,2,2:2:0:0:
404,132,77914,5,0,1:1:0:0:
248,204,78135,1,2,2:2:0:0:
476,360,78355,1,10,2:2:0:0:
492,360,78466,2,0,P|487:333|482:306,1,53.9999983520508,2|0,2:2|0:0,0:0:0:0:
396,360,78686,2,0,P|382:281|371:200,1,161.999995056153,2|0,2:2|0:0,0:0:0:0:
456,24,79238,1,10,2:2:0:0:
440,16,79348,2,0,P|450:69|458:122,1,107.999996704102,2|2,2:2|2:2,0:0:0:0:
390,170,79679,5,0,1:1:0:0:
48,92,79899,2,0,P|101:83|154:73,1,107.999996704102,2|10,2:2|2:2,0:0:0:0:
218,24,80230,1,2,2:2:0:0:
108,228,80451,1,2,2:2:0:0:
120,236,80561,2,0,P|125:263|130:290,1,53.9999983520508,0|0,1:1|0:0,0:0:0:0:
64,344,80782,1,2,2:2:0:0:
288,200,81002,1,10,2:2:0:0:
296,192,81113,1,2,2:2:0:0:
24,36,81333,6,0,P|32:89|42:142,1,107.999996704102,2|0,2:2|0:0,0:0:0:0:
120,236,81664,2,0,P|147:231|174:226,1,53.9999983520508,2|0,2:2|0:0,0:0:0:0:
256,88,81885,1,10,2:2:0:0:
256,88,81995,1,2,0:0:0:0:
256,88,82105,2,0,P|229:93|202:98,1,53.9999983520508,2|0,2:2|0:0,0:0:0:0:
360,216,82326,1,0,1:1:0:0:
124,120,82547,1,0,0:0:0:0:
404,20,82767,2,0,P|399:47|394:74,1,53.9999983520508,8|0,2:2|0:0,0:0:0:0:
256,88,82988,2,0,P|261:115|266:142,1,53.9999983520508,0|0,1:1|0:0,0:0:0:0:
428,368,83208,5,4,2:2:0:0:
356,324,83429,1,2,2:2:0:0:
480,260,83649,1,10,2:2:0:0:
492,268,83760,2,0,P|485:306|479:345,1,45,2|0,2:2|0:0,0:0:0:0:
404,224,83980,2,0,P|337:234|270:243,1,135,2|2,2:2|2:2,0:0:0:0:
155,321,84532,1,10,2:2:0:0:
145,333,84642,2,0,P|148:355|153:377,1,45,2|2,2:2|0:0,0:0:0:0:
64,324,84863,6,0,P|57:279|50:234,1,90,2|0,2:2|0:0,0:0:0:0:
112,192,85194,1,2,2:2:0:0:
284,236,85414,1,10,2:2:0:0:
296,228,85524,2,0,P|298:205|302:183,1,45,2|0,2:2|0:0,0:0:0:0:
368,40,85745,2,0,P|377:106|388:173,1,135,2|0,2:2|0:0,0:0:0:0:
176,56,86297,1,10,2:2:0:0:
232,0,86517,1,2,2:2:0:0:
64,196,86738,5,4,1:2:0:0:
180,272,86958,1,2,1:2:0:0:
52,188,87179,1,10,2:2:0:0:
252,104,87399,1,2,1:2:0:0:
252,104,87510,1,2,2:2:0:0:
252,104,87620,2,0,P|247:130|243:157,1,53.9999983520508,0|0,1:1|0:0,0:0:0:0:
92,24,87841,2,0,P|96:50|100:77,1,53.9999983520508,2|0,1:2|0:0,0:0:0:0:
380,0,88061,2,0,P|375:26|371:53,1,53.9999983520508,8|0,2:2|0:0,0:0:0:0:
180,272,88282,6,0,P|251:238|327:261,1,161.999995056153,4|0,1:2|0:0,0:0:0:0:
380,328,88723,1,2,1:2:0:0:
148,180,88944,1,10,2:2:0:0:
456,8,89164,2,0,P|442:87|431:168,1,161.999995056153,4|0,1:2|0:0,0:0:0:0:
364,220,89605,1,0,1:1:0:0:
120,104,89826,2,0,P|93:107|66:112,1,53.9999983520508,10|2,2:2|2:2,0:0:0:0:
16,176,90047,1,4,1:2:0:0:
196,360,90377,5,2,1:2:0:0:
268,312,90598,5,2,2:2:0:0:
276,308,90708,1,10,2:2:0:0:
184,148,90929,5,4,1:2:0:0:
176,136,91039,1,0,1:1:0:0:
368,340,91260,2,0,P|371:313|376:286,1,53.9999983520508,0|0,1:1|3:3,0:0:0:0:
116,232,91480,1,0,3:3:0:0:
104,228,91591,2,0,P|100:202|96:175,1,53.9999983520508,10|0,2:2|3:3,0:0:0:0:
372,56,91811,2,0,P|376:29|380:2,1,53.9999983520508,10|0,2:2|0:0,0:0:0:0:
104,228,92473,5,4,1:2:0:0:
256,192,92694,12,0,97326,0:0:0:0:
