osu file format v14

[General]
AudioFilename: audio.mp3
AudioLeadIn: 0
PreviewTime: 49807
Countdown: 0
SampleSet: Soft
StackLeniency: 0.7
Mode: 0
LetterboxInBreaks: 0
WidescreenStoryboard: 1

[Editor]
DistanceSpacing: 1.3
BeatDivisor: 4
GridSize: 16
TimelineZoom: 2.400001

[Metadata]
Title:Believe (feat. Tsuyuri Karin)
TitleUnicode:Believe (feat. つゆり花鈴)
Artist:P4koo
ArtistUnicode:P4koo
Creator:Orkay
Version:Normal
Source:
Tags:pakoo p4koochan featured artist fa idol electronic pop jpop japanese -kemsyt namki shira
BeatmapID:2858770
BeatmapSetID:1292652

[Difficulty]
HPDrainRate:4
CircleSize:3.2
OverallDifficulty:4.5
ApproachRate:5.5
SliderMultiplier:1
SliderTickRate:1

[Events]
//Background and Video events
0,0,"bground.jpg",0,0
//Break Periods
2,47821,49379
//Storyboard Layer 0 (Background)
//Storyboard Layer 1 (Fail)
//Storyboard Layer 2 (Pass)
//Storyboard Layer 3 (Foreground)
//Storyboard Layer 4 (Overlay)
//Storyboard Sound Samples

[TimingPoints]
1690,338.983050847458,4,2,1,60,1,0
6435,-100,4,2,1,5,0,0
7113,-100,4,2,1,60,0,0
7452,-100,4,2,20,60,0,0
14232,-100,4,2,20,60,0,0
14571,-100,4,2,20,60,0,0
14910,-100,4,2,20,60,0,0
15249,-100,4,2,1,60,0,0
15757,-100,4,3,1,60,0,0
16266,-100,4,3,2,60,0,0
16605,-100,4,2,17,60,0,0
17113,-100,4,3,2,60,0,0
17283,-100,4,2,1,60,0,0
17622,-100,4,2,17,60,0,0
17961,-100,4,2,18,50,0,0
18300,-100,4,2,18,50,0,0
26944,-100,4,3,1,50,0,0
27113,-100,4,3,2,50,0,0
27452,-100,4,2,1,60,0,0
27961,-100,4,2,17,60,0,0
28300,-100,4,2,19,60,0,0
28808,-100,4,2,1,60,0,0
29147,-100,4,2,20,60,0,0
29656,-100,4,2,20,60,0,0
30164,-100,4,2,66,60,0,0
30503,-100,4,2,20,60,0,0
30842,-100,4,2,66,60,0,0
31181,-100,4,2,20,60,0,0
31520,-100,4,2,66,60,0,0
31859,-100,4,2,20,60,0,0
32367,-100,4,2,20,60,0,0
33045,-100,4,2,20,60,0,0
34232,-100,4,2,66,60,0,0
34571,-100,4,2,20,60,0,0
34910,-100,4,2,66,60,0,0
35079,-100,4,2,20,60,0,0
36266,-100,4,2,66,60,0,0
36605,-100,4,2,20,60,0,0
36944,-100,4,2,66,60,0,0
37283,-100,4,2,20,60,0,0
37622,-100,4,2,66,60,0,0
37791,-100,4,2,20,60,0,0
38300,-100,4,2,17,60,0,0
38808,-100,4,2,1,60,0,0
39147,-100,4,2,17,60,0,0
39656,-100,4,2,21,50,0,0
40164,-100,4,2,22,50,0,0
42367,-100,4,2,1,60,0,0
42876,-100,4,2,23,60,0,0
43384,-100,4,2,1,60,0,0
43893,-100,4,2,21,60,0,0
44401,-100,4,2,1,60,0,0
45418,-100,4,2,1,60,0,0
47622,-100,4,3,2,60,0,0
47791,-100,4,2,1,40,0,0
49807,260.869565217391,4,2,1,40,1,0
49937,333.333333333334,4,2,1,40,1,0
50104,400,4,2,1,40,1,0
50504,338.983050847458,4,2,1,70,1,1
50504,-100,4,2,1,70,0,1
50842,-100,4,2,20,70,0,1
57453,-100,4,2,66,70,0,1
57622,-100,4,2,20,70,0,1
57961,-100,4,2,20,70,0,1
58300,-100,4,2,1,70,0,1
58639,-100,4,2,1,70,0,1
59148,-100,4,2,17,70,0,1
59656,-100,4,2,1,70,0,1
60165,-100,4,2,24,70,0,1
60673,-100,4,2,17,70,0,1
60842,-100,4,2,1,70,0,1
61012,-100,4,2,17,70,0,1
61181,-100,4,2,1,70,0,1
61351,-100,4,2,1,60,0,0
61690,-100,4,2,20,60,0,0
63724,-100,4,2,66,60,0,0
63893,-100,4,2,20,60,0,0
64063,-100,4,2,1,50,0,0
65419,-100,4,2,1,40,0,0
66775,-100,4,2,1,60,0,0
70504,-100,4,2,1,5,0,0

[Colours]
Combo1 : 255,255,100
Combo2 : 193,233,167
Combo3 : 255,255,140
Combo4 : 165,223,125

[HitObjects]
256,192,1690,12,0,6435,0:0:0:0:
339,90,7113,6,0,P|388:96|438:100,1,100,6|8,1:0|0:0,0:0:0:0:
477,133,7622,2,0,P|488:180|466:228,1,100,2|0,3:2|3:0,0:0:0:0:
424,250,8130,1,10,0:0:0:0:
444,347,8469,2,0,P|394:341|344:337,1,100,0|10,1:2|0:0,0:0:0:0:
245,319,9147,1,2,1:2:0:0:
159,371,9486,1,10,0:0:0:0:
154,271,9825,6,0,P|182:230|228:215,1,100,2|8,1:2|0:0,0:0:0:0:
277,225,10334,2,0,P|268:177|290:133,1,100,2|0,3:2|3:0,0:0:0:0:
329,101,10842,1,10,0:0:0:0:
285,10,11181,2,0,P|235:3|185:0,1,100,2|8,1:2|0:0,0:0:0:0:
111,67,11859,2,0,P|61:70|11:76,1,100,2|8,1:2|0:0,0:0:0:0:
6,176,12537,6,0,P|50:196|72:240,1,100,2|8,1:2|0:0,0:0:0:0:
115,265,13045,2,0,P|137:221|181:200,1,100,0|0,0:0|3:0,0:0:0:0:
231,195,13554,1,8,0:0:0:0:
325,227,13893,2,0,P|328:177|333:127,1,100,2|8,1:2|0:0,0:0:0:0:
415,69,14571,1,2,1:2:0:0:
449,162,14910,1,8,0:0:0:0:
415,256,15249,6,0,P|371:233|322:242,1,100,4|8,1:0|1:2,0:0:0:0:
279,266,15757,1,2,0:0:0:0:
131,293,16266,2,0,P|171:266|187:220,1,100,2|6,0:0|2:1,0:0:0:0:
182,169,16774,1,8,1:0:0:0:
273,125,17113,1,6,0:0:0:0:
273,125,17283,2,0,P|241:87|238:38,1,100,10|14,0:0|1:0,0:0:0:0:
331,1,17961,5,4,1:0:0:0:
372,97,18300,1,2,1:2:0:0:
372,97,18469,2,0,P|421:92|471:88,1,100,2|2,3:2|3:2,0:0:0:0:
511,119,18978,1,2,1:2:0:0:
435,184,19317,2,0,P|421:230|438:276,1,100,0|0,1:2|1:2,0:0:0:0:
509,350,19995,1,2,1:2:0:0:
413,380,20334,1,2,1:2:0:0:
345,305,20673,6,0,P|295:300|245:296,1,100,2|2,1:2|1:2,0:0:0:0:
195,291,21181,2,0,P|212:337|196:384,2,100,2|2|2,3:2|3:2|3:2,0:0:0:0:
168,248,22028,2,0,P|154:200|171:156,1,100,0|0,1:2|1:2,0:0:0:0:
256,91,22706,1,2,1:2:0:0:
162,55,23045,1,2,1:2:0:0:
77,108,23384,5,2,1:2:0:0:
171,155,23723,1,2,1:2:0:0:
171,155,23893,2,0,P|153:200|168:247,1,100,2|2,3:2|3:2,0:0:0:0:
209,279,24401,1,2,1:2:0:0:
179,374,24740,2,0,P|133:345|89:350,1,100,0|0,1:2|1:2,0:0:0:0:
5,295,25418,2,0,P|3:319|1:344,2,50,2|2|2,1:2|3:2|1:2,0:0:0:0:
36,199,26096,5,2,1:2:0:0:
137,179,26435,1,2,1:2:0:0:
137,179,26605,2,0,P|186:183|236:189,1,100,2|2,3:2|0:0,0:0:0:0:
275,158,27113,2,0,P|299:156|324:153,1,50,2|2,0:0|0:0,0:0:0:0:
374,178,27452,5,14,1:0:0:0:
374,178,27622,1,14,1:0:0:0:
423,93,27961,1,14,1:0:0:0:
359,16,28300,2,0,P|310:21|260:24,1,100,12|0,1:0|0:0,0:0:0:0:
210,29,28808,5,4,1:0:0:0:
151,108,29147,1,8,3:2:0:0:
151,108,29317,2,0,P|183:144|186:192,1,100,2|2,0:0|1:2,0:0:0:0:
172,241,29825,1,10,3:2:0:0:
125,329,30164,2,0,P|87:296|75:250,1,100,0|8,3:1|3:2,0:0:0:0:
87,203,30673,1,2,0:0:0:0:
87,203,30842,2,0,P|39:190|7:153,1,100,0|10,3:2|3:2,0:0:0:0:
2,52,31520,5,2,3:2:0:0:
95,10,31859,1,10,3:2:0:0:
94,10,32028,2,0,P|144:3|194:0,1,100,2|2,2:0|1:2,0:0:0:0:
239,33,32537,1,10,3:2:0:0:
239,33,32706,1,2,0:0:0:0:
338,37,33045,1,2,0:0:0:0:
430,73,33384,2,0,P|438:120|416:167,1,100,2|0,0:0|1:2,0:0:0:0:
370,187,33893,1,10,3:2:0:0:
400,282,34232,6,0,P|350:276|300:272,1,100,2|8,3:2|3:2,0:0:0:0:
200,282,34910,2,0,P|196:306|193:331,1,50,2|2,3:2|1:2,0:0:0:0:
213,376,35249,1,10,3:2:0:0:
213,376,35418,2,0,P|262:370|312:365,1,100,2|0,0:0|0:0,0:0:0:0:
421,378,36096,1,2,0:0:0:0:
421,378,36266,2,0,P|444:335|435:287,1,100,2|10,3:2|3:2,0:0:0:0:
341,252,36944,6,0,P|332:204|356:161,1,100,2|8,3:2|3:2,0:0:0:0:
397,132,37452,2,0,P|419:142|444:144,2,50,2|0|0,1:2|3:0|1:2,0:0:0:0:
380,84,37961,2,0,P|363:64|340:53,1,50,8|8,3:2|0:0,0:0:0:0:
295,54,38300,5,14,1:0:0:0:
295,54,38469,1,14,1:0:0:0:
195,62,38808,1,14,1:0:0:0:
213,160,39147,2,0,P|218:209|222:259,1,100,14|2,1:0|0:0,0:0:0:0:
227,309,39656,5,4,1:0:0:0:
329,200,40164,1,2,1:2:0:0:
329,200,40334,2,0,P|378:191|421:212,1,100,10|10,3:2|3:2,0:0:0:0:
450,253,40842,1,2,1:2:0:0:
381,326,41181,2,0,P|337:347|287:339,1,100,2|0,0:0|1:2,0:0:0:0:
251,308,41689,1,10,3:2:0:0:
230,211,42028,1,10,3:2:0:0:
271,123,42367,6,0,P|315:102|364:111,1,100,6|10,1:0|0:0,0:0:0:0:
401,141,42875,1,6,1:0:0:0:
507,246,43384,2,0,P|462:225|414:234,1,100,6|10,1:0|0:0,0:0:0:0:
377,264,43892,1,6,1:0:0:0:
229,294,44401,2,0,P|204:290|179:288,2,50,2|10|10,0:0|0:0|0:0,0:0:0:0:
245,246,44910,1,8,0:0:0:0:
277,207,45079,6,0,P|274:158|268:108,2,100,6|2|2,1:0|1:2|1:2,0:0:0:0:
360,261,46096,1,2,1:2:0:0:
360,261,46266,2,0,P|409:269|452:248,1,100,2|0,0:0|0:0,0:0:0:0:
487,211,46774,2,0,P|496:163|475:119,1,100,2|2,1:2|1:2,0:0:0:0:
388,69,47452,2,0,P|391:43|395:19,1,50,2|0,1:2|0:0,0:0:0:0:
352,367,50504,5,6,1:0:0:0:
424,300,50842,1,10,0:0:0:0:
424,300,51012,2,0,P|419:250|415:200,1,100,2|2,3:2|3:2,0:0:0:0:
331,144,51690,2,0,P|324:193|320:243,1,100,2|0,3:2|3:0,0:0:0:0:
282,276,52198,2,0,P|233:287|189:269,1,100,10|2,0:0|1:2,0:0:0:0:
150,175,52876,1,10,0:0:0:0:
186,81,53215,6,0,P|137:69|93:87,1,100,2|8,1:2|0:0,0:0:0:0:
55,120,53724,2,0,P|60:169|65:219,1,100,2|0,3:2|3:2,0:0:0:0:
45,265,54232,1,10,0:0:0:0:
6,357,54571,2,0,P|54:368|101:351,1,100,2|10,1:2|0:0,0:0:0:0:
147,262,55249,1,2,1:2:0:0:
246,256,55588,2,0,P|248:280|251:305,1,50,10|10,0:0|3:2,0:0:0:0:
288,339,55927,6,0,P|334:356|382:345,1,100,0|8,1:2|0:0,0:0:0:0:
433,258,56605,2,0,P|435:233|437:208,1,50,2|2,1:2|3:2,0:0:0:0:
450,159,56944,1,10,0:0:0:0:
449,159,57114,2,0,P|400:152|350:148,1,100,2|0,3:2|3:0,0:0:0:0:
312,116,57622,1,10,0:0:0:0:
255,32,57961,2,0,P|206:34|156:41,1,100,2|10,1:2|0:0,0:0:0:0:
80,105,58639,6,0,P|90:153|73:199,1,100,14|2,1:0|1:2,0:0:0:0:
32,225,59148,1,14,1:0:0:0:
57,372,59656,2,0,P|91:338|140:330,1,100,12|2,1:0|1:2,0:0:0:0:
185,353,60165,1,14,1:2:0:0:
312,275,60673,2,0,P|287:271|265:259,1,50,14|2,1:0|1:2,0:0:0:0:
233,221,61012,2,0,P|224:198|226:173,1,50,14|2,1:0|1:2,0:0:0:0:
244,126,61351,6,0,P|254:78|237:32,1,100,4|0,1:0|3:0,0:0:0:0:
158,92,62029,1,10,0:0:0:0:
158,92,62198,2,0,P|133:95|108:97,1,50,2|2,0:0|3:2,0:0:0:0:
58,101,62537,2,0,P|40:54|50:6,2,100,2|2|2,1:2|1:2|1:2,0:0:0:0:
100,197,63554,1,2,1:2:0:0:
100,197,63724,2,0,P|98:221|95:246,1,50,2|8,3:2|0:0,0:0:0:0:
87,296,64063,5,2,0:0:0:0:
256,192,64232,12,0,65419,0:0:0:0:
256,192,66775,12,0,70504,0:0:0:0:
