osu file format v14

[General]
AudioFilename: audio.mp3
AudioLeadIn: 0
PreviewTime: 49818
Countdown: 0
SampleSet: Soft
StackLeniency: 0.7
Mode: 0
LetterboxInBreaks: 0
WidescreenStoryboard: 0

[Editor]
DistanceSpacing: 0.7
BeatDivisor: 4
GridSize: 32
TimelineZoom: 1

[Metadata]
Title:Believe (feat. Tsuyuri Karin)
TitleUnicode:Believe (feat. つゆり花鈴)
Artist:P4koo
ArtistUnicode:P4koo
Creator:Gibune
Version:Insane
Source:
Tags:pop jpop japanese pakoo p4koochan featured artist fa mappers mappers' guild mpg
BeatmapID:4456783
BeatmapSetID:2121125

[Difficulty]
HPDrainRate:6
CircleSize:4
OverallDifficulty:8
ApproachRate:8.5
SliderMultiplier:1.6
SliderTickRate:1

[Events]
//Background and Video events
0,0,"bg.jpg",0,0
//Break Periods
//Storyboard Layer 0 (Background)
//Storyboard Layer 1 (Fail)
//Storyboard Layer 2 (Pass)
//Storyboard Layer 3 (Foreground)
//Storyboard Layer 4 (Overlay)
//Storyboard Sound Samples

[TimingPoints]
1683,338.983050847458,4,2,1,70,1,0
17954,-125,4,2,1,55,0,0
27445,-125,4,2,1,65,0,0
27954,-100,4,2,1,65,0,0
28293,-166.666666666667,4,2,1,65,0,0
28801,-111.111111111111,4,2,1,60,0,0
38293,-111.111111111111,4,2,1,65,0,0
39649,-133.333333333333,4,2,1,60,0,0
42360,-100,4,2,1,65,0,0
49818,-100,4,2,1,10,0,0
50496,-90.9090909090909,4,2,1,70,0,0
58632,-80,4,2,1,70,0,0
60666,-90.9090909090909,4,2,1,70,0,0
61344,-111.111111111111,4,2,1,65,0,0
66767,-111.111111111111,4,2,1,10,0,0

[Colours]
Combo1 : 17,254,176
Combo2 : 173,255,95
Combo3 : 255,88,100
Combo4 : 255,94,55

[HitObjects]
350,191,7106,6,0,P|352:150|360:23,1,160,4|8,1:0|0:0,0:0:0:0:
359,31,7615,1,0,0:0:0:0:
261,122,7784,2,0,P|211:128|160:135,1,80,0|0,1:0|0:0,0:0:0:0:
27,64,8123,2,0,P|67:71|109:78,1,80,8|0,0:0|0:0,0:0:0:0:
189,217,8462,5,0,1:0:0:0:
189,217,8632,1,0,0:0:0:0:
78,236,8801,2,0,P|94:182|103:145,1,80,8|0,0:0|0:0,0:0:0:0:
289,200,9140,5,0,1:0:0:0:
214,338,9310,1,2,0:0:0:0:
140,304,9479,5,8,0:0:0:0:
277,274,9649,1,2,0:0:0:0:
351,365,9818,6,0,P|371:318|366:194,1,160,0|8,1:0|0:0,0:0:0:0:
316,81,10327,1,0,0:0:0:0:
197,154,10496,2,0,P|240:165|281:178,1,80,0|0,1:0|0:0,0:0:0:0:
434,103,10835,2,0,P|436:52|441:5,1,80,8|0,0:0|0:0,0:0:0:0:
485,183,11174,5,0,1:0:0:0:
340,109,11344,1,2,0:0:0:0:
460,185,11513,1,8,0:0:0:0:
332,250,11683,1,0,0:0:0:0:
308,255,11767,1,0,3:0:0:0:
284,261,11852,1,0,1:0:0:0:
260,267,11937,1,0,3:0:0:0:
236,273,12021,1,2,0:0:0:0:
129,208,12191,2,0,P|119:161|115:118,1,80,8|8,0:0|0:0,0:0:0:0:
110,118,12445,1,8,0:0:0:0:
105,106,12530,6,0,P|150:111|185:115,1,80,0|0,1:0|0:0,0:0:0:0:
332,59,12869,1,8,0:0:0:0:
247,31,13038,2,0,P|256:76|263:118,1,80,2|0,0:0|1:0,0:0:0:0:
381,199,13377,1,0,0:0:0:0:
381,199,13547,2,0,B|371:247|366:289|366:289,1,80,8|0,0:0|0:0,0:0:0:0:
262,344,13886,6,0,P|221:356|172:363,2,80,0|0|8,1:0|0:0|0:0,0:0:0:0:
277,245,14394,1,0,1:0:0:0:
259,227,14479,1,8,0:0:0:0:
236,219,14564,1,0,3:0:0:0:
211,217,14649,1,8,0:0:0:0:
187,220,14733,1,0,3:0:0:0:
101,301,14903,1,0,1:0:0:0:
46,147,15072,1,0,1:0:0:0:
0,205,15242,6,0,P|61:180|164:147,1,160,4|8,1:0|0:0,0:0:0:0:
300,47,15750,5,8,0:3:0:0:
217,7,15920,1,8,0:3:0:0:
261,118,16089,1,4,0:3:0:0:
346,114,16259,5,4,0:3:0:0:
185,82,16428,1,4,0:3:0:0:
311,183,16598,5,4,1:2:0:0:
300,47,16767,1,8,0:0:0:0:
261,118,16937,1,4,0:3:0:0:
386,179,17106,1,4,0:3:0:0:
425,108,17276,2,0,P|465:110|509:108,1,80,8|0,0:0|0:0,0:0:0:0:
409,215,17615,2,0,P|405:263|403:306,1,80,8|0,0:0|0:0,0:0:0:0:
248,378,17954,5,4,1:2:0:0:
248,378,18293,1,0,1:0:0:0:
165,308,18462,2,0,P|125:306|81:304,1,64,0|0,0:0|1:0,0:0:0:0:
36,353,18801,1,0,0:0:0:0:
12,248,18971,6,0,P|21:176|29:98,2,128,0|0|0,1:0|1:0|1:0,0:0:0:0:
211,172,19988,2,0,P|264:162|302:155,1,64,0|0,1:0|0:0,0:0:0:0:
406,92,20327,1,0,1:0:0:0:
367,182,20496,1,2,0:0:0:0:
259,73,20666,6,0,P|211:69|119:59,1,128,0|0,1:0|1:0,0:0:0:0:
31,7,21174,2,0,P|40:39|45:75,1,64,2|0,0:0|1:0,0:0:0:0:
100,203,21513,2,0,P|104:171|113:140,1,64,2|0,0:0|1:0,0:0:0:0:
15,227,21852,1,2,0:0:0:0:
130,285,22021,6,0,P|164:283|215:280,1,64,0|0,1:0|0:0,0:0:0:0:
308,326,22360,2,0,P|312:288|317:262,1,64,0|0,1:0|0:0,0:0:0:0:
405,161,22699,1,0,1:0:0:0:
463,285,22869,1,0,0:0:0:0:
393,244,23038,1,0,1:0:0:0:
473,205,23208,1,0,0:0:0:0:
402,353,23377,6,0,P|348:371|274:329,1,128,0|0,1:0|1:0,0:0:0:0:
222,255,23886,2,0,P|229:216|231:187,2,64,0|0|0,0:0|1:0|0:0,0:0:0:0:
315,209,24394,6,0,P|339:182|320:87,2,128,0|0|0,1:0|1:0|1:0,0:0:0:0:
118,116,25411,1,0,1:0:0:0:
76,42,25581,1,2,0:0:0:0:
196,0,25750,2,0,P|188:30|179:66,1,64,0|0,1:0|0:0,0:0:0:0:
38,173,26089,6,0,P|94:188|170:214,1,128,0|0,1:0|1:0,0:0:0:0:
279,136,26598,2,0,P|318:126|356:121,1,64,2|0,0:0|1:0,0:0:0:0:
447,11,26937,1,4,0:3:0:0:
438,27,27021,1,4,0:3:0:0:
433,45,27106,1,4,0:3:0:0:
467,120,27276,1,4,0:3:0:0:
324,27,27445,5,8,0:0:0:0:
354,225,27615,1,4,0:3:0:0:
354,225,27699,1,4,0:3:0:0:
354,225,27784,1,4,0:3:0:0:
239,62,27954,6,0,P|200:56|133:45,1,80,8|0,0:0|0:0,0:0:0:0:
370,134,28293,2,0,P|409:128|482:117,1,95.9999970703126,4|0,0:2|0:0,0:0:0:0:
422,282,28801,6,0,P|412:322|405:359,1,71.9999978027344,4|0,1:0|0:0,0:0:0:0:
262,238,29140,2,0,P|215:230|179:226,1,71.9999978027344,8|0,0:0|0:0,0:0:0:0:
124,290,29479,1,0,1:0:0:0:
59,150,29649,1,0,1:0:0:0:
30,301,29818,2,0,P|46:268|63:230,1,71.9999978027344,8|0,0:0|0:0,0:0:0:0:
139,71,30157,5,0,1:0:0:0:
139,71,30496,2,0,P|177:75|219:77,1,71.9999978027344,8|0,0:0|0:0,0:0:0:0:
383,64,30835,1,0,1:0:0:0:
293,1,31005,1,0,1:0:0:0:
287,170,31174,2,0,P|297:122|305:84,1,71.9999978027344,8|0,0:0|0:0,0:0:0:0:
407,227,31513,6,0,P|416:274|432:378,1,143.999995605469,0|8,1:0|0:0,0:0:0:0:
497,241,32021,2,0,P|506:195|517:155,1,71.9999978027344,2|0,0:0|1:0,0:0:0:0:
371,79,32360,1,0,1:0:0:0:
433,152,32530,1,8,0:0:0:0:
511,24,32699,6,0,P|473:22|436:19,1,71.9999978027344,2|0,0:0|1:0,0:0:0:0:
285,115,33038,2,0,P|286:78|284:38,1,71.9999978027344,2|8,0:0|0:0,0:0:0:0:
349,175,33377,1,0,1:0:0:0:
201,222,33547,2,0,P|155:217|116:203,1,71.9999978027344,2|0,0:0|0:0,0:0:0:0:
333,250,33886,2,0,P|379:245|418:231,1,71.9999978027344,8|0,0:0|1:0,0:0:0:0:
235,293,34225,6,0,P|225:231|208:124,2,143.999995605469,0|8|0,1:0|0:0|1:0,0:0:0:0:
88,375,35072,1,0,1:0:0:0:
120,249,35242,1,8,0:0:0:0:
192,369,35411,1,2,0:0:0:0:
30,294,35581,6,0,P|28:248|24:202,1,71.9999978027344,0|0,1:0|0:0,0:0:0:0:
94,82,35920,1,8,0:0:0:0:
94,82,36089,2,0,P|91:117|89:153,1,71.9999978027344,2|0,0:0|1:0,0:0:0:0:
170,186,36428,1,0,1:0:0:0:
302,92,36598,2,0,P|344:83|379:76,1,71.9999978027344,8|0,0:0|0:0,0:0:0:0:
459,42,36937,6,0,P|418:67|391:172,1,143.999995605469,0|8,1:0|0:0,0:0:0:0:
387,154,37445,1,0,1:0:0:0:
449,291,37615,5,0,1:0:0:0:
479,194,37784,1,0,1:0:0:0:
316,270,37954,5,0,1:0:0:0:
391,235,38123,1,8,0:3:0:0:
273,175,38293,5,4,1:0:0:0:
325,364,38462,1,8,0:3:0:0:
255,146,38801,5,4,1:0:0:0:
319,110,38971,1,4,0:3:0:0:
194,58,39140,5,8,0:0:0:0:
375,198,39310,1,8,0:3:0:0:
375,198,39649,6,0,P|312:216|246:232,1,120.000004577637,4|0,1:0|3:0,0:0:0:0:
210,291,40157,1,0,1:0:0:0:
118,203,40327,2,0,P|122:170|131:133,1,60.0000022888184,0|0,3:0|1:0,0:0:0:0:
56,262,40666,1,0,3:0:0:0:
56,262,40835,2,0,P|62:291|65:321,1,60.0000022888184,0|0,1:0|3:0,0:0:0:0:
175,366,41174,6,0,P|218:377|247:383,2,60.0000022888184,0|0|0,0:0|3:0|1:0,0:0:0:0:
196,245,41683,2,0,P|207:208|225:173,1,60.0000022888184,0|0,3:0|1:0,0:0:0:0:
275,94,42021,1,0,3:0:0:0:
347,228,42191,5,2,0:0:0:0:
347,228,42276,1,2,0:0:0:0:
347,228,42360,1,4,1:0:0:0:
362,129,42530,1,0,1:0:0:0:
254,224,42699,1,8,0:3:0:0:
392,297,42869,2,0,P|439:297|485:197,1,160,8|8,0:0|0:3,0:0:0:0:
457,59,43377,5,4,1:2:0:0:
414,192,43547,1,0,1:0:0:0:
510,127,43716,1,8,0:3:0:0:
376,57,43886,2,0,P|326:64|215:75,1,160,4|0,0:3|0:0,0:0:0:0:
150,46,44394,1,2,0:0:0:0:
94,183,44564,5,8,0:0:0:0:
61,27,44733,1,8,0:0:0:0:
196,144,44903,1,8,0:0:0:0:
17,235,45072,6,0,P|9:179|2:140,1,80,12|0,1:2|0:0,0:0:0:0:
219,305,45411,2,0,P|212:344|206:384,1,80,8|0,1:2|0:0,0:0:0:0:
196,144,45750,2,0,P|238:137|286:126,1,80,8|0,1:2|0:0,0:0:0:0:
128,330,46089,2,0,P|86:323|38:312,1,80,8|0,1:2|0:0,0:0:0:0:
249,231,46428,6,0,P|234:271|216:310,1,80,8|0,1:2|0:0,0:0:0:0:
111,123,46767,2,0,P|97:85|80:49,1,80,8|0,1:2|0:0,0:0:0:0:
353,143,47106,2,0,P|311:135|255:125,1,80,8|0,1:2|0:0,0:0:0:0:
27,229,47445,2,0,P|69:221|125:211,1,80,8|0,1:2|0:0,0:0:0:0:
221,63,47784,5,2,0:0:0:0:
256,192,47869,12,0,49818,0:0:0:0:
291,93,50496,6,0,P|345:88|385:84,1,88.000002685547,4|0,1:0|0:0,0:0:0:0:
505,6,50835,2,0,P|488:65|470:182,1,176.000005371094,8|0,0:0|1:0,0:0:0:0:
374,289,51344,2,0,P|367:234|356:200,1,88.000002685547,2|8,0:0|0:0,0:0:0:0:
467,261,51683,1,2,0:0:0:0:
319,365,51852,6,0,P|272:357|226:351,1,88.000002685547,0|0,1:0|0:0,0:0:0:0:
166,247,52191,1,8,0:0:0:0:
52,348,52360,1,0,3:0:0:0:
52,348,52445,1,8,0:0:0:0:
52,348,52530,2,0,P|99:337|142:332,1,88.000002685547,0|0,1:0|0:0,0:0:0:0:
249,213,52869,2,0,P|253:168|263:114,1,88.000002685547,8|0,0:0|0:0,0:0:0:0:
52,39,53208,6,0,P|75:109|180:130,1,176.000005371094,0|8,1:0|0:0,0:0:0:0:
420,59,53716,1,2,0:0:0:0:
323,0,53886,2,0,P|330:48|335:92,1,88.000002685547,0|0,1:0|0:0,0:0:0:0:
498,153,54225,2,0,P|507:100|515:46,1,88.000002685547,8|0,0:0|0:0,0:0:0:0:
271,189,54564,6,0,P|325:176|368:171,1,88.000002685547,0|0,1:0|0:0,0:0:0:0:
221,338,54903,2,0,P|174:327|119:323,1,88.000002685547,8|0,0:0|3:0,0:0:0:0:
122,328,55157,1,8,0:0:0:0:
109,333,55242,1,0,1:0:0:0:
70,145,55411,1,2,0:0:0:0:
225,56,55581,1,8,0:0:0:0:
155,200,55750,5,8,0:0:0:0:
155,200,55835,1,8,0:0:0:0:
155,200,55920,2,0,P|149:135|142:14,1,176.000005371094,0|8,1:0|0:0,0:0:0:0:
269,151,56428,1,2,0:0:0:0:
373,7,56598,2,0,P|377:55|376:100,1,88.000002685547,0|0,1:0|0:0,0:0:0:0:
473,275,56937,2,0,P|472:231|476:187,1,88.000002685547,8|0,0:0|0:0,0:0:0:0:
292,125,57276,5,0,1:0:0:0:
396,213,57445,1,0,1:0:0:0:
457,98,57615,1,8,0:0:0:0:
354,13,57784,1,0,1:0:0:0:
323,19,57869,1,8,0:0:0:0:
292,21,57954,1,0,3:0:0:0:
263,30,58038,1,0,3:0:0:0:
235,44,58123,1,4,0:3:0:0:
205,54,58208,1,4,0:3:0:0:
174,51,58293,1,0,1:0:0:0:
39,15,58462,1,4,0:3:0:0:
109,157,58632,6,0,P|98:207|74:320,1,150,12|0,0:0|0:0,0:0:0:0:
77,303,58971,1,4,0:3:0:0:
333,380,59140,6,0,P|318:323|206:298,1,150,12|0,0:0|0:0,0:0:0:0:
240,287,59479,1,4,0:3:0:0:
222,110,59649,6,0,P|237:56|341:30,1,150,12|0,0:0|0:0,0:0:0:0:
318,22,59988,1,4,0:3:0:0:
512,188,60157,6,0,P|458:193|347:209,1,150,12|0,0:0|0:0,0:0:0:0:
363,206,60496,1,4,0:3:0:0:
272,274,60666,5,8,0:0:0:0:
311,133,60835,1,0,1:0:0:0:
364,296,61005,5,8,0:0:0:0:
205,374,61174,1,0,1:0:0:0:
121,249,61344,6,0,P|135:196|160:91,1,143.999995605469,4|0,1:0|0:0,0:0:0:0:
221,67,61852,1,0,1:0:0:0:
73,0,62021,2,0,P|82:39|87:75,1,71.9999978027344,8|0,0:0|0:0,0:0:0:0:
28,197,62360,1,0,3:0:0:0:
28,197,62530,1,0,1:0:0:0:
186,222,62699,5,2,0:0:0:0:
89,149,62869,1,0,1:0:0:0:
97,302,63038,6,0,P|102:256|107:211,1,71.9999978027344,2|0,0:0|1:0,0:0:0:0:
247,163,63377,2,0,P|292:175|338:185,1,71.9999978027344,8|0,0:0|1:0,0:0:0:0:
443,284,63716,1,0,1:0:0:0:
415,92,63886,1,0,1:0:0:0:
415,92,63971,1,0,3:0:0:0:
415,92,64055,1,2,0:0:0:0:
256,192,64140,12,0,66767,0:0:0:0:
