osu file format v14

[General]
AudioFilename: audio.mp3
AudioLeadIn: 0
PreviewTime: 49818
Countdown: 0
SampleSet: Soft
StackLeniency: 0.7
Mode: 0
LetterboxInBreaks: 0
WidescreenStoryboard: 1

[Editor]
DistanceSpacing: 1.1
BeatDivisor: 4
GridSize: 32
TimelineZoom: 1

[Metadata]
Title:Believe (feat. Tsuyuri Karin)
TitleUnicode:Believe (feat. つゆり花鈴)
Artist:P4koo
ArtistUnicode:P4koo
Creator:Gibune
Version:Hard
Source:
Tags:pop jpop japanese pakoo p4koochan featured artist fa mappers mappers' guild mpg
BeatmapID:4456782
BeatmapSetID:2121125

[Difficulty]
HPDrainRate:5
CircleSize:3.8
OverallDifficulty:6.5
ApproachRate:7.5
SliderMultiplier:1.4
SliderTickRate:1

[Events]
//Background and Video events
0,0,"bg.jpg",0,0
//Break Periods
//Storyboard Layer 0 (Background)
//Storyboard Layer 1 (Fail)
//Storyboard Layer 2 (Pass)
//Storyboard Layer 3 (Foreground)
//Storyboard Layer 4 (Overlay)
//Storyboard Sound Samples

[TimingPoints]
1683,338.983050847458,4,2,1,70,1,0
17954,-125,4,2,1,55,0,0
27445,-100,4,2,1,65,0,0
28801,-111.111111111111,4,2,1,60,0,0
38293,-111.111111111111,4,2,1,65,0,0
39649,-125,4,2,1,60,0,0
42360,-111.111111111111,4,2,1,65,0,0
49818,-111.111111111111,4,2,1,10,0,0
50496,-90.9090909090909,4,2,1,70,0,0
61344,-111.111111111111,4,2,1,65,0,0
66767,-111.111111111111,4,2,1,10,0,0

[Colours]
Combo1 : 17,254,176
Combo2 : 173,255,95
Combo3 : 255,88,100
Combo4 : 255,94,55

[HitObjects]
375,32,7106,6,0,P|376:89|380:183,1,140,4|8,1:0|0:0,0:0:0:0:
429,240,7615,1,0,0:0:0:0:
367,297,7784,2,0,P|317:299|266:305,1,70,0|0,1:0|0:0,0:0:0:0:
199,346,8123,6,0,P|201:289|200:199,1,140,8|0,0:0|1:0,0:0:0:0:
153,135,8632,1,0,0:0:0:0:
72,158,8801,2,0,P|23:166|-12:167,1,70,8|0,0:0|0:0,0:0:0:0:
93,85,9140,2,0,P|105:45|124:11,1,70,0|2,1:0|0:0,0:0:0:0:
201,11,9479,2,0,P|236:20|280:28,1,70,8|2,0:0|0:0,0:0:0:0:
391,42,9818,6,0,P|360:58|330:159,1,140,0|8,1:0|0:0,0:0:0:0:
406,195,10327,1,0,0:0:0:0:
406,195,10496,2,0,P|408:236|410:272,1,70,0|0,1:0|0:0,0:0:0:0:
445,341,10835,1,8,0:0:0:0:
302,373,11174,6,0,P|261:368|206:363,1,70,0|2,1:0|0:0,0:0:0:0:
166,312,11513,2,0,P|167:272|163:230,1,70,8|0,0:0|0:0,0:0:0:0:
163,231,11767,1,0,3:0:0:0:
158,221,11852,2,0,P|115:221|76:223,1,70,0|2,1:0|0:0,0:0:0:0:
11,186,12191,1,8,0:0:0:0:
54,118,12360,5,8,0:0:0:0:
54,118,12445,1,8,0:0:0:0:
54,118,12530,2,0,P|77:90|183:72,1,140,0|8,1:0|0:0,0:0:0:0:
252,38,13038,1,2,0:0:0:0:
328,72,13208,2,0,P|321:120|318:153,1,70,0|0,1:0|0:0,0:0:0:0:
316,225,13547,1,8,0:0:0:0:
205,326,13886,6,0,P|161:323|118:323,1,70,0|0,1:0|0:0,0:0:0:0:
69,369,14225,1,8,0:0:0:0:
18,310,14394,1,0,1:0:0:0:
18,310,14479,1,8,0:0:0:0:
18,310,14564,2,0,P|7:277|-2:259,2,35,0|8|0,3:0|0:0|3:0,0:0:0:0:
85,263,14903,2,0,P|90:230|99:190,1,70,0|0,1:0|1:0,0:0:0:0:
161,113,15242,6,0,P|210:125|310:150,1,140,4|8,1:0|0:0,0:0:0:0:
380,157,15750,1,8,0:3:0:0:
438,96,15920,2,0,P|440:66|443:22,1,70,8|4,0:3|0:3,0:0:0:0:
503,150,16259,2,0,P|505:194|508:238,1,70,4|4,0:3|0:3,0:0:0:0:
461,292,16598,5,4,1:2:0:0:
461,292,16767,1,8,0:0:0:0:
406,356,16937,1,4,0:3:0:0:
406,356,17106,1,4,0:3:0:0:
336,308,17276,2,0,P|292:301|245:294,1,70,8|0,0:0|0:0,0:0:0:0:
214,227,17615,2,0,P|218:184|221:147,1,70,8|0,0:0|0:0,0:0:0:0:
254,88,17954,5,4,1:2:0:0:
133,38,18293,1,0,1:0:0:0:
133,38,18462,2,0,P|85:44|38:103,1,112,2|0,0:0|0:0,0:0:0:0:
70,156,18971,1,0,1:0:0:0:
83,289,19310,6,0,P|78:329|72:366,1,56,0|0,1:0|0:0,0:0:0:0:
151,365,19649,2,0,P|183:364|222:368,1,56,0|0,1:0|0:0,0:0:0:0:
248,304,19988,2,0,P|249:256|255:176,1,112,0|0,1:0|1:0,0:0:0:0:
318,77,20666,6,0,P|347:56|437:43,1,112,0|0,1:0|1:0,0:0:0:0:
479,89,21174,2,0,P|477:132|476:219,1,112,2|2,0:0|0:0,0:0:0:0:
426,261,21683,1,0,1:0:0:0:
426,261,21852,6,0,P|430:300|434:330,1,56,2|0,0:0|1:0,0:0:0:0:
323,374,22360,1,0,1:0:0:0:
214,315,22699,2,0,P|170:311|81:306,1,112,0|0,1:0|1:0,0:0:0:0:
33,204,23377,6,0,P|31:153|46:83,1,112,0|0,1:0|1:0,0:0:0:0:
93,34,23886,2,0,P|121:26|149:20,2,56,0|0|0,0:0|1:0|0:0,0:0:0:0:
144,97,24394,1,0,1:0:0:0:
265,28,24733,5,0,1:0:0:0:
297,160,25072,1,0,1:0:0:0:
391,62,25411,2,0,P|426:59|458:58,2,56,0|2|0,1:0|0:0|1:0,0:0:0:0:
368,197,26089,6,0,P|369:245|370:328,1,112,0|0,1:0|1:0,0:0:0:0:
421,366,26598,2,0,P|459:360|500:287,1,112,2|4,0:0|0:3,0:0:0:0:
500,303,27021,1,4,0:3:0:0:
500,303,27106,1,4,0:3:0:0:
477,234,27276,1,4,0:3:0:0:
506,166,27445,6,0,P|499:124|494:91,1,70,8|4,0:0|0:3,0:0:0:0:
494,96,27699,1,4,0:3:0:0:
494,96,27784,1,4,0:3:0:0:
427,42,27954,2,0,P|385:41|351:38,1,70,8|0,0:0|0:0,0:0:0:0:
271,1,28293,2,0,P|276:47|287:159,1,140,4|0,0:2|0:0,0:0:0:0:
246,207,28801,6,0,P|202:200|101:186,2,125.999996154785,4|8|0,1:0|0:0|1:0,0:0:0:0:
307,260,29649,1,0,1:0:0:0:
307,260,29818,2,0,P|302:301|299:334,1,62.9999980773926,8|0,0:0|0:0,0:0:0:0:
359,369,30157,5,0,1:0:0:0:
482,282,30496,2,0,P|483:233|486:200,1,62.9999980773926,8|0,0:0|0:0,0:0:0:0:
443,155,30835,1,0,1:0:0:0:
443,155,31005,1,0,1:0:0:0:
480,89,31174,2,0,P|486:53|492:19,1,62.9999980773926,8|0,0:0|0:0,0:0:0:0:
398,45,31513,6,0,B|329:52|354:69|264:73,1,125.999996154785,0|8,1:0|0:0,0:0:0:0:
205,43,32021,1,2,0:0:0:0:
98,149,32360,1,0,1:0:0:0:
98,149,32530,1,8,0:0:0:0:
125,218,32699,2,0,P|123:255|121:294,1,62.9999980773926,2|0,0:0|1:0,0:0:0:0:
165,342,33038,6,0,P|212:343|246:349,1,62.9999980773926,2|8,0:0|0:0,0:0:0:0:
308,372,33377,2,0,P|307:328|305:228,1,125.999996154785,0|0,1:0|0:0,0:0:0:0:
353,186,33886,1,8,0:0:0:0:
353,186,34055,1,0,1:0:0:0:
298,122,34225,6,0,P|303:68|359:19,1,125.999996154785,0|8,1:0|0:0,0:0:0:0:
498,66,34903,1,0,1:0:0:0:
498,66,35072,1,0,1:0:0:0:
453,127,35242,1,8,0:0:0:0:
498,187,35411,6,0,P|493:232|490:327,1,125.999996154785,2|0,0:0|0:0,0:0:0:0:
431,362,35920,2,0,P|387:366|349:368,1,62.9999980773926,8|2,0:0|0:0,0:0:0:0:
300,332,36259,2,0,P|298:285|294:248,1,62.9999980773926,0|0,1:0|1:0,0:0:0:0:
327,199,36598,1,8,0:0:0:0:
212,100,36937,6,0,P|155:88|73:78,1,125.999996154785,0|8,1:0|0:0,0:0:0:0:
62,150,37445,2,0,P|26:154|-17:155,2,62.9999980773926,0|0|0,1:0|1:0|1:0,0:0:0:0:
111,207,37954,2,0,P|115:249|113:288,1,62.9999980773926,0|8,1:0|0:3,0:0:0:0:
166,339,38293,5,4,1:0:0:0:
166,339,38462,1,8,0:3:0:0:
286,248,38801,2,0,P|293:210|299:174,1,62.9999980773926,4|4,1:0|0:3,0:0:0:0:
274,113,39140,2,0,P|271:66|265:26,1,62.9999980773926,8|8,0:0|0:3,0:0:0:0:
139,14,39649,5,4,1:0:0:0:
32,95,39988,2,0,P|33:133|33:160,1,56,0|0,3:0|1:0,0:0:0:0:
66,181,40327,2,0,P|63:225|62:315,1,112,0|0,3:0|3:0,0:0:0:0:
98,318,40835,2,0,P|95:346|95:379,2,56,0|0|0,1:0|3:0|0:0,0:0:0:0:
139,299,41344,1,0,3:0:0:0:
231,358,41683,1,0,3:0:0:0:
303,269,42021,1,0,3:0:0:0:
243,172,42360,6,0,P|241:126|241:32,1,125.999996154785,4|0,1:0|0:0,0:0:0:0:
307,11,42869,2,0,P|362:13|413:80,1,125.999996154785,8|8,0:0|0:3,0:0:0:0:
470,122,43377,1,4,1:2:0:0:
470,122,43547,1,0,1:0:0:0:
422,187,43716,1,8,0:3:0:0:
422,187,43886,1,4,0:3:0:0:
277,309,44394,6,0,P|274:344|274:381,2,62.9999980773926,2|8|8,0:0|0:0|0:0,0:0:0:0:
235,244,44903,1,8,0:0:0:0:
281,184,45072,6,0,P|277:143|273:106,1,62.9999980773926,12|0,1:2|0:0,0:0:0:0:
232,58,45411,2,0,P|185:55|158:55,1,62.9999980773926,8|0,1:2|0:0,0:0:0:0:
103,16,45750,2,0,P|58:27|20:32,1,62.9999980773926,8|0,1:2|0:0,0:0:0:0:
16,101,46089,2,0,P|11:147|6:172,1,62.9999980773926,8|0,1:2|0:0,0:0:0:0:
59,219,46428,6,0,P|64:258|66:296,1,62.9999980773926,8|0,1:2|0:0,0:0:0:0:
125,328,46767,2,0,P|161:338|185:348,1,62.9999980773926,8|0,1:2|0:0,0:0:0:0:
253,316,47106,2,0,P|244:276|232:242,1,62.9999980773926,8|0,1:2|0:0,0:0:0:0:
296,208,47445,2,0,P|330:222|365:231,1,62.9999980773926,8|0,1:2|0:0,0:0:0:0:
410,280,47784,5,2,0:0:0:0:
256,192,47869,12,0,49818,0:0:0:0:
374,199,50496,6,0,P|382:158|389:107,1,77.0000023498536,4|0,1:0|0:0,0:0:0:0:
337,53,50835,2,0,P|262:39|182:81,1,154.000004699707,8|0,0:0|1:0,0:0:0:0:
121,116,51344,2,0,P|124:155|125:202,1,77.0000023498536,2|8,0:0|0:0,0:0:0:0:
177,259,51683,1,2,0:0:0:0:
134,332,51852,5,0,1:0:0:0:
298,373,52191,2,0,P|301:332|298:276,1,77.0000023498536,8|0,0:0|3:0,0:0:0:0:
300,296,52445,1,8,0:0:0:0:
300,296,52530,2,0,P|343:301|377:304,1,77.0000023498536,0|0,1:0|0:0,0:0:0:0:
455,272,52869,2,0,P|457:222|458:188,1,77.0000023498536,8|0,0:0|0:0,0:0:0:0:
490,116,53208,6,0,P|439:65|345:66,1,154.000004699707,0|8,1:0|0:0,0:0:0:0:
280,30,53716,2,0,P|280:75|276:115,1,77.0000023498536,2|0,0:0|1:0,0:0:0:0:
185,249,54225,2,0,P|143:249|90:255,1,77.0000023498536,8|0,0:0|0:0,0:0:0:0:
52,187,54564,6,0,P|48:134|40:100,1,77.0000023498536,0|0,1:0|0:0,0:0:0:0:
30,26,54903,2,0,P|77:33|111:38,1,77.0000023498536,8|0,0:0|3:0,0:0:0:0:
106,37,55157,1,8,0:0:0:0:
106,37,55242,1,0,1:0:0:0:
185,7,55411,1,2,0:0:0:0:
245,66,55581,1,8,0:0:0:0:
227,148,55750,5,8,0:0:0:0:
227,148,55835,1,8,0:0:0:0:
227,148,55920,2,0,P|231:194|230:225,1,77.0000023498536,0|0,1:0|0:0,0:0:0:0:
278,294,56259,1,8,0:0:0:0:
434,229,56598,2,0,P|473:221|517:215,1,77.0000023498536,0|0,1:0|0:0,0:0:0:0:
495,132,56937,2,0,P|502:89|503:29,1,77.0000023498536,8|0,0:0|0:0,0:0:0:0:
434,6,57276,5,0,1:0:0:0:
291,97,57615,2,0,P|253:101|201:105,1,77.0000023498536,8|0,0:0|1:0,0:0:0:0:
214,104,57869,1,8,0:0:0:0:
214,104,57954,1,0,3:0:0:0:
164,172,58123,1,4,0:3:0:0:
213,240,58293,2,0,P|213:295|211:327,1,77.0000023498536,0|4,1:0|0:3,0:0:0:0:
143,367,58632,6,0,P|94:366|31:288,1,154.000004699707,12|4,0:0|0:3,0:0:0:0:
9,207,59140,2,0,B|5:116|38:142|44:52,1,154.000004699707,12|4,0:0|0:3,0:0:0:0:
118,18,59649,2,0,P|174:14|239:87,1,154.000004699707,12|4,0:0|0:3,0:0:0:0:
310,124,60157,1,12,0:0:0:0:
261,286,60496,5,4,0:3:0:0:
326,340,60666,1,8,0:0:0:0:
326,340,60835,1,0,1:0:0:0:
398,295,61005,2,0,P|439:308|489:318,1,77.0000023498536,8|0,0:0|1:0,0:0:0:0:
504,245,61344,6,0,P|493:186|480:116,1,125.999996154785,4|0,1:0|0:0,0:0:0:0:
511,50,61852,1,0,1:0:0:0:
511,50,62021,1,8,0:0:0:0:
376,14,62360,2,0,P|345:22|303:27,1,62.9999980773926,0|0,3:0|1:0,0:0:0:0:
270,90,62699,6,0,P|268:124|266:166,1,62.9999980773926,2|0,0:0|1:0,0:0:0:0:
210,208,63038,2,0,P|209:242|208:278,2,62.9999980773926,2|0|8,0:0|1:0|0:0,0:0:0:0:
143,167,63547,2,0,P|103:162|57:157,1,62.9999980773926,0|0,1:0|1:0,0:0:0:0:
26,106,63886,1,0,1:0:0:0:
66,44,64055,1,2,0:0:0:0:
256,192,64140,12,0,66767,0:0:0:0:
