osu file format v14

[General]
AudioFilename: audio.mp3
AudioLeadIn: 0
PreviewTime: 88504
Countdown: 0
SampleSet: Soft
StackLeniency: 0
Mode: 3
LetterboxInBreaks: 0
SpecialStyle: 0
WidescreenStoryboard: 1

[Editor]
DistanceSpacing: 0.5
BeatDivisor: 8
GridSize: 8
TimelineZoom: 1.2

[Metadata]
Title:8th:Planet ~Re:search~
TitleUnicode:8th:Planet ~Re:search~
Artist:P4koo
ArtistUnicode:P4koo
Creator:zenonia1155
Version:Hard
Source:MUSYNX
Tags:featured artist fa electronic instrumental 8thplanet research [re-search] bms ノンジャンル2 nongenre2 non-genre unlimited fighters space techno melodic trance musync Takjun
BeatmapID:3275674
BeatmapSetID:1604029

[Difficulty]
HPDrainRate:7.5
CircleSize:7
OverallDifficulty:7.5
ApproachRate:5
SliderMultiplier:1.4
SliderTickRate:1

[Events]
//Background and Video events
0,0,"teknologi.jpg",0,0
//Break Periods
//Storyboard Layer 0 (Background)
//Storyboard Layer 1 (Fail)
//Storyboard Layer 2 (Pass)
//Storyboard Layer 3 (Foreground)
//Storyboard Layer 4 (Overlay)
//Storyboard Sound Samples

[TimingPoints]
1795,387.096774193548,4,2,1,40,1,0
88504,-100,4,2,1,40,0,1
114827,-100,4,2,1,40,0,0

[HitObjects]
256,192,1795,5,0,0:0:0:0:
109,192,1795,128,0,4891:0:0:0:0:
402,192,4891,128,0,7988:0:0:0:0:
109,192,7988,128,0,11085:0:0:0:0:
402,192,11085,128,0,12536:0:0:0:0:
475,192,12633,1,0,0:0:0:0:
36,192,12633,1,0,0:0:0:0:
182,192,12730,1,0,0:0:0:0:
329,192,12827,1,0,0:0:0:0:
182,192,12924,1,0,0:0:0:0:
475,192,13020,1,0,0:0:0:0:
36,192,13020,1,0,0:0:0:0:
475,192,13214,1,0,0:0:0:0:
329,192,13311,1,0,0:0:0:0:
36,192,13407,1,0,0:0:0:0:
182,192,13407,1,0,0:0:0:0:
329,192,13504,1,0,0:0:0:0:
475,192,13601,1,0,0:0:0:0:
36,192,13794,1,0,0:0:0:0:
475,192,13794,1,0,0:0:0:0:
182,192,13891,1,0,0:0:0:0:
329,192,13988,1,0,0:0:0:0:
402,192,14182,1,0,0:0:0:0:
36,192,14182,1,0,0:0:0:0:
36,192,14375,1,0,0:0:0:0:
256,192,14472,1,0,0:0:0:0:
402,192,14569,1,0,0:0:0:0:
109,192,14569,1,0,0:0:0:0:
256,192,14665,1,0,0:0:0:0:
109,192,14762,1,0,0:0:0:0:
256,192,14859,1,0,0:0:0:0:
475,192,14956,1,0,0:0:0:0:
182,192,14956,1,0,0:0:0:0:
329,192,15053,1,0,0:0:0:0:
182,192,15149,1,0,0:0:0:0:
329,192,15246,1,0,0:0:0:0:
36,192,15343,1,0,0:0:0:0:
182,192,15343,1,0,0:0:0:0:
402,192,15440,1,0,0:0:0:0:
182,192,15536,1,0,0:0:0:0:
402,192,15633,1,0,0:0:0:0:
475,192,15730,1,0,0:0:0:0:
109,192,15730,1,0,0:0:0:0:
329,192,15827,1,0,0:0:0:0:
109,192,15924,1,0,0:0:0:0:
329,192,16020,1,0,0:0:0:0:
475,192,16117,1,0,0:0:0:0:
182,192,16117,1,0,0:0:0:0:
329,192,16214,1,0,0:0:0:0:
182,192,16311,1,0,0:0:0:0:
329,192,16407,1,0,0:0:0:0:
36,192,16504,1,0,0:0:0:0:
256,192,16504,1,0,0:0:0:0:
402,192,16601,1,0,0:0:0:0:
256,192,16698,1,0,0:0:0:0:
402,192,16794,1,0,0:0:0:0:
109,192,16891,1,0,0:0:0:0:
256,192,16891,1,0,0:0:0:0:
475,192,16988,1,0,0:0:0:0:
256,192,17085,1,0,0:0:0:0:
475,192,17182,1,0,0:0:0:0:
329,192,17278,1,0,0:0:0:0:
36,192,17278,1,0,0:0:0:0:
36,192,17472,1,0,0:0:0:0:
182,192,17569,1,0,0:0:0:0:
402,192,17665,1,0,0:0:0:0:
36,192,17665,1,0,0:0:0:0:
256,192,17762,1,0,0:0:0:0:
36,192,17859,1,0,0:0:0:0:
256,192,17956,1,0,0:0:0:0:
475,192,18053,1,0,0:0:0:0:
109,192,18053,1,0,0:0:0:0:
329,192,18149,1,0,0:0:0:0:
109,192,18246,1,0,0:0:0:0:
329,192,18343,1,0,0:0:0:0:
36,192,18440,1,0,0:0:0:0:
182,192,18440,1,0,0:0:0:0:
402,192,18536,1,0,0:0:0:0:
182,192,18633,1,0,0:0:0:0:
402,192,18730,1,0,0:0:0:0:
475,192,18827,1,0,0:0:0:0:
109,192,18827,1,0,0:0:0:0:
256,192,18924,1,0,0:0:0:0:
109,192,19020,1,0,0:0:0:0:
256,192,19117,1,0,0:0:0:0:
475,192,19214,1,0,0:0:0:0:
109,192,19214,1,0,0:0:0:0:
329,192,19311,1,0,0:0:0:0:
109,192,19407,1,0,0:0:0:0:
329,192,19504,1,0,0:0:0:0:
36,192,19601,1,0,0:0:0:0:
475,192,19601,1,0,0:0:0:0:
256,192,19698,1,0,0:0:0:0:
475,192,19794,1,0,0:0:0:0:
256,192,19891,1,0,0:0:0:0:
109,192,19988,1,0,0:0:0:0:
256,192,20085,1,0,0:0:0:0:
109,192,20182,1,0,0:0:0:0:
256,192,20278,1,0,0:0:0:0:
36,192,20375,1,0,0:0:0:0:
182,192,20375,1,0,0:0:0:0:
402,192,20569,1,0,0:0:0:0:
329,192,20665,1,0,0:0:0:0:
36,192,20762,1,0,0:0:0:0:
182,192,20762,1,0,0:0:0:0:
256,192,20859,1,0,0:0:0:0:
402,192,20956,1,0,0:0:0:0:
256,192,21053,1,0,0:0:0:0:
36,192,21149,1,0,0:0:0:0:
182,192,21149,1,0,0:0:0:0:
402,192,21246,1,0,0:0:0:0:
329,192,21343,1,0,0:0:0:0:
402,192,21440,1,0,0:0:0:0:
36,192,21536,1,0,0:0:0:0:
182,192,21536,1,0,0:0:0:0:
475,192,21633,1,0,0:0:0:0:
329,192,21730,1,0,0:0:0:0:
475,192,21827,1,0,0:0:0:0:
36,192,21924,1,0,0:0:0:0:
182,192,21924,1,0,0:0:0:0:
402,192,22020,1,0,0:0:0:0:
256,192,22117,1,0,0:0:0:0:
402,192,22214,1,0,0:0:0:0:
182,192,22311,1,0,0:0:0:0:
36,192,22311,1,0,0:0:0:0:
329,192,22407,1,0,0:0:0:0:
402,192,22504,1,0,0:0:0:0:
329,192,22601,1,0,0:0:0:0:
36,192,22698,1,0,0:0:0:0:
182,192,22698,1,0,0:0:0:0:
475,192,22794,1,0,0:0:0:0:
329,192,22891,1,0,0:0:0:0:
475,192,22988,1,0,0:0:0:0:
36,192,23085,1,0,0:0:0:0:
182,192,23085,1,0,0:0:0:0:
256,192,23182,1,0,0:0:0:0:
402,192,23278,1,0,0:0:0:0:
256,192,23375,1,0,0:0:0:0:
329,192,23472,1,0,0:0:0:0:
475,192,23472,1,0,0:0:0:0:
109,192,23665,1,0,0:0:0:0:
182,192,23762,1,0,0:0:0:0:
475,192,23859,1,0,0:0:0:0:
329,192,23859,1,0,0:0:0:0:
256,192,23956,1,0,0:0:0:0:
109,192,24053,1,0,0:0:0:0:
256,192,24149,1,0,0:0:0:0:
329,192,24246,1,0,0:0:0:0:
475,192,24246,1,0,0:0:0:0:
109,192,24343,1,0,0:0:0:0:
36,192,24440,1,0,0:0:0:0:
109,192,24536,1,0,0:0:0:0:
329,192,24633,1,0,0:0:0:0:
475,192,24633,1,0,0:0:0:0:
182,192,24730,1,0,0:0:0:0:
256,192,24827,1,0,0:0:0:0:
182,192,24924,1,0,0:0:0:0:
475,192,25020,1,0,0:0:0:0:
36,192,25020,1,0,0:0:0:0:
329,192,25117,1,0,0:0:0:0:
182,192,25214,1,0,0:0:0:0:
329,192,25311,1,0,0:0:0:0:
475,192,25407,1,0,0:0:0:0:
36,192,25407,1,0,0:0:0:0:
36,192,25601,1,0,0:0:0:0:
182,192,25698,1,0,0:0:0:0:
329,192,25794,1,0,0:0:0:0:
475,192,25794,1,0,0:0:0:0:
182,192,25891,1,0,0:0:0:0:
36,192,25988,1,0,0:0:0:0:
36,192,26182,1,0,0:0:0:0:
475,192,26182,1,0,0:0:0:0:
329,192,26278,1,0,0:0:0:0:
182,192,26375,1,0,0:0:0:0:
329,192,26569,1,0,0:0:0:0:
109,192,26569,128,0,27149:0:0:0:0:
475,192,26762,1,0,0:0:0:0:
402,192,26956,1,0,0:0:0:0:
256,192,27149,128,0,27827:0:0:0:0:
475,192,27149,1,0,0:0:0:0:
329,192,27343,1,0,0:0:0:0:
475,192,27536,1,0,0:0:0:0:
402,192,27730,1,0,0:0:0:0:
475,192,27924,1,0,0:0:0:0:
329,192,28117,1,0,0:0:0:0:
36,192,28117,128,0,29375:0:0:0:0:
475,192,28311,1,0,0:0:0:0:
402,192,28504,1,0,0:0:0:0:
475,192,28698,1,0,0:0:0:0:
329,192,28891,1,0,0:0:0:0:
475,192,29085,1,0,0:0:0:0:
402,192,29278,1,0,0:0:0:0:
475,192,29472,1,0,0:0:0:0:
182,192,29665,1,0,0:0:0:0:
329,192,29665,128,0,30246:0:0:0:0:
36,192,29859,1,0,0:0:0:0:
109,192,30053,1,0,0:0:0:0:
475,192,30246,128,0,30924:0:0:0:0:
36,192,30246,1,0,0:0:0:0:
182,192,30440,1,0,0:0:0:0:
36,192,30633,1,0,0:0:0:0:
109,192,30827,1,0,0:0:0:0:
36,192,31020,1,0,0:0:0:0:
182,192,31214,1,0,0:0:0:0:
256,192,31214,128,0,31504:0:0:0:0:
36,192,31407,1,0,0:0:0:0:
402,192,31504,128,0,31794:0:0:0:0:
109,192,31601,1,0,0:0:0:0:
256,192,31794,128,0,31988:0:0:0:0:
36,192,31794,1,0,0:0:0:0:
182,192,31988,1,0,0:0:0:0:
475,192,31988,128,0,32278:0:0:0:0:
36,192,32182,1,0,0:0:0:0:
329,192,32278,128,0,32569:0:0:0:0:
109,192,32375,1,0,0:0:0:0:
109,192,32569,1,0,0:0:0:0:
475,192,32569,128,0,32762:0:0:0:0:
329,192,32762,1,0,0:0:0:0:
109,192,32762,128,0,33343:0:0:0:0:
475,192,32956,1,0,0:0:0:0:
402,192,33149,1,0,0:0:0:0:
256,192,33343,128,0,34020:0:0:0:0:
475,192,33343,1,0,0:0:0:0:
329,192,33536,1,0,0:0:0:0:
475,192,33730,1,0,0:0:0:0:
402,192,33924,1,0,0:0:0:0:
475,192,34117,1,0,0:0:0:0:
329,192,34311,1,0,0:0:0:0:
36,192,34311,128,0,35569:0:0:0:0:
475,192,34504,1,0,0:0:0:0:
402,192,34698,1,0,0:0:0:0:
475,192,34891,1,0,0:0:0:0:
329,192,35085,1,0,0:0:0:0:
475,192,35278,1,0,0:0:0:0:
402,192,35472,1,0,0:0:0:0:
475,192,35665,1,0,0:0:0:0:
402,192,35859,128,0,36149:0:0:0:0:
182,192,35859,1,0,0:0:0:0:
36,192,36053,1,0,0:0:0:0:
329,192,36149,128,0,36440:0:0:0:0:
109,192,36246,1,0,0:0:0:0:
256,192,36440,128,0,36827:0:0:0:0:
36,192,36440,1,0,0:0:0:0:
182,192,36633,1,0,0:0:0:0:
475,192,36827,128,0,37214:0:0:0:0:
36,192,36827,1,0,0:0:0:0:
109,192,37020,1,0,0:0:0:0:
329,192,37214,128,0,37407:0:0:0:0:
36,192,37214,1,0,0:0:0:0:
182,192,37407,1,0,0:0:0:0:
402,192,37407,128,0,37988:0:0:0:0:
36,192,37601,1,0,0:0:0:0:
109,192,37794,1,0,0:0:0:0:
36,192,37988,1,0,0:0:0:0:
475,192,38182,1,0,0:0:0:0:
402,192,38182,1,0,0:0:0:0:
329,192,38182,1,0,0:0:0:0:
36,192,38472,1,0,0:0:0:0:
109,192,38472,1,0,0:0:0:0:
182,192,38472,1,0,0:0:0:0:
109,192,38762,1,0,0:0:0:0:
36,192,38762,1,0,0:0:0:0:
475,192,38859,1,0,0:0:0:0:
36,192,38956,1,0,0:0:0:0:
329,192,38956,1,0,0:0:0:0:
36,192,39149,1,0,0:0:0:0:
182,192,39246,1,0,0:0:0:0:
475,192,39343,1,0,0:0:0:0:
109,192,39343,1,0,0:0:0:0:
256,192,39440,1,0,0:0:0:0:
109,192,39536,1,0,0:0:0:0:
256,192,39633,1,0,0:0:0:0:
182,192,39730,1,0,0:0:0:0:
36,192,39730,1,0,0:0:0:0:
402,192,39827,1,0,0:0:0:0:
182,192,39924,1,0,0:0:0:0:
402,192,40020,1,0,0:0:0:0:
256,192,40117,1,0,0:0:0:0:
109,192,40117,1,0,0:0:0:0:
475,192,40214,1,0,0:0:0:0:
256,192,40311,1,0,0:0:0:0:
475,192,40407,1,0,0:0:0:0:
36,192,40504,1,0,0:0:0:0:
329,192,40504,1,0,0:0:0:0:
182,192,40601,1,0,0:0:0:0:
36,192,40698,1,0,0:0:0:0:
182,192,40794,1,0,0:0:0:0:
109,192,40891,1,0,0:0:0:0:
402,192,40891,1,0,0:0:0:0:
256,192,40988,1,0,0:0:0:0:
109,192,41085,1,0,0:0:0:0:
256,192,41182,1,0,0:0:0:0:
109,192,41278,1,0,0:0:0:0:
475,192,41278,1,0,0:0:0:0:
329,192,41375,1,0,0:0:0:0:
109,192,41472,1,0,0:0:0:0:
329,192,41569,1,0,0:0:0:0:
182,192,41665,1,0,0:0:0:0:
36,192,41665,1,0,0:0:0:0:
402,192,41762,1,0,0:0:0:0:
182,192,41859,1,0,0:0:0:0:
402,192,41956,1,0,0:0:0:0:
36,192,42053,1,0,0:0:0:0:
329,192,42053,1,0,0:0:0:0:
36,192,42246,1,0,0:0:0:0:
182,192,42343,1,0,0:0:0:0:
475,192,42440,1,0,0:0:0:0:
109,192,42440,1,0,0:0:0:0:
256,192,42536,1,0,0:0:0:0:
109,192,42633,1,0,0:0:0:0:
256,192,42730,1,0,0:0:0:0:
182,192,42827,1,0,0:0:0:0:
36,192,42827,1,0,0:0:0:0:
402,192,42924,1,0,0:0:0:0:
182,192,43020,1,0,0:0:0:0:
402,192,43117,1,0,0:0:0:0:
256,192,43214,1,0,0:0:0:0:
109,192,43214,1,0,0:0:0:0:
475,192,43311,1,0,0:0:0:0:
256,192,43407,1,0,0:0:0:0:
475,192,43504,1,0,0:0:0:0:
36,192,43601,1,0,0:0:0:0:
329,192,43601,1,0,0:0:0:0:
182,192,43698,1,0,0:0:0:0:
36,192,43794,1,0,0:0:0:0:
182,192,43891,1,0,0:0:0:0:
109,192,43988,1,0,0:0:0:0:
475,192,43988,1,0,0:0:0:0:
256,192,44085,1,0,0:0:0:0:
109,192,44182,1,0,0:0:0:0:
256,192,44278,1,0,0:0:0:0:
402,192,44375,1,0,0:0:0:0:
36,192,44375,1,0,0:0:0:0:
182,192,44472,1,0,0:0:0:0:
402,192,44569,1,0,0:0:0:0:
182,192,44665,1,0,0:0:0:0:
329,192,44762,1,0,0:0:0:0:
475,192,44762,1,0,0:0:0:0:
329,192,44956,1,0,0:0:0:0:
36,192,44956,1,0,0:0:0:0:
109,192,45053,1,0,0:0:0:0:
475,192,45149,1,0,0:0:0:0:
182,192,45149,1,0,0:0:0:0:
475,192,45343,1,0,0:0:0:0:
329,192,45440,1,0,0:0:0:0:
402,192,45536,1,0,0:0:0:0:
36,192,45536,1,0,0:0:0:0:
256,192,45633,1,0,0:0:0:0:
402,192,45730,1,0,0:0:0:0:
256,192,45827,1,0,0:0:0:0:
329,192,45924,1,0,0:0:0:0:
475,192,45924,1,0,0:0:0:0:
109,192,46020,1,0,0:0:0:0:
329,192,46117,1,0,0:0:0:0:
109,192,46214,1,0,0:0:0:0:
256,192,46311,1,0,0:0:0:0:
402,192,46311,1,0,0:0:0:0:
36,192,46407,1,0,0:0:0:0:
256,192,46504,1,0,0:0:0:0:
36,192,46601,1,0,0:0:0:0:
182,192,46698,1,0,0:0:0:0:
475,192,46698,1,0,0:0:0:0:
329,192,46794,1,0,0:0:0:0:
475,192,46891,1,0,0:0:0:0:
329,192,46988,1,0,0:0:0:0:
402,192,47085,1,0,0:0:0:0:
109,192,47085,1,0,0:0:0:0:
256,192,47182,1,0,0:0:0:0:
402,192,47278,1,0,0:0:0:0:
256,192,47375,1,0,0:0:0:0:
402,192,47472,1,0,0:0:0:0:
36,192,47472,1,0,0:0:0:0:
182,192,47569,1,0,0:0:0:0:
402,192,47665,1,0,0:0:0:0:
182,192,47762,1,0,0:0:0:0:
329,192,47859,1,0,0:0:0:0:
475,192,47859,1,0,0:0:0:0:
329,192,48053,1,0,0:0:0:0:
36,192,48053,1,0,0:0:0:0:
109,192,48149,1,0,0:0:0:0:
182,192,48246,1,0,0:0:0:0:
475,192,48246,1,0,0:0:0:0:
475,192,48440,1,0,0:0:0:0:
329,192,48536,1,0,0:0:0:0:
36,192,48633,1,0,0:0:0:0:
402,192,48633,1,0,0:0:0:0:
256,192,48730,1,0,0:0:0:0:
402,192,48827,1,0,0:0:0:0:
256,192,48924,1,0,0:0:0:0:
109,192,49020,1,0,0:0:0:0:
402,192,49020,1,0,0:0:0:0:
182,192,49117,1,0,0:0:0:0:
402,192,49214,1,0,0:0:0:0:
182,192,49311,1,0,0:0:0:0:
36,192,49407,1,0,0:0:0:0:
329,192,49407,1,0,0:0:0:0:
109,192,49504,1,0,0:0:0:0:
329,192,49601,1,0,0:0:0:0:
109,192,49698,1,0,0:0:0:0:
36,192,49794,1,0,0:0:0:0:
475,192,49794,1,0,0:0:0:0:
256,192,49891,1,0,0:0:0:0:
475,192,49988,1,0,0:0:0:0:
256,192,50085,1,0,0:0:0:0:
475,192,50182,1,0,0:0:0:0:
402,192,50182,1,0,0:0:0:0:
182,192,50278,1,0,0:0:0:0:
329,192,50375,1,0,0:0:0:0:
109,192,50472,1,0,0:0:0:0:
475,192,50569,1,0,0:0:0:0:
36,192,50569,1,0,0:0:0:0:
256,192,50665,1,0,0:0:0:0:
36,192,50762,1,0,0:0:0:0:
256,192,50859,1,0,0:0:0:0:
36,192,50956,1,0,0:0:0:0:
329,192,51053,1,0,0:0:0:0:
109,192,51149,1,0,0:0:0:0:
402,192,51246,1,0,0:0:0:0:
182,192,51343,1,0,0:0:0:0:
256,192,51343,1,0,0:0:0:0:
329,192,51536,1,0,0:0:0:0:
36,192,51730,1,0,0:0:0:0:
182,192,51730,1,0,0:0:0:0:
329,192,51924,1,0,0:0:0:0:
36,192,52117,1,0,0:0:0:0:
182,192,52117,1,0,0:0:0:0:
329,192,52311,1,0,0:0:0:0:
36,192,52504,1,0,0:0:0:0:
182,192,52504,1,0,0:0:0:0:
329,192,52698,1,0,0:0:0:0:
256,192,52891,1,0,0:0:0:0:
109,192,52891,1,0,0:0:0:0:
402,192,53085,1,0,0:0:0:0:
256,192,53278,1,0,0:0:0:0:
109,192,53278,1,0,0:0:0:0:
402,192,53472,1,0,0:0:0:0:
256,192,53665,1,0,0:0:0:0:
109,192,53665,1,0,0:0:0:0:
402,192,53859,1,0,0:0:0:0:
256,192,54053,1,0,0:0:0:0:
109,192,54053,1,0,0:0:0:0:
402,192,54246,1,0,0:0:0:0:
182,192,54440,1,0,0:0:0:0:
36,192,54440,1,0,0:0:0:0:
329,192,54633,1,0,0:0:0:0:
36,192,54827,1,0,0:0:0:0:
182,192,54827,1,0,0:0:0:0:
329,192,55020,1,0,0:0:0:0:
36,192,55214,1,0,0:0:0:0:
182,192,55214,1,0,0:0:0:0:
329,192,55407,1,0,0:0:0:0:
36,192,55601,1,0,0:0:0:0:
182,192,55601,1,0,0:0:0:0:
329,192,55794,1,0,0:0:0:0:
256,192,55988,1,0,0:0:0:0:
109,192,55988,1,0,0:0:0:0:
402,192,56182,1,0,0:0:0:0:
256,192,56375,1,0,0:0:0:0:
109,192,56375,1,0,0:0:0:0:
402,192,56569,1,0,0:0:0:0:
256,192,56762,1,0,0:0:0:0:
109,192,56762,1,0,0:0:0:0:
402,192,56956,1,0,0:0:0:0:
109,192,57149,1,0,0:0:0:0:
402,192,57246,1,0,0:0:0:0:
109,192,57343,1,0,0:0:0:0:
402,192,57440,1,0,0:0:0:0:
36,192,57536,1,0,0:0:0:0:
109,192,57633,1,0,0:0:0:0:
256,192,57730,1,0,0:0:0:0:
329,192,57827,1,0,0:0:0:0:
109,192,57924,1,0,0:0:0:0:
182,192,58020,1,0,0:0:0:0:
329,192,58117,1,0,0:0:0:0:
402,192,58214,1,0,0:0:0:0:
182,192,58311,1,0,0:0:0:0:
329,192,58407,1,0,0:0:0:0:
402,192,58504,1,0,0:0:0:0:
475,192,58601,1,0,0:0:0:0:
256,192,58698,1,0,0:0:0:0:
402,192,58794,1,0,0:0:0:0:
329,192,58891,1,0,0:0:0:0:
182,192,58988,1,0,0:0:0:0:
36,192,59085,1,0,0:0:0:0:
109,192,59182,1,0,0:0:0:0:
256,192,59278,1,0,0:0:0:0:
329,192,59375,1,0,0:0:0:0:
109,192,59472,1,0,0:0:0:0:
182,192,59569,1,0,0:0:0:0:
329,192,59665,1,0,0:0:0:0:
402,192,59762,1,0,0:0:0:0:
182,192,59859,1,0,0:0:0:0:
329,192,59956,1,0,0:0:0:0:
402,192,60053,1,0,0:0:0:0:
475,192,60149,1,0,0:0:0:0:
256,192,60246,1,0,0:0:0:0:
402,192,60343,1,0,0:0:0:0:
329,192,60440,1,0,0:0:0:0:
182,192,60536,1,0,0:0:0:0:
109,192,60633,1,0,0:0:0:0:
329,192,60730,1,0,0:0:0:0:
475,192,60827,1,0,0:0:0:0:
256,192,60827,1,0,0:0:0:0:
182,192,60924,1,0,0:0:0:0:
36,192,61020,1,0,0:0:0:0:
402,192,61117,1,0,0:0:0:0:
475,192,61214,1,0,0:0:0:0:
329,192,61214,1,0,0:0:0:0:
182,192,61311,1,0,0:0:0:0:
109,192,61407,1,0,0:0:0:0:
402,192,61504,1,0,0:0:0:0:
475,192,61601,1,0,0:0:0:0:
329,192,61601,1,0,0:0:0:0:
256,192,61698,1,0,0:0:0:0:
36,192,61794,1,0,0:0:0:0:
329,192,61891,1,0,0:0:0:0:
182,192,61988,1,0,0:0:0:0:
402,192,61988,1,0,0:0:0:0:
256,192,62085,1,0,0:0:0:0:
475,192,62182,1,0,0:0:0:0:
329,192,62182,1,0,0:0:0:0:
256,192,62278,1,0,0:0:0:0:
182,192,62375,1,0,0:0:0:0:
109,192,62472,1,0,0:0:0:0:
36,192,62569,1,0,0:0:0:0:
402,192,62569,1,0,0:0:0:0:
329,192,62665,1,0,0:0:0:0:
256,192,62762,1,0,0:0:0:0:
182,192,62859,1,0,0:0:0:0:
109,192,62956,1,0,0:0:0:0:
402,192,63053,1,0,0:0:0:0:
109,192,63149,1,0,0:0:0:0:
402,192,63246,1,0,0:0:0:0:
182,192,63343,1,0,0:0:0:0:
329,192,63440,1,0,0:0:0:0:
182,192,63536,1,0,0:0:0:0:
329,192,63633,1,0,0:0:0:0:
36,192,63730,1,0,0:0:0:0:
475,192,63730,1,0,0:0:0:0:
402,192,63730,1,0,0:0:0:0:
256,192,63924,1,0,0:0:0:0:
329,192,64020,1,0,0:0:0:0:
475,192,64117,1,0,0:0:0:0:
109,192,64117,1,0,0:0:0:0:
256,192,64214,1,0,0:0:0:0:
329,192,64311,1,0,0:0:0:0:
402,192,64407,1,0,0:0:0:0:
36,192,64504,1,0,0:0:0:0:
182,192,64504,1,0,0:0:0:0:
329,192,64601,1,0,0:0:0:0:
402,192,64698,1,0,0:0:0:0:
475,192,64794,1,0,0:0:0:0:
36,192,64891,1,0,0:0:0:0:
256,192,64891,1,0,0:0:0:0:
402,192,64988,1,0,0:0:0:0:
329,192,65085,1,0,0:0:0:0:
182,192,65182,1,0,0:0:0:0:
402,192,65278,1,0,0:0:0:0:
36,192,65278,1,0,0:0:0:0:
182,192,65375,1,0,0:0:0:0:
256,192,65472,1,0,0:0:0:0:
329,192,65569,1,0,0:0:0:0:
475,192,65665,1,0,0:0:0:0:
109,192,65665,1,0,0:0:0:0:
256,192,65762,1,0,0:0:0:0:
329,192,65859,1,0,0:0:0:0:
402,192,65956,1,0,0:0:0:0:
36,192,66053,1,0,0:0:0:0:
182,192,66053,1,0,0:0:0:0:
256,192,66149,1,0,0:0:0:0:
402,192,66246,1,0,0:0:0:0:
475,192,66343,1,0,0:0:0:0:
256,192,66440,1,0,0:0:0:0:
109,192,66440,1,0,0:0:0:0:
329,192,66536,1,0,0:0:0:0:
402,192,66633,1,0,0:0:0:0:
182,192,66730,1,0,0:0:0:0:
402,192,66827,1,0,0:0:0:0:
36,192,66827,1,0,0:0:0:0:
256,192,67020,1,0,0:0:0:0:
329,192,67117,1,0,0:0:0:0:
109,192,67214,1,0,0:0:0:0:
475,192,67214,1,0,0:0:0:0:
182,192,67311,1,0,0:0:0:0:
256,192,67407,1,0,0:0:0:0:
402,192,67504,1,0,0:0:0:0:
36,192,67601,1,0,0:0:0:0:
182,192,67601,1,0,0:0:0:0:
329,192,67698,1,0,0:0:0:0:
402,192,67794,1,0,0:0:0:0:
475,192,67891,1,0,0:0:0:0:
256,192,67988,1,0,0:0:0:0:
109,192,67988,1,0,0:0:0:0:
329,192,68085,1,0,0:0:0:0:
402,192,68182,1,0,0:0:0:0:
109,192,68278,1,0,0:0:0:0:
329,192,68375,1,0,0:0:0:0:
36,192,68375,1,0,0:0:0:0:
109,192,68472,1,0,0:0:0:0:
182,192,68569,1,0,0:0:0:0:
256,192,68665,1,0,0:0:0:0:
475,192,68762,1,0,0:0:0:0:
109,192,68762,1,0,0:0:0:0:
182,192,68859,1,0,0:0:0:0:
256,192,68956,1,0,0:0:0:0:
329,192,69053,1,0,0:0:0:0:
182,192,69149,1,0,0:0:0:0:
475,192,69149,1,0,0:0:0:0:
402,192,69246,1,0,0:0:0:0:
329,192,69343,1,0,0:0:0:0:
256,192,69440,1,0,0:0:0:0:
109,192,69536,1,0,0:0:0:0:
402,192,69536,1,0,0:0:0:0:
36,192,69730,1,0,0:0:0:0:
475,192,69730,1,0,0:0:0:0:
475,192,69924,1,0,0:0:0:0:
36,192,69924,1,0,0:0:0:0:
256,192,70117,1,0,0:0:0:0:
182,192,70214,1,0,0:0:0:0:
36,192,70311,1,0,0:0:0:0:
402,192,70311,1,0,0:0:0:0:
256,192,70407,1,0,0:0:0:0:
182,192,70504,1,0,0:0:0:0:
109,192,70601,1,0,0:0:0:0:
475,192,70698,1,0,0:0:0:0:
329,192,70698,1,0,0:0:0:0:
182,192,70794,1,0,0:0:0:0:
109,192,70891,1,0,0:0:0:0:
36,192,70988,1,0,0:0:0:0:
402,192,71085,1,0,0:0:0:0:
256,192,71085,1,0,0:0:0:0:
182,192,71182,1,0,0:0:0:0:
36,192,71278,1,0,0:0:0:0:
329,192,71375,1,0,0:0:0:0:
109,192,71472,1,0,0:0:0:0:
475,192,71472,1,0,0:0:0:0:
329,192,71569,1,0,0:0:0:0:
256,192,71665,1,0,0:0:0:0:
182,192,71762,1,0,0:0:0:0:
36,192,71859,1,0,0:0:0:0:
402,192,71859,1,0,0:0:0:0:
256,192,71956,1,0,0:0:0:0:
182,192,72053,1,0,0:0:0:0:
109,192,72149,1,0,0:0:0:0:
475,192,72246,1,0,0:0:0:0:
329,192,72246,1,0,0:0:0:0:
256,192,72343,1,0,0:0:0:0:
109,192,72440,1,0,0:0:0:0:
36,192,72536,1,0,0:0:0:0:
256,192,72633,1,0,0:0:0:0:
475,192,72633,1,0,0:0:0:0:
329,192,72730,1,0,0:0:0:0:
402,192,72827,1,0,0:0:0:0:
182,192,72924,1,0,0:0:0:0:
109,192,73020,1,0,0:0:0:0:
475,192,73020,1,0,0:0:0:0:
256,192,73214,1,0,0:0:0:0:
182,192,73311,1,0,0:0:0:0:
402,192,73407,1,0,0:0:0:0:
36,192,73407,1,0,0:0:0:0:
329,192,73504,1,0,0:0:0:0:
256,192,73601,1,0,0:0:0:0:
109,192,73698,1,0,0:0:0:0:
475,192,73794,1,0,0:0:0:0:
329,192,73794,1,0,0:0:0:0:
182,192,73891,1,0,0:0:0:0:
109,192,73988,1,0,0:0:0:0:
36,192,74085,1,0,0:0:0:0:
402,192,74182,1,0,0:0:0:0:
256,192,74182,1,0,0:0:0:0:
109,192,74278,1,0,0:0:0:0:
256,192,74375,1,0,0:0:0:0:
402,192,74472,1,0,0:0:0:0:
182,192,74569,1,0,0:0:0:0:
475,192,74569,1,0,0:0:0:0:
402,192,74665,1,0,0:0:0:0:
329,192,74762,1,0,0:0:0:0:
256,192,74859,1,0,0:0:0:0:
36,192,74956,1,0,0:0:0:0:
402,192,74956,1,0,0:0:0:0:
329,192,75053,1,0,0:0:0:0:
256,192,75149,1,0,0:0:0:0:
182,192,75246,1,0,0:0:0:0:
475,192,75343,1,0,0:0:0:0:
329,192,75343,1,0,0:0:0:0:
256,192,75440,1,0,0:0:0:0:
109,192,75536,1,0,0:0:0:0:
36,192,75633,1,0,0:0:0:0:
256,192,75730,1,0,0:0:0:0:
182,192,75827,1,0,0:0:0:0:
109,192,75924,1,0,0:0:0:0:
36,192,76020,1,0,0:0:0:0:
109,192,76117,1,0,0:0:0:0:
475,192,76117,1,0,0:0:0:0:
402,192,76117,1,0,0:0:0:0:
256,192,76311,1,0,0:0:0:0:
182,192,76407,1,0,0:0:0:0:
36,192,76504,1,0,0:0:0:0:
402,192,76504,1,0,0:0:0:0:
256,192,76601,1,0,0:0:0:0:
182,192,76698,1,0,0:0:0:0:
109,192,76794,1,0,0:0:0:0:
329,192,76891,1,0,0:0:0:0:
36,192,76891,1,0,0:0:0:0:
182,192,76988,1,0,0:0:0:0:
36,192,77085,1,0,0:0:0:0:
182,192,77182,1,0,0:0:0:0:
109,192,77278,1,0,0:0:0:0:
256,192,77278,1,0,0:0:0:0:
402,192,77375,1,0,0:0:0:0:
256,192,77472,1,0,0:0:0:0:
402,192,77569,1,0,0:0:0:0:
109,192,77665,1,0,0:0:0:0:
475,192,77665,1,0,0:0:0:0:
329,192,77762,1,0,0:0:0:0:
256,192,77859,1,0,0:0:0:0:
182,192,77956,1,0,0:0:0:0:
36,192,78053,1,0,0:0:0:0:
402,192,78053,1,0,0:0:0:0:
256,192,78149,1,0,0:0:0:0:
182,192,78246,1,0,0:0:0:0:
109,192,78343,1,0,0:0:0:0:
329,192,78440,1,0,0:0:0:0:
36,192,78440,1,0,0:0:0:0:
182,192,78536,1,0,0:0:0:0:
36,192,78633,1,0,0:0:0:0:
182,192,78730,1,0,0:0:0:0:
109,192,78827,1,0,0:0:0:0:
475,192,78827,1,0,0:0:0:0:
329,192,78924,1,0,0:0:0:0:
475,192,79020,1,0,0:0:0:0:
329,192,79117,1,0,0:0:0:0:
402,192,79214,1,0,0:0:0:0:
36,192,79214,1,0,0:0:0:0:
256,192,79407,1,0,0:0:0:0:
329,192,79504,1,0,0:0:0:0:
475,192,79601,1,0,0:0:0:0:
109,192,79601,1,0,0:0:0:0:
256,192,79698,1,0,0:0:0:0:
329,192,79794,1,0,0:0:0:0:
402,192,79891,1,0,0:0:0:0:
182,192,79988,1,0,0:0:0:0:
475,192,79988,1,0,0:0:0:0:
329,192,80085,1,0,0:0:0:0:
475,192,80182,1,0,0:0:0:0:
329,192,80278,1,0,0:0:0:0:
402,192,80375,1,0,0:0:0:0:
256,192,80375,1,0,0:0:0:0:
109,192,80472,1,0,0:0:0:0:
256,192,80569,1,0,0:0:0:0:
109,192,80665,1,0,0:0:0:0:
402,192,80762,1,0,0:0:0:0:
36,192,80762,1,0,0:0:0:0:
182,192,80859,1,0,0:0:0:0:
256,192,80956,1,0,0:0:0:0:
329,192,81053,1,0,0:0:0:0:
475,192,81149,1,0,0:0:0:0:
109,192,81149,1,0,0:0:0:0:
256,192,81246,1,0,0:0:0:0:
329,192,81343,1,0,0:0:0:0:
402,192,81440,1,0,0:0:0:0:
182,192,81536,1,0,0:0:0:0:
475,192,81536,1,0,0:0:0:0:
256,192,81633,1,0,0:0:0:0:
475,192,81730,1,0,0:0:0:0:
256,192,81827,1,0,0:0:0:0:
109,192,81924,1,0,0:0:0:0:
402,192,81924,1,0,0:0:0:0:
475,192,82117,1,0,0:0:0:0:
182,192,82117,1,0,0:0:0:0:
109,192,82214,1,0,0:0:0:0:
475,192,82311,1,0,0:0:0:0:
329,192,82311,1,0,0:0:0:0:
36,192,82311,1,0,0:0:0:0:
109,192,82504,1,0,0:0:0:0:
182,192,82601,1,0,0:0:0:0:
475,192,82698,1,0,0:0:0:0:
329,192,82698,1,0,0:0:0:0:
256,192,82794,1,0,0:0:0:0:
109,192,82891,1,0,0:0:0:0:
256,192,82988,1,0,0:0:0:0:
475,192,83085,1,0,0:0:0:0:
329,192,83085,1,0,0:0:0:0:
109,192,83182,1,0,0:0:0:0:
182,192,83278,1,0,0:0:0:0:
109,192,83375,1,0,0:0:0:0:
475,192,83472,1,0,0:0:0:0:
329,192,83472,1,0,0:0:0:0:
36,192,83569,1,0,0:0:0:0:
182,192,83665,1,0,0:0:0:0:
36,192,83762,1,0,0:0:0:0:
475,192,83859,1,0,0:0:0:0:
329,192,83859,1,0,0:0:0:0:
109,192,83956,1,0,0:0:0:0:
256,192,84053,1,0,0:0:0:0:
109,192,84149,1,0,0:0:0:0:
329,192,84246,1,0,0:0:0:0:
475,192,84246,1,0,0:0:0:0:
182,192,84343,1,0,0:0:0:0:
109,192,84440,1,0,0:0:0:0:
182,192,84536,1,0,0:0:0:0:
475,192,84633,1,0,0:0:0:0:
329,192,84633,1,0,0:0:0:0:
36,192,84730,1,0,0:0:0:0:
182,192,84827,1,0,0:0:0:0:
36,192,84924,1,0,0:0:0:0:
475,192,85020,1,0,0:0:0:0:
329,192,85020,1,0,0:0:0:0:
256,192,85117,1,0,0:0:0:0:
109,192,85214,1,0,0:0:0:0:
256,192,85311,1,0,0:0:0:0:
182,192,85407,1,0,0:0:0:0:
36,192,85407,1,0,0:0:0:0:
402,192,85601,1,0,0:0:0:0:
329,192,85698,1,0,0:0:0:0:
36,192,85794,1,0,0:0:0:0:
182,192,85794,1,0,0:0:0:0:
256,192,85891,1,0,0:0:0:0:
402,192,85988,1,0,0:0:0:0:
256,192,86085,1,0,0:0:0:0:
182,192,86182,1,0,0:0:0:0:
36,192,86182,1,0,0:0:0:0:
402,192,86278,1,0,0:0:0:0:
475,192,86375,1,0,0:0:0:0:
402,192,86472,1,0,0:0:0:0:
182,192,86569,1,0,0:0:0:0:
36,192,86569,1,0,0:0:0:0:
329,192,86665,1,0,0:0:0:0:
256,192,86762,1,0,0:0:0:0:
329,192,86859,1,0,0:0:0:0:
402,192,86956,128,0,88504:0:0:0:0:
256,192,87827,128,0,88504:0:0:0:0:
475,192,88504,1,0,0:0:0:0:
36,192,88504,1,0,0:0:0:0:
329,192,88504,1,0,0:0:0:0:
109,192,88601,1,0,0:0:0:0:
182,192,88698,1,0,0:0:0:0:
256,192,88794,1,0,0:0:0:0:
182,192,88891,1,0,0:0:0:0:
475,192,88891,1,0,0:0:0:0:
329,192,88988,1,0,0:0:0:0:
109,192,89085,1,0,0:0:0:0:
256,192,89182,1,0,0:0:0:0:
402,192,89278,1,0,0:0:0:0:
36,192,89278,1,0,0:0:0:0:
329,192,89375,1,0,0:0:0:0:
256,192,89472,1,0,0:0:0:0:
182,192,89569,1,0,0:0:0:0:
109,192,89665,1,0,0:0:0:0:
402,192,89665,1,0,0:0:0:0:
329,192,89859,1,0,0:0:0:0:
256,192,89859,1,0,0:0:0:0:
475,192,90053,1,0,0:0:0:0:
182,192,90053,1,0,0:0:0:0:
36,192,90053,1,0,0:0:0:0:
402,192,90149,1,0,0:0:0:0:
256,192,90246,1,0,0:0:0:0:
182,192,90343,1,0,0:0:0:0:
402,192,90440,1,0,0:0:0:0:
109,192,90440,1,0,0:0:0:0:
329,192,90536,1,0,0:0:0:0:
256,192,90633,1,0,0:0:0:0:
109,192,90730,1,0,0:0:0:0:
36,192,90827,1,0,0:0:0:0:
402,192,90827,1,0,0:0:0:0:
182,192,90924,1,0,0:0:0:0:
256,192,91020,1,0,0:0:0:0:
329,192,91117,1,0,0:0:0:0:
475,192,91214,1,0,0:0:0:0:
109,192,91214,1,0,0:0:0:0:
256,192,91407,1,0,0:0:0:0:
402,192,91407,1,0,0:0:0:0:
475,192,91601,1,0,0:0:0:0:
109,192,91601,1,0,0:0:0:0:
329,192,91601,1,0,0:0:0:0:
182,192,91698,1,0,0:0:0:0:
256,192,91794,1,0,0:0:0:0:
402,192,91891,1,0,0:0:0:0:
475,192,91988,1,0,0:0:0:0:
182,192,91988,1,0,0:0:0:0:
256,192,92085,1,0,0:0:0:0:
36,192,92182,1,0,0:0:0:0:
109,192,92278,1,0,0:0:0:0:
475,192,92375,1,0,0:0:0:0:
182,192,92375,1,0,0:0:0:0:
402,192,92472,1,0,0:0:0:0:
329,192,92569,1,0,0:0:0:0:
256,192,92665,1,0,0:0:0:0:
329,192,92762,1,0,0:0:0:0:
109,192,92762,1,0,0:0:0:0:
182,192,92956,1,0,0:0:0:0:
402,192,92956,1,0,0:0:0:0:
36,192,93149,1,0,0:0:0:0:
329,192,93149,1,0,0:0:0:0:
475,192,93149,1,0,0:0:0:0:
182,192,93246,1,0,0:0:0:0:
256,192,93343,1,0,0:0:0:0:
329,192,93440,1,0,0:0:0:0:
475,192,93536,1,0,0:0:0:0:
109,192,93536,1,0,0:0:0:0:
402,192,93633,1,0,0:0:0:0:
182,192,93730,1,0,0:0:0:0:
256,192,93827,1,0,0:0:0:0:
329,192,93924,1,0,0:0:0:0:
36,192,93924,1,0,0:0:0:0:
109,192,94020,1,0,0:0:0:0:
182,192,94117,1,0,0:0:0:0:
256,192,94214,1,0,0:0:0:0:
109,192,94311,1,0,0:0:0:0:
402,192,94311,1,0,0:0:0:0:
475,192,94504,1,0,0:0:0:0:
329,192,94504,1,0,0:0:0:0:
36,192,94698,1,0,0:0:0:0:
475,192,94698,1,0,0:0:0:0:
329,192,94698,1,0,0:0:0:0:
109,192,94794,1,0,0:0:0:0:
256,192,94891,1,0,0:0:0:0:
329,192,94988,1,0,0:0:0:0:
182,192,95085,1,0,0:0:0:0:
402,192,95085,1,0,0:0:0:0:
475,192,95182,1,0,0:0:0:0:
109,192,95278,1,0,0:0:0:0:
402,192,95375,1,0,0:0:0:0:
36,192,95472,1,0,0:0:0:0:
256,192,95472,1,0,0:0:0:0:
182,192,95569,1,0,0:0:0:0:
329,192,95665,1,0,0:0:0:0:
475,192,95762,1,0,0:0:0:0:
256,192,95859,1,0,0:0:0:0:
109,192,95859,1,0,0:0:0:0:
182,192,96053,1,0,0:0:0:0:
329,192,96053,1,0,0:0:0:0:
256,192,96246,1,0,0:0:0:0:
475,192,96246,1,0,0:0:0:0:
36,192,96246,1,0,0:0:0:0:
182,192,96343,1,0,0:0:0:0:
109,192,96440,1,0,0:0:0:0:
36,192,96536,1,0,0:0:0:0:
256,192,96633,1,0,0:0:0:0:
402,192,96633,1,0,0:0:0:0:
109,192,96730,1,0,0:0:0:0:
475,192,96827,1,0,0:0:0:0:
329,192,96924,1,0,0:0:0:0:
36,192,97020,1,0,0:0:0:0:
402,192,97020,1,0,0:0:0:0:
182,192,97117,1,0,0:0:0:0:
256,192,97214,1,0,0:0:0:0:
402,192,97311,1,0,0:0:0:0:
329,192,97407,1,0,0:0:0:0:
182,192,97407,1,0,0:0:0:0:
109,192,97601,1,0,0:0:0:0:
256,192,97601,1,0,0:0:0:0:
329,192,97794,1,0,0:0:0:0:
182,192,97794,1,0,0:0:0:0:
36,192,97794,1,0,0:0:0:0:
402,192,97891,1,0,0:0:0:0:
475,192,97988,1,0,0:0:0:0:
256,192,98085,1,0,0:0:0:0:
182,192,98182,1,0,0:0:0:0:
402,192,98182,1,0,0:0:0:0:
36,192,98278,1,0,0:0:0:0:
256,192,98375,1,0,0:0:0:0:
402,192,98472,1,0,0:0:0:0:
475,192,98569,1,0,0:0:0:0:
109,192,98569,1,0,0:0:0:0:
329,192,98665,1,0,0:0:0:0:
256,192,98762,1,0,0:0:0:0:
182,192,98859,1,0,0:0:0:0:
402,192,98956,1,0,0:0:0:0:
36,192,98956,1,0,0:0:0:0:
109,192,99149,1,0,0:0:0:0:
329,192,99149,1,0,0:0:0:0:
182,192,99343,1,0,0:0:0:0:
475,192,99343,1,0,0:0:0:0:
36,192,99343,1,0,0:0:0:0:
402,192,99440,1,0,0:0:0:0:
256,192,99536,1,0,0:0:0:0:
182,192,99633,1,0,0:0:0:0:
109,192,99730,1,0,0:0:0:0:
475,192,99730,1,0,0:0:0:0:
329,192,99827,1,0,0:0:0:0:
36,192,99924,1,0,0:0:0:0:
182,192,100020,1,0,0:0:0:0:
402,192,100117,1,0,0:0:0:0:
109,192,100117,1,0,0:0:0:0:
329,192,100214,1,0,0:0:0:0:
256,192,100311,1,0,0:0:0:0:
109,192,100407,1,0,0:0:0:0:
36,192,100504,1,0,0:0:0:0:
329,192,100504,1,0,0:0:0:0:
182,192,100698,1,0,0:0:0:0:
475,192,100698,1,0,0:0:0:0:
109,192,100794,1,0,0:0:0:0:
36,192,100891,1,0,0:0:0:0:
329,192,100891,1,0,0:0:0:0:
256,192,100891,1,0,0:0:0:0:
475,192,100988,1,0,0:0:0:0:
182,192,101085,1,0,0:0:0:0:
402,192,101182,1,0,0:0:0:0:
329,192,101278,1,0,0:0:0:0:
36,192,101278,1,0,0:0:0:0:
256,192,101375,1,0,0:0:0:0:
182,192,101472,1,0,0:0:0:0:
329,192,101569,1,0,0:0:0:0:
109,192,101665,1,0,0:0:0:0:
475,192,101665,1,0,0:0:0:0:
182,192,101762,1,0,0:0:0:0:
256,192,101859,1,0,0:0:0:0:
329,192,101956,1,0,0:0:0:0:
402,192,102053,1,0,0:0:0:0:
109,192,102053,1,0,0:0:0:0:
182,192,102246,1,0,0:0:0:0:
256,192,102246,1,0,0:0:0:0:
36,192,102440,1,0,0:0:0:0:
329,192,102440,1,0,0:0:0:0:
475,192,102440,1,0,0:0:0:0:
109,192,102536,1,0,0:0:0:0:
256,192,102633,1,0,0:0:0:0:
329,192,102730,1,0,0:0:0:0:
109,192,102827,1,0,0:0:0:0:
402,192,102827,1,0,0:0:0:0:
182,192,102924,1,0,0:0:0:0:
256,192,103020,1,0,0:0:0:0:
402,192,103117,1,0,0:0:0:0:
475,192,103214,1,0,0:0:0:0:
109,192,103214,1,0,0:0:0:0:
329,192,103311,1,0,0:0:0:0:
256,192,103407,1,0,0:0:0:0:
182,192,103504,1,0,0:0:0:0:
36,192,103601,1,0,0:0:0:0:
402,192,103601,1,0,0:0:0:0:
475,192,103794,1,0,0:0:0:0:
256,192,103794,1,0,0:0:0:0:
36,192,103988,1,0,0:0:0:0:
402,192,103988,1,0,0:0:0:0:
182,192,103988,1,0,0:0:0:0:
329,192,104085,1,0,0:0:0:0:
256,192,104182,1,0,0:0:0:0:
109,192,104278,1,0,0:0:0:0:
36,192,104375,1,0,0:0:0:0:
329,192,104375,1,0,0:0:0:0:
256,192,104472,1,0,0:0:0:0:
475,192,104569,1,0,0:0:0:0:
402,192,104665,1,0,0:0:0:0:
36,192,104762,1,0,0:0:0:0:
329,192,104762,1,0,0:0:0:0:
109,192,104859,1,0,0:0:0:0:
182,192,104956,1,0,0:0:0:0:
256,192,105053,1,0,0:0:0:0:
182,192,105149,1,0,0:0:0:0:
402,192,105149,1,0,0:0:0:0:
329,192,105343,1,0,0:0:0:0:
109,192,105343,1,0,0:0:0:0:
475,192,105536,1,0,0:0:0:0:
182,192,105536,1,0,0:0:0:0:
36,192,105536,1,0,0:0:0:0:
329,192,105633,1,0,0:0:0:0:
256,192,105730,1,0,0:0:0:0:
182,192,105827,1,0,0:0:0:0:
36,192,105924,1,0,0:0:0:0:
402,192,105924,1,0,0:0:0:0:
109,192,106020,1,0,0:0:0:0:
329,192,106117,1,0,0:0:0:0:
256,192,106214,1,0,0:0:0:0:
182,192,106311,1,0,0:0:0:0:
475,192,106311,1,0,0:0:0:0:
402,192,106407,1,0,0:0:0:0:
329,192,106504,1,0,0:0:0:0:
256,192,106601,1,0,0:0:0:0:
402,192,106698,1,0,0:0:0:0:
109,192,106698,1,0,0:0:0:0:
36,192,106891,1,0,0:0:0:0:
182,192,106891,1,0,0:0:0:0:
475,192,107085,1,0,0:0:0:0:
36,192,107085,1,0,0:0:0:0:
182,192,107085,1,0,0:0:0:0:
402,192,107182,1,0,0:0:0:0:
256,192,107278,1,0,0:0:0:0:
182,192,107375,1,0,0:0:0:0:
329,192,107472,1,0,0:0:0:0:
109,192,107472,1,0,0:0:0:0:
36,192,107569,1,0,0:0:0:0:
402,192,107665,1,0,0:0:0:0:
109,192,107762,1,0,0:0:0:0:
475,192,107859,1,0,0:0:0:0:
256,192,107859,1,0,0:0:0:0:
329,192,107956,1,0,0:0:0:0:
182,192,108053,1,0,0:0:0:0:
36,192,108149,1,0,0:0:0:0:
256,192,108246,1,0,0:0:0:0:
402,192,108246,1,0,0:0:0:0:
329,192,108440,1,0,0:0:0:0:
109,192,108440,1,0,0:0:0:0:
256,192,108633,1,0,0:0:0:0:
36,192,108633,1,0,0:0:0:0:
475,192,108633,1,0,0:0:0:0:
329,192,108730,1,0,0:0:0:0:
402,192,108827,1,0,0:0:0:0:
475,192,108924,1,0,0:0:0:0:
256,192,109020,5,0,0:0:0:0:
109,192,109020,1,0,0:0:0:0:
402,192,109117,1,0,0:0:0:0:
36,192,109214,1,0,0:0:0:0:
182,192,109311,1,0,0:0:0:0:
475,192,109407,1,0,0:0:0:0:
109,192,109407,1,0,0:0:0:0:
329,192,109504,1,0,0:0:0:0:
256,192,109601,1,0,0:0:0:0:
109,192,109698,1,0,0:0:0:0:
182,192,109794,1,0,0:0:0:0:
329,192,109794,1,0,0:0:0:0:
475,192,109988,1,0,0:0:0:0:
36,192,109988,1,0,0:0:0:0:
109,192,110085,1,0,0:0:0:0:
329,192,110182,1,0,0:0:0:0:
256,192,110182,1,0,0:0:0:0:
402,192,110182,1,0,0:0:0:0:
109,192,110375,1,0,0:0:0:0:
36,192,110472,1,0,0:0:0:0:
256,192,110569,1,0,0:0:0:0:
182,192,110569,1,0,0:0:0:0:
329,192,110665,1,0,0:0:0:0:
402,192,110762,1,0,0:0:0:0:
475,192,110859,1,0,0:0:0:0:
329,192,110956,1,0,0:0:0:0:
256,192,110956,1,0,0:0:0:0:
402,192,110956,1,0,0:0:0:0:
182,192,111053,1,0,0:0:0:0:
109,192,111149,1,0,0:0:0:0:
36,192,111246,1,0,0:0:0:0:
182,192,111343,1,0,0:0:0:0:
256,192,111343,1,0,0:0:0:0:
329,192,111440,1,0,0:0:0:0:
402,192,111536,1,0,0:0:0:0:
475,192,111633,1,0,0:0:0:0:
256,192,111730,1,0,0:0:0:0:
329,192,111730,1,0,0:0:0:0:
402,192,111730,1,0,0:0:0:0:
182,192,111827,1,0,0:0:0:0:
109,192,111924,1,0,0:0:0:0:
36,192,112020,1,0,0:0:0:0:
182,192,112117,1,0,0:0:0:0:
256,192,112117,1,0,0:0:0:0:
329,192,112214,1,0,0:0:0:0:
402,192,112311,1,0,0:0:0:0:
475,192,112407,1,0,0:0:0:0:
329,192,112504,1,0,0:0:0:0:
256,192,112504,1,0,0:0:0:0:
402,192,112504,1,0,0:0:0:0:
182,192,112601,1,0,0:0:0:0:
109,192,112698,1,0,0:0:0:0:
36,192,112794,1,0,0:0:0:0:
182,192,112891,1,0,0:0:0:0:
256,192,112891,1,0,0:0:0:0:
256,192,113085,1,0,0:0:0:0:
329,192,113085,1,0,0:0:0:0:
475,192,113278,1,0,0:0:0:0:
182,192,113278,1,0,0:0:0:0:
256,192,113278,1,0,0:0:0:0:
402,192,113375,1,0,0:0:0:0:
329,192,113472,1,0,0:0:0:0:
36,192,113472,1,0,0:0:0:0:
402,192,113569,1,0,0:0:0:0:
475,192,113665,1,0,0:0:0:0:
182,192,113665,1,0,0:0:0:0:
36,192,113859,1,0,0:0:0:0:
329,192,113859,1,0,0:0:0:0:
109,192,113956,1,0,0:0:0:0:
182,192,114053,1,0,0:0:0:0:
475,192,114053,1,0,0:0:0:0:
109,192,114149,1,0,0:0:0:0:
36,192,114246,1,0,0:0:0:0:
329,192,114246,1,0,0:0:0:0:
475,192,114440,1,0,0:0:0:0:
402,192,114440,1,0,0:0:0:0:
36,192,114536,1,0,0:0:0:0:
475,192,114633,1,0,0:0:0:0:
402,192,114633,1,0,0:0:0:0:
182,192,114730,1,0,0:0:0:0:
